#TITLE:Scientist;
#SUBTITLE:;
#ARTIST:Twice;
#CREDIT:Vndt;
#MUSIC:Scientist_audio.ogg;
#SELECTABLE:YES;
#BACKGROUND:Scientist_bg.png;
#BANNER:Scientist_bn.png;
#CDTITLE:Formula of Love O+T=<3;
#OFFSET:-0.0269841;
#SAMPLESTART:38.390;
#SAMPLELENGTH:17.920;
#BPMS:0=113,9=113.004,10=113,25=113.004,26=113,41=113.004,42=113,51=113.004,52=113,59=113.004,60=113,67=113.004,68=113,75=113.004,76=113,83=113.004,84=113;
#STOPS:198.25=1.06195;
#JACKET:Scientist_jk.jpg;
#GENRE:K-pop;
#BGCHANGES:-0.05=Scientist_video.mov=1.000=1=0=0=StretchNoLoop==CrossFade==,
99999.000=-nosongbg-=1.000=0=0=0=StretchNoLoop====
;
#FGCHANGES:;
#LYRICSPATH:Scientist_audio.lrc;

//---------------dance-single - ----------------
#NOTES:
     dance-single:
     :
     Beginner:
     2:
     0.000,0.000,0.000,0.000,0.000:
0000
0000
0000
0000
,
0000
0000
0000
0000
,
0000
0000
0000
0001
,
0000
0000
1000
0000
,
1000
0001
0000
1000
,
0000
0000
0001
0000
,
0001
0000
1000
0000
0000
0010
0000
0000
,
2000
3000
0000
0010
0000
0000
1000
0000
,
0001
0000
1000
0000
0000
0100
0000
0000
,
2000
3000
0000
0400
0000
0000
0000
0300
,
0000
0000
0000
0000
0010
0000
0000
0001
,
0000
0000
0000
0000
0000
0000
0000
0001
,
0000
0000
0000
0000
0000
0000
0000
1000
,
0000
0000
0000
0200
0000
0300
0000
0000
,
1000
0000
0000
0000
0001
0000
0000
1000
,
0000
0000
0000
0000
0000
0000
0000
1000
,
0000
0000
0000
0000
0000
0000
0000
0001
,
0000
0000
0000
0220
0000
0330
0000
0000
,
0000
0000
1001
0000
,
0001
0000
0000
0200
0000
0300
0000
0000
,
0010
0010
0010
0000
,
0000
0000
0000
1MM1
0000
0000
0000
0000
,
0010
0000
1000
2000
,
3002
0000
2003
0000
0002
0000
0000
3003
,
1000
0000
0000
0000
,
0001
0000
0000
0000
0000
0010
0010
0000
,
0010
0010
0000
0000
,
0100
0000
0000
0220
0000
0330
0000
0000
,
0010
0000
0000
0110
0000
0000
0001
0000
,
1000
0000
1000
0001
,
0000
0001
0001
0000
1000
0000
0010
0000
,
0100
0000
0010
0100
,
0001
0000
0001
0010
,
0100
0000
0010
0100
,
1000
1000
1000
0000
0010
0000
0000
0000
,
0010
0000
2000
3001
,
1000
0001
0010
0000
,
0010
0000
0002
1003
,
0001
1000
0100
0000
,
0100
0000
2000
3001
,
1000
0000
0001
0000
0100
0100
0000
0000
,
0000
0000
0000
0000
0100
0100
0000
0000
,
0000
0001
0000
0000
2001
3000
0000
0000
,
0000
0100
0000
0000
0120
0030
0000
0000
,
0000
0000
0100
0000
,
0100
0000
0000
0000
0100
0000
1000
1000
,
0000
1000
0000
0000
1002
0003
0000
0000
,
0000
0100
0000
0000
0120
0030
0000
0000
,
0000
0000
0100
0100
,
0100
0100
0010
0000
,
1001
0000
0000
0000
1000
0000
0000
0200
,
0000
0300
0000
0000
0010
0000
0010
0000
,
0010
0000
0000
0000
0000
0000
0000
1MM1
,
0000
0000
0010
0000
,
0001
0002
2003
3002
,
2000
0000
0000
3003
0001
0000
0000
0000
,
0000
0000
1000
0000
,
0000
0010
0010
0000
0010
0000
0010
0000
,
1000
0000
0000
0100
,
0100
0000
0000
0010
,
0010
0000
0000
0001
,
0001
0000
0000
0100
,
0100
0000
0010
0000
0000
0000
1000
1000
,
0000
0000
0001
0000
0000
0000
1000
1000
,
0000
0000
0000
0100
,
0100
0000
0000
0000
0000
0010
0010
0010
,
0000
0000
0000
0000
;

//---------------dance-single - ----------------
#NOTES:
     dance-single:
     :
     Easy:
     5:
     0.000,0.000,0.000,0.000,0.000:
0000
0000
0000
0000
,
0000
0000
0000
0000
,
0000
0000
0000
0001
,
0001
1000
0000
0100
0010
0000
0100
0000
,
1000
0001
0000
1000
,
1000
0001
0000
0000
0010
0000
0010
0000
,
0001
0000
1000
0000
0000
0010
2000
3010
,
2000
3001
0000
0010
0100
0000
0010
0000
,
0110
0000
1001
0000
0000
0001
0100
0000
,
0010
0000
0000
0010
1000
0010
0100
0010
,
0000
0000
0000
0000
2020
3030
0000
0000
,
1000
0000
0000
0000
0100
0000
0020
0000
0000
0000
0000
0030
0000
0000
0000
0000
,
0100
0000
0010
0002
0000
0003
0000
0000
,
0001
0000
0010
0200
0000
1300
0100
1000
,
0100
0000
2000
3000
0001
0000
0100
0001
,
0100
0000
0002
0000
0000
0003
0000
1000
,
0100
0000
2000
0000
0000
3000
0000
0001
,
0010
0000
0001
0000
0020
0000
0002
0000
0000
0000
0000
0000
0000
0000
0000
0033
,
0000
0001
1200
0310
,
0200
0000
0000
0000
0000
0000
0000
0000
0000
0000
0300
0000
1000
0000
0000
0000
0000
0000
0020
0000
0000
0000
0000
0000
0000
0000
0000
0030
0000
0000
0010
0000
0000
0000
0000
0000
0000
0000
0000
0000
0000
0000
0000
0000
0000
0000
0000
0000
,
0100
0010
0110
1001
,
0001
0000
0000
M22M
0000
0330
0000
0000
,
0010
0000
0000
0000
1000
0000
0000
0000
2200
0000
0300
0000
0000
0000
0000
3000
,
0002
0000
M000
0000
0000
0000
2003
0000
000M
0000
0000
0002
0000
0000
0000
0000
0000
0000
0000
0000
0000
3003
0000
0000
,
1000
1000
0000
1000
0000
0022
0000
0033
,
1000
0000
0000
0010
0000
0000
2000
0000
0000
0000
3001
0000
0001
0000
0010
0000
,
0001
0000
0020
0000
0200
0000
0000
0330
0000
0000
0000
0000
0000
0000
0100
0000
,
0100
0010
0000
2002
0000
3003
0000
0010
,
0010
0100
0000
2002
3003
0000
0001
0000
,
0010
0001
0000
0000
1000
0000
0010
1000
,
0000
0001
1000
0000
1000
0000
0001
0000
,
0201
0000
0000
0301
0000
0000
0000
0000
0001
0000
0000
0000
1000
0000
0000
0000
,
1100
0000
0000
0100
0000
0000
0000
0000
1000
0000
0000
0000
0010
0000
0000
0000
,
0100
0000
0000
0000
0100
0000
0000
0000
0000
0100
0000
0000
0000
0000
0000
0000
0000
0000
0000
0000
0000
0000
0000
0000
0001
0000
0000
0000
0000
0000
0000
0000
0000
0000
0000
0000
0010
0000
0000
0000
0000
0000
0000
0000
0000
0000
0000
0000
,
0100
0100
0100
0000
0100
0000
1000
0000
,
0100
1000
2100
3001
,
0011
0001
0100
0001
,
0100
0001
0102
1003
,
1010
1000
0010
1000
,
0010
1000
2010
3001
,
0101
0000
1000
0000
0010
0010
0000
0000
,
0000
0000
0000
0000
0010
0010
0000
0000
,
0000
0000
0010
0000
2010
3000
1000
0001
,
0000
0000
0010
0000
0021
0030
0001
1000
,
0000
1000
0010
0010
,
0010
0000
1000
0010
0100
0001
1000
2001
,
0000
3000
0100
0000
0020
0030
0100
0200
,
0000
0300
0010
0000
0200
0300
0010
0020
,
0000
0130
0100
0000
0010
0100
0010
0100
,
0010
0100
0010
0100
1001
0000
1000
0000
,
0201
0000
0000
0000
0000
0000
0310
0000
0000
0000
0000
0000
0200
0000
0000
0000
0000
0300
0001
0000
0000
0020
0000
0000
,
0000
0030
0010
0000
0000
0000
0000
0000
0100
0000
0000
0000
0010
0000
0000
0000
,
0110
0000
1001
0000
1000
0000
0000
M22M
,
0000
0330
0000
0000
0010
0000
0001
0000
,
2200
0000
0000
0000
0000
0000
0300
0000
0000
0000
0000
0000
0000
0000
0000
0000
0000
0000
0000
0000
0000
3000
0000
0000
0002
0000
0000
0000
M000
0000
0000
0000
0000
0000
0000
0000
2003
0000
0000
0000
000M
0000
0000
0000
0000
0000
0002
0000
,
0000
0000
0000
3003
0001
0001
0000
0001
,
0000
0000
2020
0000
0000
0000
3030
0000
0001
0000
0000
0010
0000
0000
0002
0000
,
0000
0000
1003
0000
1000
0000
0010
0000
1000
0000
0020
0000
0200
0000
0000
0330
,
0010
0000
0000
1000
0000
0100
0100
0100
,
0200
0000
0310
0010
0000
0001
0001
0001
,
0002
0003
0000
0001
0000
1000
1000
1000
,
2000
0000
3000
0000
0000
0010
0010
0010
,
0020
0000
0000
0000
0130
0000
0000
0100
0000
0000
0001
0000
0001
0000
0001
0000
,
0002
0000
0003
0000
1000
0000
0000
1000
0000
0000
0001
0000
0001
0000
0001
0000
,
0002
0000
0003
0000
0000
0010
0010
0010
,
0020
0000
0030
0000
0000
0100
0100
0100
,
0000
0000
0000
0000
;

//---------------dance-single - ----------------
#NOTES:
     dance-single:
     :
     Medium:
     8:
     0.000,0.000,0.000,0.000,0.000:
0000
0000
0000
0000
,
0000
0000
0000
0000
,
0000
0000
0000
0000
0000
0000
0001
0010
,
0001
1000
0000
0100
0110
0000
0100
1000
,
1100
0000
0101
0000
0000
0000
1000
0010
,
1000
0000
1000
0001
0000
0000
0100
0000
0110
0000
0010
0000
0010
0000
1000
0000
,
1010
0000
0000
0000
0000
0000
0011
0000
0000
0002
0000
0003
2000
0000
0000
3010
0000
0000
2000
0000
0000
3010
0000
0000
,
2000
0000
3100
2000
0000
3000
0010
0000
0100
0000
0001
0000
0010
0000
0100
0000
,
0110
0000
1001
0000
0000
0001
0100
0010
,
0010
0000
1000
0002
0000
0003
0010
0000
0001
0000
0010
0000
0001
0000
0010
0002
,
0000
0003
0000
0000
0202
0303
0000
1000
,
0010
0000
0100
0000
0001
0000
0020
0000
0000
0000
0000
0030
0000
0000
0001
0000
,
0010
0000
0100
0000
1000
0000
0020
0000
0000
0000
0000
0030
0000
0000
1000
0000
,
0100
0010
0001
0200
0000
0301
0100
0010
,
1020
0000
2030
3000
0021
0000
0032
1003
,
0010
0000
0100
0000
0001
0000
0002
0000
0000
0000
0000
0003
0000
0000
1000
0000
,
0100
0000
0010
0000
0001
0000
2000
0000
0000
0000
0000
3000
0000
0000
0001
0000
,
0100
0000
0010
0000
1000
0000
2200
0000
0000
0000
0000
0000
0000
0000
0000
3300
,
0000
0001
0010
0100
1200
0000
0310
0010
,
0200
0000
0000
0000
0000
0000
0000
0000
0000
0000
0300
0000
1000
0000
0000
0000
0000
0000
0020
0000
0000
0000
0000
0000
0000
0000
0000
0030
0000
0000
0010
0000
0000
0000
0000
0000
0000
0000
0000
0000
0000
0000
0100
0000
0000
0000
0000
0000
,
0010
0100
0010
0100
0110
0000
1001
0000
,
0001
0000
0010
M12M
0000
0031
0000
0010
,
0010
0100
1000
0100
2001
3000
2000
0000
,
3002
0000
M000
0000
0000
0000
2003
0000
000M
0000
0000
0002
0000
0000
0000
0000
0000
0000
0000
0000
0000
3003
0000
0000
,
1000
0000
0001
0000
0000
0010
0001
0000
0000
0000
0022
0000
0000
0000
0033
0000
,
1000
0010
0000
1000
0000
0001
2000
0000
0000
0000
3001
0000
0001
0000
0010
0000
,
0001
0000
0000
0010
0000
0000
2001
0000
0000
3002
0000
0003
0000
0000
0000
0000
0000
0000
0000
0000
0000
0100
0000
0000
,
0010
0000
0100
0010
0000
0000
0220
0000
0000
0000
0330
0000
0000
0000
0010
0000
,
0100
0000
0010
0100
0000
0000
2002
0000
3003
0000
0001
0000
0001
0000
1000
0000
,
1000
0000
1000
0010
0000
0000
1000
0000
1000
0000
0001
0000
0001
0000
0001
0010
,
0000
1001
1001
1000
0010
0100
0001
0100
,
0201
0000
0000
0301
0000
0000
0001
0000
0010
0000
0100
0000
1000
0000
0100
0000
,
1100
0000
1000
0100
0000
0000
0100
0010
0100
0000
0100
0010
0100
0000
0100
0010
,
0100
0000
0000
0000
0100
0000
0000
0000
0000
0100
0000
0000
0000
0000
0000
0000
0000
0000
1000
0000
0000
0000
0000
0000
1000
0000
0000
0000
0000
0000
0001
0000
0000
0000
0000
0000
0001
0000
0000
0000
0000
0000
1000
0000
0000
0000
0000
0000
,
0010
0010
0010
0000
0010
0100
0001
0100
,
0010
0100
0001
0100
0102
0000
1003
0010
,
1010
0000
0021
0000
0130
0010
0001
0010
,
0100
0010
0001
0010
0012
0000
1003
0100
,
1100
0000
0101
0000
0100
0010
1000
0010
,
0100
0010
1000
0010
2010
0000
3001
0100
,
0101
0000
0000
0000
1001
0000
0000
0001
0010
0001
0010
0001
0000
0001
0000
0000
,
0000
0000
0000
0000
0000
0000
0000
1000
0010
1000
0010
1000
0000
1000
0000
0000
,
0000
0010
0010
0010
2010
3000
0001
1000
,
0000
0010
0010
0010
1020
0030
0001
1000
,
0001
0010
0010
0001
0010
0001
0010
0100
,
0010
0001
1000
0010
0100
0001
1000
2001
,
0000
3100
0100
0100
0200
0310
0100
0200
,
0000
0310
0010
0010
0020
0031
0010
0020
,
0000
0000
0130
0000
0100
1000
0100
0000
0010
0000
0100
0000
0010
0000
0001
0000
,
0010
0100
0010
0001
1001
0000
0000
0000
,
0201
0000
0000
0000
0000
0000
0310
0000
0000
0010
0000
0000
0200
0000
0000
0000
0000
0300
0001
0000
0000
0020
0000
0000
,
0000
0030
0010
0000
0000
0000
0100
0000
0010
0000
0100
0000
0010
0000
0100
0000
,
0110
0000
1001
0000
1000
0000
0010
M12M
,
0000
1030
0000
0010
0010
0100
0001
0100
,
1002
0000
0000
0003
0000
0000
2000
0000
0000
0000
0000
0000
3002
0000
M000
0000
0000
0000
2003
0000
000M
0000
0000
0002
,
0000
0000
0000
0000
0000
0000
3003
0000
0001
0010
0001
0010
0000
0010
0001
0000
,
0000
0000
2020
0000
0000
0000
3030
0000
1000
0010
1000
0010
0000
0010
2000
0000
,
0000
0000
0000
3000
0000
0000
0010
0000
0000
1000
0000
0000
0010
0000
0000
0000
0000
0000
0010
0000
0000
0000
0000
0000
1000
0000
0000
0000
0000
0000
0010
0000
0000
0000
0000
0000
1002
0000
0000
0000
0000
0000
2003
0000
0000
0000
3000
0000
,
0010
1000
0100
1000
0010
0100
0100
0100
,
0200
0310
0010
1000
0100
0010
0010
0010
,
0020
0031
0100
0010
1000
0100
0010
0010
,
0020
0032
0103
0001
1000
0100
0100
0100
,
0010
0000
0001
0000
0200
0000
0000
0301
0100
0000
0100
0000
0110
0000
0100
0000
,
0100
0000
0001
0000
0020
0000
0000
0130
0010
0000
0010
0000
0110
0000
0010
0000
,
0010
0001
0100
0010
1000
0010
0010
0010
,
0020
2030
3200
0310
0001
0100
0100
0100
,
0000
0000
0000
0000
;

//---------------dance-single - ----------------
#NOTES:
     dance-single:
     :
     Hard:
     10:
     0.000,0.000,0.000,0.000,0.000:
0000
0000
0000
0000
,
0000
0000
0000
0000
,
0000
0000
0000
0000
0000
0000
0000
0000
0000
0000
0000
0000
0001
0010
0001
0010
,
0001
1000
0010
0100
0110
0000
0100
0001
,
0101
0000
0000
0000
1100
0000
0000
0000
0000
0000
0000
0000
1000
0010
1000
0010
,
1000
0000
1000
0001
0000
0000
0010
0000
0110
0000
0100
0000
0100
0000
1000
0000
,
1100
0000
0000
0000
0000
0000
0101
0000
0000
0002
0000
0003
2000
0000
0000
3010
0000
0000
0200
0000
0000
1000
0300
0000
,
0200
0000
0301
2000
0000
3001
0010
0000
0100
0000
1000
0000
0010
0000
0100
0000
,
0110
0000
0000
0000
1001
0000
0000
0000
0001
0000
0010
0000
0100
0000
1000
0100
,
1000
0000
0001
2000
0000
3000
0010
0100
0001
0100
0010
0100
0010
1000
0010
0200
,
0320
1030
0100
0010
0002
0013
0001
1000
,
0010
0000
0100
0000
0001
0000
0020
0000
0032
0000
0000
0003
1000
0000
0001
0000
,
0010
0100
1000
0020
2030
0000
3001
1000
,
0100
0010
0001
0200
0301
0001
0100
0010
,
2010
3020
1030
0000
0012
0023
0031
1000
,
0010
0000
0100
0000
0001
0000
0020
0000
0032
0000
0000
0003
0001
0000
1000
0000
,
0100
0000
0010
0000
0001
0000
0200
0000
0302
0000
0000
0003
1000
0000
0001
0000
,
0100
0000
0010
0000
1000
0000
0200
0000
2300
0000
0200
0000
3000
0300
0010
0100
,
1000
0000
0001
0100
0010
0000
0100
0000
0201
0000
0000
0000
0310
0000
0010
0000
,
0200
0000
0000
0000
0000
0300
0001
0000
0000
0020
0000
0000
0230
0000
0000
0310
0000
0000
0001
0000
0000
0100
0000
0000
,
0020
0000
0000
0100
0000
0030
0010
0000
0000
0100
0000
0000
1002
0000
0000
0023
0000
0000
0032
0000
0000
2003
0000
0000
,
3001
1000
0010
M12M
0230
0301
0001
0010
,
0010
0100
1000
0100
2001
3200
2300
0000
,
3002
0000
M000
0000
0000
0000
2003
0000
000M
0000
0000
0002
0000
0000
0000
0000
0000
0000
0000
0000
0000
3003
0000
0000
,
1000
0001
1000
0100
0000
0010
0001
0000
0001
0000
0010
0000
20M0
0000
3002
0000
,
1003
0010
0000
0200
0300
0001
2000
0000
0000
0000
3001
0010
0001
0000
0010
0000
,
0002
0000
0000
0000
0000
0000
2003
0000
0000
0000
3000
0000
2000
0000
0000
0000
0000
0000
3002
0000
0000
0000
0003
0000
0010
0000
0000
0000
0000
0000
0200
0000
0000
0000
0000
0000
2300
0000
0000
3001
0000
0000
1000
0000
0000
0001
0000
0000
,
0100
0000
0000
0000
0000
0000
010M
0000
0000
1000
0000
0000
0020
0000
0000
0000
0000
0000
2030
0000
0000
0000
3000
0000
0020
0000
0000
0000
0000
0000
0230
0000
0000
0000
0000
0000
0302
0000
0000
1003
0000
0000
0001
0000
0000
1000
0000
0000
,
0100
0000
M100
0001
0020
0000
0032
0000
2003
0000
3001
1000
0010
0000
0010
1000
,
0001
0000
0010
0001
0000
0000
1000
0001
0010
0000
0010
0001
1000
0000
0010
1000
,
0000
0000
1001
0000
1001
0000
1000
0010
1000
0000
0001
1000
0100
0000
M100
0000
,
0201
0000
0000
0301
0000
0000
1000
0001
0100
0000
0100
0001
1000
0000
0100
0000
,
2100
0000
3001
0200
0301
0000
0001
0010
0100
0000
0010
0100
1000
0000
1000
0001
,
0100
0000
0000
0000
0100
0000
0000
0000
0000
0010
0000
0000
0000
0000
0000
0000
0000
0000
1000
0000
0000
0010
0000
0000
0100
0000
0000
0000
0000
0000
0010
0000
0000
0100
0000
0000
0001
0000
0000
0000
0000
0000
0001
0000
0000
1000
0000
0000
,
0100
0100
0100
0000
0100
0010
1000
0010
,
0100
0010
0001
0010
0012
0000
1003
0100
,
1100
0000
0201
0000
0310
0100
1000
0100
,
0010
0100
0001
0100
0102
0000
1003
0010
,
1010
0000
0011
0000
0010
0100
0001
0100
,
0010
0100
1000
0100
2100
0000
3001
0010
,
0011
0000
0000
0000
1001
0000
0000
0001
0100
0010
1000
0010
0000
0010
0000
0000
,
0000
0000
0000
0000
0000
0000
0000
1000
0100
0010
0001
0010
0000
0010
0001
0000
,
1000
0000
0010
0100
0010
0000
0010
0000
0020
0000
2030
0000
3100
2000
0001
0000
,
0000
0010
0010
3010
0020
0130
0001
1000
,
0001
0000
0010
0100
0010
0000
0001
0000
0010
0000
0001
0000
0010
0000
0100
0000
,
0010
0001
1000
0010
0100
0001
1000
2001
,
0000
0000
3100
0000
0100
0000
0100
0000
0200
0000
0310
0000
0100
0M00
0200
0000
,
0000
0000
0310
0000
0010
0000
0010
0000
0020
0000
0031
0000
0010
00M0
0020
0000
,
0000
0000
0130
0000
0100
0010
0001
0000
0010
0000
0100
0000
0010
0000
1000
0000
,
0010
0000
0100
0000
0010
0000
0001
0000
1001
0000
1000
0100
0010
0000
0100
0000
,
1200
0000
0000
0000
0000
0000
0310
0000
0000
0010
0000
0000
0200
0000
0000
0000
0000
0300
1000
0000
0000
0020
0000
0000
,
0230
0000
0000
0310
0000
0000
1000
0000
0000
0100
0000
0000
0020
0000
0000
0100
0000
0030
0010
0000
0000
0100
0000
0000
,
2001
3020
2030
3002
1003
0001
0010
M12M
,
0230
1300
1000
0010
0010
0100
0001
0100
,
1002
0000
0000
0203
0000
0000
0302
0000
0000
0000
0000
0000
2003
0000
000M
0000
0000
0000
3002
0000
M000
0000
0000
2000
,
0000
0000
0000
0000
0000
0000
3003
0000
0001
1000
0001
0100
0000
0010
1000
0000
,
1000
0000
0010
0000
00M2
0000
2003
0000
3001
0010
0100
1000
0000
1000
0001
0000
,
0011
0000
0000
0000
0000
0000
1000
0000
0000
0010
0000
0000
1000
0000
0000
0000
0000
0000
0010
0000
0000
0000
0000
0000
2000
0000
0000
0000
0000
0000
3002
0000
0000
0000
0003
0000
0002
0000
0000
0000
0000
0000
1003
0000
0000
0000
0000
0000
,
0010
1000
0100
1000
0010
0100
0100
0100
,
0200
0310
0010
1000
0100
0010
0010
0010
,
0020
0031
0100
0010
1000
0100
0010
0010
,
0020
0000
0032
0000
0103
0000
0001
0000
1000
0000
0100
0010
0001
1000
0001
0000
,
0010
0000
0001
0000
0200
0000
0000
0301
0010
0000
0100
0000
0110
0000
0100
0000
,
0100
0000
1000
0000
0020
0000
0000
0130
0010
0000
0010
0000
0110
0000
0010
0000
,
0010
1000
0100
0010
0001
0010
0010
0010
,
0020
0032
0203
0310
1000
0100
0100
0100
,
0000
0000
0000
0000
;

//---------------dance-single - ----------------
#NOTES:
     dance-single:
     :
     Challenge:
     13:
     0.000,0.000,0.000,0.000,0.000:
0000
0000
0000
0000
,
0000
0000
0000
0000
,
0000
0000
0000
0000
0000
0000
0000
0000
0000
0000
0000
0000
0000
0000
0000
0000
0000
0000
0000
0000
0000
0000
1000
0000
0010
0000
0000
0000
1000
0000
0000
0000
0000
0000
0000
0000
0001
0000
0000
0010
0000
0000
0001
0000
0000
0010
0000
0000
,
0001
1000
0010
0100
0110
0000
0100
0001
,
0101
0000
0000
0000
0000
0000
0000
0000
0000
0000
0000
0000
1100
0000
0000
0000
0000
0000
0000
0000
0000
0000
0001
0000
0010
0000
0000
0000
0001
0000
0000
0000
0000
0000
0000
0000
1000
0000
0000
0010
0000
0000
1000
0000
0000
0010
0000
0000
,
1000
0000
1000
0001
0000
0000
0010
0000
0110
0000
0100
0000
0100
0000
1000
0000
,
1100
0000
0000
0000
0000
0000
0101
0000
0000
0002
0000
1003
0002
0000
1003
0010
0000
0000
0200
0000
0000
1000
0300
0000
,
0200
0000
0301
2000
0000
3001
0010
0000
0100
0000
1000
0000
0010
0000
0100
0000
,
0110
0000
0000
0000
0000
0000
0000
0000
0000
0000
0000
0000
1001
0000
0000
0000
0000
0000
0000
0000
0000
0000
0001
0000
1000
0000
0000
0000
0001
0000
0010
0000
0000
0000
0000
0000
0100
0000
0000
0000
0000
0000
1000
0000
0000
0100
0000
0000
,
1000
0000
0001
2000
0000
3000
0010
0100
0001
0100
0010
0100
0010
1000
0010
0200
,
0320
1030
0100
0010
0002
0013
0001
1000
,
0010
0000
0100
0000
0001
0000
0020
0000
0032
0000
0000
0003
1000
0000
0001
0000
,
0010
0100
1000
0020
2030
0000
3001
1000
,
0100
0010
0001
0200
0301
0001
0100
0010
,
2010
3020
1030
0000
0012
0023
0031
1000
,
0010
0000
0100
0000
0001
0000
0020
0000
0032
0000
0000
0003
0001
0000
1000
0000
,
0100
0000
0010
0000
0001
0000
0200
0000
0302
0000
0000
0003
1000
0000
0001
0000
,
0100
0000
0010
0000
1000
0000
0200
0000
2300
0000
0200
0000
3000
0300
0010
0100
,
1000
0000
0000
0000
0000
0000
0001
0000
0000
0100
0000
0000
0010
0000
0000
0000
0000
0000
0100
0000
0000
0000
0010
0000
1000
0000
0000
0000
0010
0000
0100
0000
0000
0000
0000
0000
0001
0000
0000
0000
0000
0000
0010
0000
0000
0000
0000
0000
,
0200
0000
0000
0000
0000
1300
0100
0000
0000
0010
0000
0100
1000
0000
0100
0010
0000
0000
0001
0000
0000
0100
0000
0000
,
0020
0000
0000
0100
0000
0030
0010
0000
0000
0100
0000
0000
1002
0000
0000
0023
0000
0000
0032
0000
0000
2003
0000
0000
,
3001
0000
0000
0100
0000
0010
1000
0000
0000
0001
0000
0010
0001
0000
1000
0001
0000
0000
0001
0000
0000
0010
0000
0000
,
0010
0000
0000
0100
0000
0000
1000
0000
0000
0100
0000
0010
0001
0000
0010
0100
0000
0000
1000
0000
0000
0010
0000
0000
,
0200
0000
0000
0000
0000
0301
0100
0000
0000
0010
0000
0100
0001
0000
0100
0010
0000
0000
1000
0000
0000
0100
0000
0000
,
1000
0000
0000
0001
0000
0000
1000
0000
0000
0100
0000
0000
0000
0000
0000
M100
0000
0000
0001
0000
0000
0000
0100
0000
0001
0000
0000
0000
0100
0000
0010
0000
0000
0000
0000
0000
2000
0000
0000
0000
0000
0000
3002
0000
0000
0000
0000
0000
,
1003
0010
0000
M020
0030
0001
2000
0000
0000
0000
3001
0010
0001
0000
0010
0000
,
0002
0000
0000
0000
0000
0000
2003
0000
0000
0000
3010
0000
2000
0000
0000
0000
0000
0000
3002
0000
0000
0000
0013
0000
0001
0000
0000
0000
0010
0000
0200
0000
0000
0000
0000
0000
2300
0000
0000
3001
0000
0000
1000
0000
0000
0001
0000
0000
,
0100
0000
0000
0000
0000
0000
010M
0000
0000
1000
0000
0000
0020
0000
0000
0000
0000
0000
2030
0000
0000
0000
3010
0000
2000
0000
0000
0000
0010
0000
3200
0000
0000
0000
0000
0000
0302
0000
0000
1003
0000
0000
0001
0000
0000
1000
0000
0000
,
0100
0000
0000
0000
0000
0000
M100
0000
0000
0001
0000
0000
0020
0000
0000
0000
0000
0000
0031
0000
0000
0000
0010
0000
0100
0000
0000
0000
0010
0000
0001
0000
0000
1000
0000
0000
0010
0000
0000
0000
0000
0000
0010
0000
0000
1000
0000
0000
,
0001
0000
0010
0001
0000
0000
1000
0001
0010
0000
0010
0001
1000
0000
0010
1000
,
0000
0000
1001
0000
1001
0000
1000
0010
1000
0000
0001
1000
0100
0000
M100
0000
,
0201
0000
0000
0301
0000
0000
1000
0001
0100
0000
0100
0001
1000
0000
0100
0000
,
2100
0000
3001
0200
0301
0000
0001
0010
1000
0000
0010
0100
1000
0000
1000
0010
,
0100
0000
0000
0000
0100
0000
0000
0000
0000
0010
0000
0000
0000
0000
0000
0000
0000
0000
1000
0000
0000
0010
0000
0000
0001
0000
0000
0000
0000
0000
0010
0000
0000
0100
0000
0000
0001
0000
0000
0000
0000
0000
0001
0000
0000
0010
0000
0000
,
0100
0100
0100
0000
0100
0010
1000
0010
,
0100
0010
0001
0010
0012
0000
1003
0100
,
1100
0000
0201
0000
0310
0100
1000
0100
,
0010
0100
0001
0100
0102
0000
1003
0010
,
1010
0000
0011
0000
0010
0100
0001
0100
,
0010
0100
1000
0100
2100
0000
3001
0010
,
0011
0000
0000
0000
0000
0000
0000
0000
0000
0000
0000
0000
1001
0000
0000
0000
0000
0000
0000
0000
0000
0001
0000
0000
0100
0000
0000
0010
0000
0000
1000
0000
0000
0010
0000
0000
0000
0000
0000
0010
0000
0000
0000
0000
0000
0000
0100
0000
,
0001
0000
0000
0000
0100
0000
0010
0000
0000
0000
0000
0000
1000
0000
0000
0000
0000
0000
0000
0000
0000
1000
0000
0000
0100
0000
0000
0010
0000
0000
0001
0000
0000
0010
0000
0000
0000
0000
0000
0010
0000
0000
0001
0000
0000
0000
0000
0000
,
1000
0000
0000
0000
0000
0000
0010
0000
0000
0100
0000
0000
0001
0000
0000
0000
0000
0000
1000
0000
0000
0000
0010
0000
1000
0000
0000
0000
0001
0000
2000
0000
0000
0000
0000
0000
3100
0000
0000
2000
0000
0000
0001
0000
0000
0000
0000
0000
,
0000
0000
0000
0010
0000
0000
0010
0000
0000
3001
0000
0100
0001
0000
1000
0001
0000
0000
0001
0000
0000
1000
0000
0000
,
0001
0000
0000
0000
0000
0000
0010
0000
0000
0100
0000
0000
0010
0000
0000
0000
0000
0000
0001
0000
0000
0000
1000
0000
0010
0000
0000
0000
1000
0000
0001
0000
0000
0000
0000
0000
0010
0000
0000
0000
0000
0000
0100
0000
0000
0000
0000
0000
,
0010
0000
0000
0001
0000
0000
1000
0000
0000
0010
0000
0100
0010
0000
0100
0001
0000
0000
1000
0000
0000
2001
0000
0000
,
0000
0000
0000
0000
0000
0000
3100
0000
0000
0000
0000
0000
0100
0000
0000
0000
0000
0000
0100
0000
0000
0000
1000
0000
0100
0000
0000
0000
1000
0000
0001
0000
0000
0000
0000
0000
0100
0000
0000
0M00
0000
0000
0200
0000
0000
0000
0000
0000
,
0000
0000
0000
0000
0000
0000
0301
0000
0000
0000
0000
0000
1000
0000
0000
0000
0000
0000
0100
0000
0000
0000
0010
0000
0100
0000
0000
0000
0010
0000
0001
0000
0000
0000
0000
0000
0010
0000
0000
00M0
0000
0000
0020
0000
0000
0000
0000
0000
,
0000
0000
0130
0000
0100
0010
0001
0000
0010
0000
1000
0000
0010
0000
0001
0000
,
0010
0000
0000
1000
0000
0000
0010
0000
0000
0001
0000
0000
1001
0000
0000
0001
0000
0000
0010
0000
0000
0010
0000
0100
,
1000
0000
0100
0010
0000
0000
0001
0000
0000
0100
0000
0000
0020
0000
0000
0000
0000
1030
0010
0000
0000
0100
0000
0010
,
1000
0000
0010
0100
0000
0000
0001
0000
0000
0010
0000
0000
0200
0000
0000
0010
0000
0300
0100
0000
0000
0010
0000
0000
,
1002
0000
0000
0203
0000
0000
0302
0000
0000
2003
0000
0000
3001
0000
0000
0010
0000
0100
1000
0000
0000
0001
0000
0100
,
0001
0000
1000
0001
0000
0000
0001
0000
0000
0100
0000
0000
0100
0000
0000
0010
0000
0000
1000
0000
0000
0010
0000
0100
,
0001
0000
0100
0010
0000
0000
2000
0000
0000
0000
0000
0000
3002
0000
M000
0000
0000
0000
2003
0000
000M
0000
0000
0002
,
0000
0000
0000
0000
0000
0000
0000
0000
0000
0000
0000
0000
0000
0000
0000
0000
0000
0000
3003
0000
0000
0000
0000
0000
1000
0000
0000
0001
0000
0000
1000
0000
0000
0010
0000
0000
0000
0000
0000
M010
0000
0000
0001
0000
0000
0000
0010
0000
,
0001
0000
0000
0000
0010
0000
0200
0000
0300
0000
0000
0000
0M02
0000
0000
0000
0000
0000
2003
0000
0000
0000
0000
0000
3001
0000
0000
0100
0000
0000
0001
0000
0000
0200
0000
0000
0300
0000
0000
0010
0000
0000
1000
0000
0000
0000
0000
0000
,
MMMM
0000
0000
0000
0000
0000
0010
0000
0000
1000
0000
0000
0010
0000
0000
0000
0000
0000
1000
0000
0000
0000
0000
0000
0200
0000
0000
0000
0000
0000
2300
0000
0000
0000
3000
0000
0002
0000
0000
0000
0000
0000
0203
0000
0000
0000
0301
0000
,
0010
0000
0100
1000
0000
0000
0100
0000
0000
1000
0000
0000
0010
0000
0000
0100
0000
0000
0100
0000
0000
0100
0000
0001
,
0100
0000
0010
1000
0000
0000
0010
0000
0000
1000
0000
0000
0100
0000
0000
0010
0000
0000
0010
0000
0000
0010
0000
0001
,
0010
0000
001M
1000
0000
0000
0100
0000
0000
1000
0000
0000
0001
0000
0000
0100
0000
0000
0010
0000
0000
0010
0000
1000
,
0010
0000
0000
0000
M010
0000
0001
0000
0000
0000
0000
0000
0100
0000
0000
0000
0000
0000
0001
0000
0000
0000
0000
0000
1000
0000
0000
0000
0000
0000
0100
0000
0000
0010
0000
0000
0001
0000
0000
1000
0000
0000
0001
0000
0000
0000
1000
0000
,
0010
0000
0000
0000
0100
0000
0001
0000
0000
0000
0000
0000
0200
0000
0000
0000
0000
0000
0000
0000
0000
0301
0000
0000
0010
0000
0000
0000
0000
0000
0100
0000
0000
0000
0000
0000
0110
0000
0000
0000
0000
0000
0100
0000
0000
0000
1000
0000
,
0100
0000
0000
0000
0010
0000
0001
0000
0000
0000
0000
0000
0020
0000
0000
0000
0000
0000
0000
0000
0000
0031
0000
0000
0100
0000
0000
0000
0000
0000
0010
0000
0000
0000
0000
0000
0110
0000
0000
0000
0000
0000
0010
0000
0000
0000
1000
0000
,
0010
0000
M010
0001
0000
0000
0100
0000
0000
0001
0000
0000
1000
0000
0000
0100
0000
0000
0010
0000
0000
0010
0000
0001
,
0010
0000
0000
0000
001M
0000
1000
0000
0000
0000
0000
0000
0100
0000
0000
0000
0000
0000
1000
0000
0000
0000
0000
0000
0001
0000
0000
0000
0000
0000
0100
0000
0000
0010
0000
0000
1000
0000
0000
0001
0000
0000
1000
0000
0000
0000
0000
0000
,
0000
0000
0000
0000
;
