#TITLE:Say So;
#SUBTITLE:;
#ARTIST:Doja Cat;
#CREDIT:Vndt;
#MUSIC:SaySo.ogg;
#SELECTABLE:YES;
#BACKGROUND:SaySo_bn.png;
#BANNER:SaySo_bn.png;
#CDTITLE:Hot Pink;
#OFFSET:-0.257;
#SAMPLESTART:60.597;
#SAMPLELENGTH:16.747;
#BPMS:0=111.004,5=111,16=111.004,21=111,33=111.004,38=111,53=111.004,54=111,55=111.004,56=111,57=111.004,58=111,59=111.004,60=111,71=111.004,72=111,73=111.004,74=111,75=111.004,76=111,77=111.004,78=111,91=111.004,92=111,94=111.004,95=111,97=111.004,98=111,100=111.004,101=111,109=111.004,110=111,112=111.004,113=111,115=111.004,116=111,118=111.004,119=111,126=111.004,127=111,129=111.004,130=111,132=111.004,133=111,135=111.004,136=111,144=111.004,145=111,147=111.004,148=111,150=111.004,151=111,153=111.004,154=111,167=111.004,168=111,172=111.004,173=111,177=111.004,178=111,182=111.004,183=111,185=111.004,186=111,190=111.004,191=111,195=111.004,196=111,200=111.004,202=111,206=111.004,207=111,211=111.004,212=111,216=111.004,217=111,219=111.004,220=111,224=111.004,225=111,229=111.004,230=111,234=111.004,235=111,237=111.004,238=111,242=111.004,243=111,247=111.004,248=111,252=111.004,253=111,255=111.004,256=111,260=111.004,261=111,265=111.004,266=111,270=111.004,271=111,273=111.004,274=111,278=111.004,279=111,283=111.004,284=111,288=111.004,289=111,292=111.004,293=111,297=111.004,298=111,302=111.004,303=111;
#STOPS:;
#BGCHANGES:-0.5=sayso_video.mov=1.000=0=0=0=StretchNoLoop==CrossFade==,
99999.000=-nosongbg-=1.000=0=0=0=StretchNoLoop====

//---------------dance-single - ----------------
#NOTES:
     dance-single:
     :
     Beginner:
     2:
     0.000,0.000,0.000,0.000,0.000:
0000
0000
0000
0000
,
0000
0000
0000
0000
,
0000
0000
0000
0000
,
0000
0000
0000
0000
,
0010
0000
0010
0000
,
1000
0000
1000
0000
,
0100
0000
0100
0000
,
1000
0000
1000
0000
,
0001
0000
0001
0000
,
1000
0000
1000
0000
,
0010
0000
0010
0000
,
0100
0000
0100
0000
,
2000
0000
0200
0000
,
0000
3300
0000
0000
,
0001
0000
1000
0000
,
0001
0000
1000
0000
,
0002
0000
0200
0000
,
0000
0000
0303
0000
,
1000
0000
0001
0000
,
1000
0000
0001
0000
,
2000
0000
0000
0000
,
0000
0000
3000
0000
,
0002
0000
0003
0000
,
2000
0000
3000
0000
,
0002
0000
0000
0000
,
0000
0000
0003
0000
,
2000
0000
3000
0002
,
0000
0003
0000
0000
,
0010
0000
0010
0000
,
0001
0000
0001
0000
,
0100
0000
0100
0000
,
0001
0000
0001
0000
,
1000
0000
1000
0000
,
0001
0000
0001
0000
,
0010
0000
0010
0000
,
0100
0000
0200
0000
,
0020
0000
0330
0000
,
0001
1000
0001
1000
,
0001
0000
0010
0000
,
1000
0001
1000
0001
,
1000
0000
0100
0000
,
0001
0000
0100
0000
,
2000
0000
0200
0000
,
3300
0000
0001
0000
,
0001
0000
0100
0000
,
1000
0000
0100
0000
,
0001
0000
0100
0000
,
1000
0000
0100
0000
,
0001
0000
1000
0000
,
0001
0000
1000
0000
,
0001
0000
1000
0000
,
0002
0000
0100
0003
,
0010
1000
0100
0000
,
0010
0001
0100
0000
,
0001
1000
0001
0000
,
1000
0001
1000
0000
,
0100
1000
0010
0000
,
0100
0001
0010
0000
,
0001
1000
0001
0000
,
1000
0001
1000
0000
,
2000
0000
0001
3000
,
0002
0000
1000
0003
,
0200
0000
0010
0300
,
0020
0000
0100
0030
,
0002
0000
1000
0003
,
2000
0000
0001
3000
,
0020
0000
0100
0030
,
0200
0000
0010
0300
,
0000
0000
0000
0000
,
0100
0000
0000
0000
,
0010
0000
0000
0000
,
0100
0000
0000
2000
,
3001
0000
0000
0000
,
1000
0000
0000
0000
,
0001
0000
0000
0000
,
1000
0000
0001
0000
,
0000
0000
0000
0000
;

//---------------dance-single - ----------------
#NOTES:
     dance-single:
     :
     Easy:
     4:
     0.000,0.000,0.000,0.000,0.000:
0000
0000
0000
0000
,
0000
0000
0000
0000
,
0000
0000
0000
0000
,
0000
0000
0000
0000
,
0010
0010
0010
0000
,
1000
1000
1000
0000
,
0100
0100
0100
0000
,
1000
1000
1000
0000
,
0001
0001
0001
0000
,
1000
1000
1000
0000
,
0010
0010
0010
0000
,
0100
0100
0100
0000
,
2000
0000
0200
0000
,
0000
3300
0000
0000
,
0001
1000
0001
0000
,
0001
1000
0001
1000
,
0002
0000
0200
0000
,
0000
0000
0303
0000
,
1000
0001
1000
0000
,
0001
1000
0001
0000
,
2002
0000
0000
0000
,
0000
0000
0000
3000
,
0020
0000
0000
0033
,
2020
0000
3030
0000
,
2002
0000
0000
0000
,
0000
0000
0000
0000
0003
0000
0000
0020
,
0000
0000
3030
0000
,
1000
0000
0010
0010
0020
0000
0030
0000
,
0100
0100
0100
0000
,
0001
0001
0001
0000
,
0100
0100
0100
0000
,
0010
0010
0010
0000
,
1000
1000
1000
0000
,
0001
0001
0001
0000
,
0010
0010
0010
0000
,
0001
0001
0002
0000
,
0100
1000
0013
0000
,
0001
1000
0001
1000
0001
1000
0001
0000
,
2000
0100
0001
0010
,
3010
1000
0001
1000
0001
1000
0001
0000
,
1000
0001
1000
0010
,
1000
0001
1000
0010
,
2000
0000
0200
0000
,
3300
0000
0001
0000
,
0001
1000
0001
0010
,
0001
1000
0001
0010
,
0002
0000
0200
0000
,
0303
0000
1000
0000
,
0001
0010
0100
1000
,
0001
0010
0100
1000
,
0001
1000
0010
0100
,
0002
0000
0000
0000
0200
0003
0000
0000
,
0310
1000
0100
0000
,
0010
0001
0100
0000
,
0001
1000
0001
0000
,
1000
0001
1000
0000
,
0100
1000
0010
0000
,
0100
0001
0010
0000
,
0001
1000
0001
0000
,
1000
0001
1000
0000
,
1002
0010
1003
0000
,
1002
0100
1003
0000
,
0210
0000
0010
0000
0310
0000
0000
1000
,
0001
1000
0001
1000
0002
0003
0000
0000
,
2001
0010
3001
0000
,
2001
0100
3001
0000
,
0210
0000
0010
0000
0310
0000
0000
0001
,
1000
0001
1000
0001
2000
0000
0000
0000
,
0000
0000
0000
3000
,
0100
0000
0010
0000
,
0001
0000
0100
0000
,
0010
0000
1000
2000
,
0001
0001
3001
0001
,
0002
1000
1000
1003
,
2000
0000
0000
0000
0000
0000
3000
0001
,
0000
0000
0000
0000
,
1001
0000
0000
0000
;

//---------------dance-single - ----------------
#NOTES:
     dance-single:
     :
     Medium:
     7:
     0.000,0.000,0.000,0.000,0.000:
0000
0000
0000
0000
,
0000
0000
0000
0000
,
0000
0000
0000
0000
,
0000
0000
0000
0000
,
0100
0110
0010
0000
,
1000
1001
0001
0000
,
0010
0110
0100
0000
,
0001
1001
1000
0000
,
0001
1000
1001
0000
,
1000
0001
1001
0000
,
0010
0100
0110
0000
,
0100
0010
0110
0000
,
1000
0100
1000
0000
0100
0000
0000
0000
,
2200
0000
0000
3300
,
0001
0100
0001
0000
0100
0000
0000
0000
,
0001
1000
0001
0000
1000
0000
0000
0000
,
0001
0100
0001
0000
0100
0000
0000
0000
,
0202
0000
0000
0303
,
1000
0100
1000
0000
0100
0000
0000
0000
,
1000
0001
1000
0000
0001
0000
0000
0000
,
0102
0100
1000
1000
,
0010
0010
1000
1000
,
0020
0000
0000
0033
,
2020
0000
3030
0000
,
2100
0100
0001
0001
,
0010
0000
0010
0000
0001
0000
0000
0002
,
0000
0000
3003
0000
,
1000
0000
0100
1000
0020
0000
0030
0000
,
0100
0001
0100
0001
0100
0000
0000
0000
,
0010
0010
0010
0000
,
1000
0100
1000
0100
1000
0000
0000
0000
,
0100
1000
0020
0030
,
1000
0100
1000
0100
1000
0000
0000
0000
,
0010
0010
0010
0000
,
0100
0001
0100
0001
0100
0000
0000
0000
,
0001
1000
1001
0000
,
0102
1000
0013
0000
,
0001
1000
0001
1000
0001
1000
0001
0000
,
2000
0100
0001
0010
,
3010
1000
0001
1000
0001
1000
0001
0000
,
1000
0000
0001
0000
1000
0000
2020
0030
,
3001
0001
1000
0020
,
2030
0200
0000
0001
,
0000
0000
3300
0000
,
0001
0000
1000
0000
0001
0000
0020
0030
,
0001
0000
1000
0000
0001
0000
0020
0030
,
0002
0000
0200
0000
0000
0300
2000
0000
,
3003
0010
1000
0010
1000
0000
0000
0000
,
0001
0010
0100
1001
,
0001
0010
0100
1001
,
0001
1000
0010
0100
,
0001
0100
0404
0303
,
0010
1000
0010
1000
0010
0000
0000
0000
,
0100
0001
0010
0000
,
0001
1000
0001
1000
0001
0000
0000
0000
,
1010
0011
2020
3030
,
0100
0001
0100
0001
0100
0000
0000
0000
,
0010
1000
0100
0000
,
1000
0001
1000
0001
1000
0000
0000
0000
,
1100
0101
2200
3300
,
1002
0000
0000
0000
0010
0000
0000
0000
1003
0000
0000
0010
0000
0000
0000
0000
,
1002
0000
0000
0000
0100
0000
0000
0000
1003
0000
0000
0100
0000
0000
0000
0000
,
0210
0000
0000
0000
0010
0000
0000
0000
0310
0000
0000
0010
0000
0000
1000
0000
,
0001
1000
0001
1000
0002
0003
0000
0000
,
2001
0000
0000
0000
0010
0000
0000
0000
3001
0000
0000
0010
0000
0000
0000
0000
,
2001
0000
0000
0000
0100
0000
0000
0000
3001
0000
0000
0100
0000
0000
0000
0000
,
0210
0000
0000
0000
0010
0000
0000
0000
0310
0000
0000
0010
0000
0000
0100
0000
,
0010
0100
0010
0000
2002
0000
0000
3000
,
2000
0000
0000
0003
,
0100
0000
0010
0000
,
3002
0000
0100
0000
,
0010
0000
1003
2010
,
0010
0010
3010
0010
,
0102
0100
0100
0103
,
2100
0000
0100
0000
0100
0000
3100
0100
,
0000
0000
0000
0010
0000
0000
0000
0000
,
2002
0000
3003
0000
;

//---------------dance-single - ----------------
#NOTES:
     dance-single:
     :
     Hard:
     10:
     0.000,0.000,0.000,0.000,0.000:
0000
0000
0000
0000
,
0000
0000
0000
0000
,
0000
0000
0000
0000
,
0000
0000
0000
MMMM
,
1010
0000
0011
0000
1010
0000
0000
0001
,
1000
0000
0010
0000
0100
0000
0001
0000
0020
0000
0000
0130
0000
0000
0000
0000
,
1100
0000
0101
0000
1100
0000
0000
1000
,
0010
0100
0002
0003
0202
0303
0000
0000
,
1001
0000
0110
0000
1001
0000
0000
1000
,
0001
0000
0010
0000
0100
0000
1000
0000
0020
0000
0000
0130
0000
0000
0000
0000
,
0110
0000
1001
0000
0110
0000
0000
0001
,
0100
0010
2000
3000
0020
0030
0000
0000
,
1000
0001
0100
0010
2000
0000
3001
0000
,
2200
0000
0000
3300
0022
0000
0000
0033
,
0001
1000
0100
0010
0002
0000
1003
0000
,
0202
0000
0000
0303
2020
0000
0000
3030
,
0010
1000
0010
0100
0020
0000
1000
0030
,
2002
0000
0000
3003
0202
0000
0303
0000
,
0100
0000
0001
0000
0100
0000
0010
0000
0200
0000
0000
0001
0000
0000
0300
0000
,
2002
0000
0000
3003
0022
0000
0033
0010
,
0011
0011
1010
1010
,
0011
0101
1100
1010
,
1020
1000
1000
1030
,
1100
0101
0011
1010
,
2100
0001
0010
0001
,
0010
0000
0010
0000
0001
0000
0100
0200
,
0000
0000
0000
0000
0000
0000
0000
0000
3300
0000
0000
0000
0000
0000
0000
0100
,
1000
0001
0010
0001
0200
0000
0300
0000
,
0100
0000
0001
0000
0100
0000
0001
0000
0200
0000
0000
0001
0300
0000
0010
0000
,
0001
0000
0010
0000
0001
0000
0010
0000
0110
0000
0000
1100
0000
0000
0100
0000
,
1000
0000
0100
0000
1000
0000
0100
0000
2000
0000
0000
0100
3000
0000
1000
0000
,
0001
0000
0010
0000
0200
0000
0000
0300
0020
0000
0000
0000
0030
0000
0000
0000
,
0100
0000
1000
0000
0100
0000
1000
0000
0200
0000
0000
1000
0300
0000
0010
0000
,
1000
0000
0010
0000
1000
0000
0010
0000
0110
0000
0000
0101
0000
0000
0100
0000
,
0001
0000
0100
0000
0001
0000
0100
0000
0002
0000
0000
0100
0003
0000
0001
0000
,
1000
0000
0010
0000
0200
0000
0000
0300
0020
0000
0000
0000
0030
0000
0000
0000
,
2100
0001
3001
MMMM
,
1000
0001
1000
0001
1000
0001
1000
0000
,
0002
0100
1000
0010
,
0013
0001
1000
0001
1000
0001
1000
0000
,
1000
0000
0001
0000
1000
0000
2020
0030
,
3001
1000
0001
0020
,
0230
2000
0000
0001
,
0000
0000
3300
0000
,
0001
1000
0000
0000
0001
1000
0000
0000
0001
1000
0000
0000
0020
0000
0030
0000
,
1000
0001
0000
0000
1000
0001
0000
0000
1000
0001
0000
0000
0020
0000
0030
0000
,
0002
0000
0200
0000
0000
0300
2000
0000
,
3013
0001
0010
0001
0020
0000
0030
0000
,
0001
0010
0100
1000
0100
0010
0002
1003
,
0001
0100
0010
1000
0010
0100
0002
1003
,
0001
1000
0010
0100
0001
1000
0020
0130
,
0001
1000
0100
0010
4004
0000
3003
0000
,
1010
0000
0000
0000
0011
0000
0000
0000
1010
0000
0000
0011
0000
0000
0000
0000
,
0100
0000
0000
0000
0001
0000
0000
0000
0010
0000
0000
0001
0000
0000
0000
0000
,
0101
0000
0000
0000
1100
0000
0000
0000
0101
0000
0000
1100
0000
0000
0001
0000
,
0010
0100
2000
0000
3020
0000
0030
0000
,
1100
0000
0000
0000
0101
0000
0000
0000
1100
0000
0000
0101
0000
0000
0000
0000
,
0010
0000
0000
0000
0001
0000
0000
0000
0100
0000
0000
0001
0000
0000
0000
0000
,
0011
0000
0000
0000
1010
0000
0000
0000
0011
0000
0000
1010
0000
0000
0001
0000
,
0100
0010
2000
0000
3200
0000
0300
0000
,
1000
0000
0001
0000
0010
0000
0001
0000
1000
0000
0000
0010
0000
0000
1000
0000
,
0001
0000
1000
0000
0100
0000
1000
0000
0001
0000
0000
0100
0000
0000
0010
0000
,
0100
0000
0010
0000
0100
0000
0010
0000
0100
0000
0000
0010
0000
0000
1000
0000
,
1100
0100
0110
0010
0022
0033
0000
0000
,
0001
0000
1000
0000
0010
0000
1000
0000
0001
0000
0000
0010
0000
0000
0001
0000
,
1000
0000
0001
0000
0100
0000
0001
0000
1000
0000
0000
0100
0000
0000
0010
0000
,
0100
0000
0010
0000
0100
0000
0010
0000
0100
0000
0000
0010
0000
0000
0001
0000
,
0011
0010
0110
0100
2200
0000
0300
0000
,
0002
0000
0000
3000
,
0100
0000
0010
0000
,
2003
0000
0100
0000
,
0010
0000
3001
2000
,
0010
0010
3010
0010
,
0102
0100
0100
0103
,
2100
0000
0100
0000
0100
0000
3100
1000
,
0010
0100
0001
1000
0010
0100
0001
1000
,
2002
0000
3003
0000
;

//---------------dance-single - ----------------
#NOTES:
     dance-single:
     :
     Challenge:
     14:
     0.000,0.000,0.000,0.000,0.000:
0000
0000
0000
0000
,
0000
0000
0000
0000
,
0000
0000
0000
0000
,
0000
0000
0000
0000
,
1010
0000
0001
0000
0110
0000
1000
0000
0010
1000
0000
1000
0010
0000
1000
0001
,
0100
0000
0010
0000
0100
0010
1000
0000
0100
1000
0000
1000
0100
0000
1000
0000
,
0011
0000
1000
0000
0110
0000
0001
0000
0010
0001
0000
0001
0010
0000
0001
0000
,
0100
0000
0010
0000
0100
0010
2000
0000
3200
0000
0000
0301
0100
0000
0000
0000
,
1100
0000
0001
0000
0110
0000
1000
0000
0100
1000
0000
1000
0100
0000
1000
0001
,
0010
0000
0100
0000
0010
0100
1000
0000
0010
1000
0000
1000
0010
0000
1000
0000
,
0101
0000
1000
0000
0110
0000
0001
0000
0100
0001
0000
0001
0100
0000
0001
0000
,
0010
0000
0100
0000
0010
0100
2000
0000
3020
0000
0000
0031
0010
0000
0000
0000
,
1000
0100
1000
0000
0100
0000
1000
0000
0200
0000
0300
1000
0001
0000
0000
1000
,
0002
0000
0003
0001
0020
0000
0030
0010
0200
0000
0300
0100
2000
0000
3000
0000
,
1000
0001
0100
0001
0100
0000
0001
0000
0200
0000
0300
0001
1000
0000
0000
0000
,
1000
0001
0010
0001
0010
0000
0001
0000
0020
0000
0030
0001
2000
0000
0000
3000
,
1000
0010
1000
0000
0010
0000
1000
0000
0020
0000
0030
1000
0001
0000
0000
1000
,
0002
0000
0003
0001
0200
0000
0300
0100
0020
0000
0030
0010
2000
0000
3000
0000
,
0100
1000
0100
1000
0010
0000
0100
0000
0001
0000
0000
1000
0001
0100
0001
0100
,
0001
0100
0001
0010
0001
0000
0010
0000
0100
0000
0000
1000
0010
0000
1000
0000
,
2000
0010
3020
0001
0032
0100
0203
1000
,
2300
0010
3020
0001
0032
0100
0203
0300
,
0011
1010
1100
0101
,
0011
1010
1100
0101
,
1000
2000
3010
0020
0031
0002
0103
0200
,
1300
2000
3010
0020
0031
0002
0103
0200
,
1000
0000
0000
0000
0001
0000
0000
0000
1300
0000
0000
0000
0001
0000
0000
0100
,
0010
0000
0100
0000
0001
0000
0100
0000
0001
0000
0000
1000
0001
0000
0000
0000
,
0011
0000
1000
0000
0110
0000
0001
0000
0010
0001
0000
0001
0010
0000
0001
1000
,
0100
0000
0010
0000
0100
0010
0001
0000
0100
0001
0000
0001
0100
0000
0001
0000
,
1010
0000
0001
0000
0110
0000
1000
0000
0010
1000
0000
1000
0010
0000
1000
0000
,
0100
0000
0010
0000
0100
0010
0002
0000
0203
0000
0000
1300
0100
0000
0000
0000
,
0101
0000
1000
0000
0110
0000
0001
0000
0100
0001
0000
0001
0100
0000
0001
1000
,
0010
0000
0100
0000
0010
0100
0001
0000
0010
0001
0000
0001
0010
0000
0001
0000
,
1100
0000
0001
0000
0110
0000
1000
0000
0100
1000
0000
1000
0100
0000
1000
0000
,
0010
0000
0100
0000
0010
0100
0002
0000
0023
0000
0000
1030
0010
0001
1000
0000
,
1001
0001
1001
1000
1001
0001
0010
MMMM
,
0001
0010
0100
1000
0001
0010
0100
1000
0001
0000
0110
0000
1001
0000
0001
0000
,
1000
0010
0100
0001
1000
0010
0100
0001
1000
0000
0110
0000
1001
0000
0100
0001
,
0010
0000
0100
1000
0010
0000
0100
0001
0010
0000
0110
0000
1100
0000
1000
0000
,
0001
0010
0000
0100
1000
0100
0000
0010
0001
0010
0000
1000
0020
0000
0030
0001
,
0100
0001
0000
1000
0010
1000
0000
0001
0100
0001
0000
1000
0200
0000
0300
1000
,
0001
0010
0000
0100
1000
0100
0000
0010
0002
2000
0000
0000
0020
0003
3001
0000
,
1000
0000
0001
0000
1000
0000
0001
0000
1030
0000
0000
0001
1000
0000
0001
0000
,
1000
0010
0000
0100
0001
0100
0000
0010
1000
0010
0000
0001
0020
0000
0030
1000
,
0100
0010
0000
0001
0010
0001
0000
1000
0100
1000
0000
0001
0200
0000
0300
0001
,
1000
0010
0000
0100
0001
0100
0000
0010
1000
0100
0000
0000
1010
0000
1000
0010
,
0100
0000
0011
0000
1001
0000
1100
0000
2002
0000
0000
3003
0022
0000
0033
0000
,
0001
0010
0100
1000
0100
0010
0100
1000
0100
0000
0001
0000
0100
0000
1000
0001
,
1000
0010
0100
0001
0100
0010
0100
0001
0100
0000
1000
0000
0100
0000
0001
1000
,
0001
0100
0010
1000
0010
0100
0010
1000
0010
0000
0001
0000
0010
0000
1000
0001
,
0010
0100
0010
0001
0010
0100
2000
0002
0020
0000
0000
0030
00M0
0000
3003
0000
,
1100
0000
0001
0000
0110
0000
1000
0000
0100
1000
0000
1000
0100
0000
1000
0001
,
0010
0000
0100
0000
0010
0100
1000
0000
0010
1000
0000
1000
0010
0000
1000
0000
,
0101
0000
1000
0000
0110
0000
0001
0000
0100
0001
0000
0001
0100
0000
0001
0000
,
0010
0000
0100
0000
0010
0100
2000
0000
3020
0000
0000
0031
0010
0000
0000
0000
,
1010
0000
0001
0000
0110
0000
1000
0000
0010
1000
0000
1000
0010
0000
1000
0001
,
0100
0000
0010
0000
0100
0010
1000
0000
0100
1000
0000
1000
0100
0000
1000
0000
,
0011
0000
1000
0000
0110
0000
0001
0000
0010
0001
0000
0001
0010
0000
0001
0000
,
0100
0000
0010
0000
0100
0010
2000
0000
3200
0000
0000
0301
0100
0000
0000
0000
,
2010
0000
0010
0000
0100
0000
0100
0000
0001
0000
0000
3001
1000
0000
0001
0010
,
0002
0000
0010
0000
0100
0000
0100
0000
1000
0000
0000
1003
0001
0000
1000
0000
,
0102
0000
1000
0000
0100
0003
1000
0000
2100
0000
0000
3001
1000
0000
0001
0000
,
0200
0000
0310
0000
1002
0000
0103
0000
2001
0000
0000
3010
0100
0000
0001
0000
,
2100
0000
0100
0000
0010
0000
0010
0000
0001
0000
0000
3001
1000
0000
0001
0100
,
0002
0000
0100
0000
0010
0000
0010
0000
1000
0000
0000
1003
0001
0000
1000
0000
,
0012
0000
1000
0000
0010
0003
1000
0000
2010
0000
0000
3001
1000
0000
0001
0000
,
0020
0000
0130
0000
1002
0000
0013
0000
2001
0000
0000
3010
0100
0000
0000
0000
,
1000
0100
0010
1001
,
0010
0100
1000
1001
,
0001
0010
0001
0010
,
0100
1000
0100
2000
,
0200
3000
0002
0300
0020
0003
0002
0030
,
0200
0003
2000
0300
0020
3000
2000
0030
,
0200
3000
0002
0300
0020
0003
2030
3001
,
0010
0100
1000
0001
0010
0100
1000
0001
,
MMMM
0000
0000
0000
;

//---------------dance-single - ----------------
#NOTES:
     dance-single:
     :
     Edit:
     15:
     0.000,0.000,0.000,0.000,0.000:
0000
0000
0000
0000
,
0000
0000
0000
0000
0000
0000
0000
0000
0000
0000
0000
0000
0000
0000
0000
1000
,
0001
0000
0010
0000
0100
0000
1000
0000
0001
0000
0100
0000
0101
0000
0000
0010
,
1000
0000
0001
0000
0100
0001
1000
0000
1000
0100
0010
0001
MMMM
0000
0000
0000
,
1010
0000
0001
0000
0110
0000
1000
0000
0010
1000
0000
1000
0010
0000
1000
0001
,
0100
0000
0010
0000
0100
0010
1000
0000
0100
1000
0000
1000
0100
0000
1000
0100
,
0011
0000
1000
0000
0110
0000
0001
0000
0010
0001
0000
0001
0010
0000
0001
1000
,
0100
0000
0010
0000
0100
0010
0001
0000
0100
0001
0000
0001
0101
0000
1000
0000
,
1100
0000
0001
0000
0110
0000
1000
0000
0100
1000
0000
1000
0100
0000
1000
0001
,
0010
0000
0100
0000
0010
0100
1000
0000
0010
1000
0000
1000
0010
0000
1000
0010
,
0101
0000
1000
0000
0110
0000
0001
0000
0100
0001
0000
0001
0100
0000
0001
1000
,
0010
0000
0100
0000
0010
0100
0001
0000
0010
0001
0000
0001
0011
0000
0000
0000
,
1000
0100
1000
0000
0100
0000
1000
0000
0200
0000
0300
1000
0001
0000
0000
1000
,
0002
0000
0003
0001
0020
0000
0030
0010
0200
0000
0300
0100
2000
0000
3000
0000
,
1000
0001
0100
0001
0100
0000
0001
0000
0200
0000
0300
0001
1000
0000
0000
0000
,
1000
0001
0010
0001
0010
0000
0001
0000
0020
0000
0030
0001
2000
0000
0000
3000
,
1000
0010
1000
0000
0010
0000
1000
0000
0020
0000
0030
1000
0001
0000
0000
1000
,
0002
0000
0003
0001
0200
0000
0300
0100
0020
0000
0030
0010
2000
0000
3000
0000
,
0100
1000
0100
1000
0010
0000
0010
0000
1000
0100
0000
0100
1000
0001
0100
0001
,
0100
0001
1000
0010
1000
0010
1000
0000
0001
0100
0000
0001
0010
0000
0010
0000
,
0012
0013
0021
0031
1020
1030
2010
3010
,
1200
0301
0102
0013
0021
1030
2010
3100
,
1200
1300
2100
3100
0102
0103
0201
0301
,
0012
0103
0201
1300
2100
3010
1020
0031
,
0012
0013
0021
0031
1020
1030
2010
3010
,
1200
0301
0102
0013
0021
1030
2100
3200
,
1000
0000
0000
0000
0001
0000
0000
0000
1300
0000
0000
0000
1001
0000
0000
0100
,
1000
0000
M100
0000
0001
0100
0001
0100
0002
0000
2000
0000
3003
0000
0000
0000
,
1100
0000
0001
0000
0110
0000
1000
0000
0100
1000
0000
1000
0100
0000
1000
0001
,
0010
0000
0100
0000
0010
0100
1000
0000
0010
1000
0000
1000
0010
0000
1000
0010
,
0101
0000
1000
0000
0110
0000
0001
0000
0100
0001
0000
0001
0100
0000
0001
1000
,
0010
0000
0100
0000
0010
0100
0001
0000
0010
0001
0000
0001
0011
0000
1000
0000
,
1010
0000
0001
0000
0110
0000
1000
0000
0010
1000
0000
1000
0010
0000
1000
0001
,
0100
0000
0010
0000
0100
0010
1000
0000
0100
1000
0000
1000
0100
0000
1000
0100
,
0011
0000
1000
0000
0110
0000
0001
0000
0010
0001
0000
0001
0010
0000
0001
1000
,
0100
0000
0010
0000
0100
0010
0001
0000
0100
0001
0000
0001
0100
0001
1000
0000
,
2001
0001
3002
1000
1003
M001
001M
0001
,
0001
0010
0100
1000
0001
0010
0100
1000
1001
0000
0110
0000
1001
0000
0001
0000
,
1000
0010
0100
0001
1000
0010
0100
0001
1001
0000
0110
0000
1001
0000
0100
0001
,
0010
0000
0100
1000
0010
0000
0100
0001
0011
0000
0110
0000
1100
0000
1000
0000
,
0001
0010
0000
0100
1000
0100
0000
0010
0001
0010
0000
1000
0020
0000
0030
0001
,
0100
0001
0000
1000
0010
1000
0000
0001
0100
0001
0000
1000
0200
0000
0300
1000
,
0001
0010
0000
0100
1000
0100
0000
0010
0002
2000
0000
0000
0020
0003
3001
0000
,
1000
0000
0001
0000
1000
0000
0001
0000
1030
0000
0000
0001
1000
0000
0001
0000
,
1000
0010
0000
0100
0001
0100
0000
0010
1000
0010
0000
0001
0020
0000
0030
1000
,
0100
0010
0000
0001
0010
0001
0000
1000
0100
1000
0000
0001
0200
0000
0300
0001
,
1000
0010
0000
0100
0001
0100
0000
0010
1000
0100
0000
0000
1010
0000
1000
0010
,
0100
0000
0011
0000
0101
0000
1100
0000
2020
0000
0000
3030
2002
0000
3003
0000
,
0001
0010
0100
1000
0100
0010
0100
1000
0100
0000
0001
0000
0110
0000
1000
0001
,
1000
0010
0100
0001
0100
0010
0100
0001
0100
0000
1000
0000
0110
0000
0001
1000
,
0001
0100
0010
1000
0010
0100
0010
1000
0010
0000
0001
0000
0110
0000
1000
0001
,
0010
0100
0010
0001
0010
0100
4000
0004
0020
0000
0000
0030
00M0
0000
3003
0000
,
1100
0000
0001
0000
0110
0000
1000
0000
0100
1000
0000
1000
0100
0000
1000
0001
,
0010
0000
0100
0000
0010
0100
1000
0000
0010
1000
0000
1000
0010
0000
1000
0010
,
0101
0000
1000
0000
0110
0000
0001
0000
0100
0001
0000
0001
0100
0000
0001
1000
,
0010
0000
0100
0000
0010
0100
0001
0000
0010
0001
0000
0001
0011
0000
1000
0000
,
1010
0000
0001
0000
0110
0000
1000
0000
0010
1000
0000
1000
0010
0000
1000
0001
,
0100
0000
0010
0000
0100
0010
1000
0000
0100
1000
0000
1000
0100
0000
1000
0100
,
0011
0000
1000
0000
0110
0000
0001
0000
0010
0001
0000
0001
0010
0000
0001
1000
,
0100
0000
0010
0000
0100
0010
0001
0000
0100
0001
0000
0001
0101
0000
0000
0000
,
2010
0000
0010
0000
0100
0000
0100
0000
0001
0000
0000
3001
1001
0000
1000
0001
,
0012
0000
0010
0000
0100
0000
0100
0000
1000
0000
0000
1003
1001
0000
1000
0000
,
0102
0000
1000
0000
0100
0003
1000
0000
2100
0000
0000
3001
1001
0000
1000
0000
,
0200
0000
0310
0000
1002
0000
0013
0000
2001
3100
0010
0100
0110
0000
0001
0000
,
2100
0000
0100
0000
0010
0000
0010
0000
0001
0000
0000
3001
1001
0000
1000
0001
,
0102
0000
0100
0000
0010
0000
0010
0000
1000
0000
0000
1003
1001
0000
1000
0000
,
0012
0000
1000
0000
0010
0003
1000
0000
2010
0000
0000
3001
1001
0000
1000
0000
,
0020
0000
0130
0000
1002
0000
0103
0000
2001
3010
0100
0010
0110
0000
0000
0000
,
1000
0100
0010
1001
,
0010
0100
1000
1001
,
0001
0010
0001
0010
,
0100
1000
0100
2000
,
0200
3000
0002
0300
0020
0003
0002
0030
,
0200
0003
2000
0300
0020
3000
2000
0030
,
0200
3000
0002
0300
0020
0003
0032
1003
,
0010
0100
0001
1000
0010
0100
0001
1000
,
MMMM
0000
0000
0000
;
