#TITLE:Rehab;
#SUBTITLE:No, no, no!;
#ARTIST:Amy Winehouse;
#CREDIT:Vndt;
#GENRE:Soul;
#MUSIC:Rehab_audio.ogg;
#SELECTABLE:YES;
#BACKGROUND:Rehab_bg.png;
#BANNER:Rehab_bn.png;
#CDTITLE:Back to Black;
#OFFSET:0;
#SAMPLESTART:0.000;
#SAMPLELENGTH:0.000;
#BPMS:0=144.566,5=144.535,6=144.843,13=144.788,14=146.22,21=146.164,22=144.677,30=145.265,37=145.257,38=145.689,45=145.673,46=147.599,53=147.541,54=144.22,61=144.204,62=145.281,69=145.257,70=146.333,77=146.317,78=143.633,85=143.617,86=145.833,93=145.801,94=146.196,101=146.18,102=144.725,110=145.417,117=145.369,118=146.228,125=146.172,126=145.497,133=145.473,134=145.121,141=145.09,142=146.18,149=146.147,150=145.93,157=145.882,158=145.225,165=145.177,166=144.551,173=144.543,174=146.083,189=146.018,190=145.153,197=145.121,198=145.689,205=145.665,206=145.042,213=145.034,214=145.946,221=145.922,222=145.433,229=145.409,230=145.697,237=145.689,238=146.131,246=144.346,253=144.306,254=146.585,261=146.568,262=144.978,269=144.97,270=146.422,277=146.414,278=144.955,285=144.931,286=146.099,293=146.059,294=144.393,302=145.601,317=145.561,318=146.333,325=146.317,326=143.578,334=146.325,349=146.317,350=146.431;
#STOPS:;
#BGCHANGES:0=Rehab_video.mov=1.000=1=0=0=StretchNoLoop==CrossFade==,
99999.000=-nosongbg-=1.000=0=0=0=StretchNoLoop====
;

//---------------dance-single - ----------------
#NOTES:
     dance-single:
     :
     Challenge:
     14:
     0.000,0.000,0.000,0.000,0.000:
0000
0000
0000
0000
M00M
MM0M
M0MM
M00M
,
0000
0MM0
M00M
M00M
0MM0
0000
0000
0000
,
0000
0000
0000
0000
,
0000
0000
2000
0000
,
3002
0000
0000
0000
0000
0000
0003
1000
0000
0000
0000
0000
0000
0000
0001
0000
,
0001
0000
1000
0000
0001
0010
0001
0020
0000
0000
0030
0100
1000
0000
0100
0000
,
0002
1003
0010
0002
0003
0010
1000
0001
,
0100
1000
0010
0100
0002
0000
0000
0000
,
2003
0000
0000
0000
0000
0000
3000
1010
0000
0000
0000
0000
0000
0000
1000
0000
,
1000
0000
0010
0100
0010
0000
1000
0000
0020
0000
0000
1000
0000
0000
0000
0000
,
0100
0000
0001
0100
0000
0000
1000
0100
,
0100
1000
1000
0030
0201
0010
0000
1000
,
0000
0001
0000
0010
0001
0000
0010
0010
,
0301
0100
0010
1000
0001
1000
0100
0010
0001
0000
0100
0000
0010
0000
0100
0000
,
0002
0000
0000
0000
0000
0000
0000
0000
0013
0000
0000
0000
0000
0000
0000
0001
0000
0000
0000
0000
0000
0000
1000
0000
0000
0000
0000
0000
0010
0000
0000
0000
,
0100
0000
0010
0000
0010
0000
0000
0000
4020
0000
0000
0000
0000
0000
0000
3030
,
0024
0000
0000
0000
0000
0000
0033
0110
0000
0000
0100
1000
0100
0000
0010
0000
,
0010
0001
0010
0001
1000
0010
1000
0010
0100
0000
0001
0000
0100
0000
1000
0000
,
0100
0010
1000
0100
0010
0001
0010
0001
,
0100
0010
1000
0010
0100
0001
1000
0100
0010
0000
0001
0000
0020
0000
0000
0000
,
0031
0100
0010
1000
0010
0100
0010
0100
,
0001
0000
0010
0000
0100
0000
1000
0000
0010
0000
1000
0100
0010
0000
0100
0000
,
0010
0000
0100
0000
0010
0000
0001
0000
1000
0000
0010
0100
0001
0000
0100
0000
,
0001
0100
0001
0010
0100
0000
0100
1100
,
0100
1000
0100
0010
0001
1000
0000
1000
,
0001
1000
0010
0100
0101
0000
1100
0001
,
0100
0001
0100
0010
1000
0100
1000
0100
,
1000
0000
0001
0000
1000
0000
0100
0000
0010
0000
0001
0010
0100
0000
0010
0000
,
0100
0010
0100
1000
0100
0010
0001
2000
,
0000
3000
1000
0001
0010
0000
0100
0000
1000
0000
0010
0100
0010
0000
1000
0000
,
0001
0000
1000
0000
0001
0000
0010
0000
0001
0000
0010
0100
1000
0000
0010
0000
,
1000
0010
1000
0001
0020
0000
0031
0010
,
0001
0010
0100
0010
0001
0000
0001
0011
,
0000
1000
0010
1000
2010
0000
0000
0000
,
0001
0010
0000
0000
0010
0010
0000
0000
,
0010
0100
3000
0000
0012
0000
1000
0010
,
0010
0000
1000
0000
1000
0000
0010
0000
0013
0000
0001
1000
0001
0000
0010
0000
,
0010
0001
1000
0010
0100
0001
0100
0001
2001
0000
0000
0000
0000
0000
0000
0000
,
0000
0010
0000
0000
0100
0000
0000
0000
,
0010
3000
1002
1000
,
0100
0000
0100
0000
1000
1000
1000
0000
,
0100
0100
1003
0010
0100
0001
0010
0001
,
0020
0000
0000
0000
0031
0000
0000
0110
0000
0000
1001
0000
0000
0000
0001
0000
,
0100
0010
1000
0001
0002
0000
0000
0000
,
2003
0000
0000
0000
0000
0000
3000
1010
0000
0000
0010
0000
0010
0000
1000
0000
,
0010
1000
0001
2000
0000
3010
0001
0010
,
2000
3001
0100
2000
3000
0100
0001
1000
,
0010
0001
0010
0100
0002
0000
0000
0000
,
2003
0000
0000
0000
0000
0000
3000
0011
0000
0000
0000
0010
0001
0000
0001
1000
,
0010
0100
0010
1000
0001
0000
1000
0000
0100
0000
1000
0000
0100
0000
0001
0000
,
0100
0010
0001
0100
0010
1000
0010
1000
,
0100
0010
0001
0010
0100
1000
0001
0100
0010
1000
0020
0000
0000
0000
0000
0000
,
1030
0100
0010
0001
0010
0100
0010
0100
,
1000
0000
0010
0000
0100
0000
0001
0000
0010
0000
0001
0100
0010
0000
0100
0000
,
0010
0000
0100
0000
0010
0000
1000
0000
0001
0000
0010
0100
1000
0000
0004
4000
,
0000
0000
0000
3000
0003
0000
0100
0010
0000
0000
0120
0000
0000
0000
0000
0000
,
0130
0001
0100
0010
1000
0001
0000
1001
,
1000
0000
0001
0000
0010
0000
0100
0000
1000
0000
0001
0010
0100
0000
1000
0000
,
0100
1000
0100
0010
0001
0100
0001
0100
,
0001
0000
1000
0000
0001
0000
0100
0000
0010
0000
1000
0010
0100
0000
0010
0000
,
0100
0000
0010
0000
0100
0000
0001
0000
0100
0000
0010
1000
0001
0000
1000
0000
,
0001
0000
1000
0000
0001
0000
0100
0000
0001
0000
0010
0100
0010
0000
0001
0000
,
1000
0000
0001
0000
1000
0000
0010
0000
1000
0000
0010
0100
0001
0000
0010
0000
,
0001
0010
0001
1000
1020
0000
0130
0000
,
2100
3010
0102
0013
,
0010
0001
0010
0001
0012
0000
1000
0010
,
0010
1000
1000
0000
0100
0000
0100
0000
,
0100
0010
0003
0000
2010
0000
0001
0010
,
0010
0001
0001
0000
3010
0000
0100
0010
,
0010
0000
0010
0000
1000
0000
0010
0000
0100
0001
0100
0010
1000
0000
0000
0000
,
0001
0010
0100
1000
0001
0000
0000
0000
1000
0010
0100
0001
1000
0000
0000
0000
,
0010
0100
0010
1000
0001
0000
0000
0000
0010
0100
0001
0100
1000
0000
0000
0000
,
1000
0010
0100
0010
0001
0000
0000
0000
1000
0100
0010
0100
0001
0000
0000
0000
,
0010
1000
0010
0100
1000
0000
0001
0000
0010
0000
0100
0000
0010
0000
0001
0000
,
0020
0000
0000
0000
1030
0000
0000
0110
0000
0000
1001
0000
0000
0000
1000
0000
,
0100
0000
0010
0000
0001
0000
1000
0000
2020
0000
0000
0000
0000
0000
0000
3030
,
0202
0000
0000
0000
0000
0303
0000
0011
0000
0000
0010
0000
0001
0000
0010
0000
,
0001
0000
0010
0100
1000
0000
0002
0000
0000
0000
0013
0000
1000
0000
0010
0000
,
0002
1003
0100
0002
0003
0100
1000
0001
,
0010
0000
1000
0000
0010
0000
0100
0000
2200
0000
0000
0000
0000
0000
0000
3300
,
0202
0000
0000
0000
0000
0000
0303
0011
0000
0000
0001
1000
0001
0000
0100
0000
,
0001
0000
1000
0000
1000
0000
0001
0000
0010
0000
0000
0001
0000
0000
0110
0000
,
0100
0000
1000
0100
0010
0000
0001
0101
,
0000
0000
0001
0000
0100
0000
0001
0000
1100
0000
0000
0001
0000
0000
0001
0000
,
0000
0001
0000
0020
0230
1300
0010
0110
,
0000
1000
0010
0101
1000
0100
0010
0100
,
2000
0000
0000
0000
0000
0000
0000
0000
3010
0000
0000
0000
0000
0000
0000
1000
0000
0000
0000
0000
0000
0000
0001
0000
0000
0000
0000
0000
0010
0000
0000
0000
,
0100
0000
0010
0000
0001
0000
0000
0000
1000
0010
1000
0010
1000
0010
1000
0010
,
0100
0001
0100
0001
0100
0001
0000
1001
0000
0000
0000
0000
0000
0000
0000
0000
;
