#TITLE:Rasputin (2021 Remix);
#SUBTITLE:;
#ARTIST:Majestic, Boney M;
#CREDIT:;
#MUSIC:Rasputin_audio.ogg;
#SELECTABLE:YES;
#BACKGROUND:Rasputin_bg.png;
#BANNER:Rasputin_bg.png;
#CDTITLE:;
#OFFSET:-0.118;
#SAMPLESTART:65.743;
#SAMPLELENGTH:16.406;
#BPMS:0=128;
#STOPS:44.5=1.40625;
#BGCHANGES:-0.25=Rasputin_video.mp4=1.000=1=0=0=StretchNoLoop==CrossFade==,
220.50=Rasputin_bg.png=1.000=1=0=1===CrossFade==,
99999=-nosongbg-=1.000=0=0=0 // don't automatically add -songbackground-

//---------------dance-single - ----------------
#NOTES:
     dance-single:
     :
     Beginner:
     4:
     0.000,0.000,0.000,0.000,0.000:
0000
0000
0000
0000
,
0000
0000
0000
0000
,
0000
0000
0000
0000
,
0000
0000
0000
0000
,
1000
1000
0100
0010
,
0001
0000
0200
0000
0000
0310
0010
0000
,
1000
1000
0010
0100
,
0001
0000
0000
0200
0000
0301
0001
0000
,
0001
0100
0010
1000
,
0100
0000
2000
0000
3000
0010
0010
0000
,
1000
0010
0100
0010
,
1000
0000
0001
0010
,
0000
0100
0010
0100
,
0000
0010
0100
0110
,
0001
0010
0100
1000
,
0000
1000
0010
0100
,
0000
0010
0100
0010
,
0000
0100
0001
0101
,
1000
0100
0010
0001
,
0000
0000
2000
0000
0000
3010
1000
0000
,
0010
1000
0100
1000
,
0001
0100
0010
0100
,
0001
0202
0303
0000
,
0000
0000
0002
0000
0000
0013
0001
0000
,
0010
0001
0100
0001
,
1000
0100
0010
0100
,
0000
2000
0200
0000
0000
0000
0000
0000
,
0000
3300
0000
0000
0000
0000
0000
0000
,
0000
0000
0000
0000
,
0000
0000
0000
0000
,
0000
0000
0000
0000
,
0000
1000
1000
0010
,
0100
0000
0001
0000
0020
0000
0000
0130
,
0100
1000
1000
0001
,
0001
0000
1000
1000
0001
0001
1000
1000
,
1000
0000
1001
0000
1001
0000
0001
0001
,
0001
0001
0100
0010
,
1000
0000
0000
0100
0010
0100
0010
0000
,
0001
0000
2000
0000
0000
3002
0000
0003
,
0000
0000
1001
0000
1001
0000
1000
1000
,
1000
1000
0100
0010
,
0001
0000
0000
0100
0010
0100
0010
0000
,
1000
0000
0001
0000
0000
2000
0000
0000
,
0000
0000
0000
3000
,
0010
2000
0000
3000
,
0100
2000
0000
3000
,
0001
0400
0000
0000
,
0300
0000
0001
0000
0001
0000
1000
1000
,
1000
0000
0010
0000
0100
0020
0000
0030
,
0110
0000
1000
0000
1000
0000
0001
0001
,
0001
0000
0010
0000
0100
0020
0000
0030
,
0110
0000
1000
0000
1000
0000
0100
1000
,
0100
0000
0010
0000
0100
2000
0000
3001
,
1000
0000
0001
0000
0001
0000
0100
0001
,
0100
0000
0010
0000
0100
0000
0001
1000
,
1001
0000
0000
0000
,
0000
0000
0000
0000
;

//---------------dance-single - ----------------
#NOTES:
     dance-single:
     :
     Easy:
     7:
     0.000,0.000,0.000,0.000,0.000:
0000
0000
0000
0000
,
0000
0000
0000
0000
,
0000
0000
0000
0000
,
0000
0000
0000
0000
,
1000
1000
0100
0010
,
0001
0000
0100
0200
0000
0301
1000
0000
,
0001
0001
0100
0010
,
1000
0000
0000
0200
0000
1300
0001
0000
,
1000
0000
0001
0000
1000
0010
1000
0000
,
0100
0000
1000
0100
0000
0110
0110
0000
,
0001
0000
1000
0000
0001
0010
0001
0000
,
0100
0000
0000
0000
0001
0100
0010
0000
,
0000
0000
1000
0010
1000
0010
1000
0000
,
0001
1000
1001
0000
0110
0000
1001
0000
,
0002
0000
0103
0001
0100
0001
0100
0000
,
0000
0000
0001
0010
0100
0010
0001
0000
,
0000
1000
0100
0010
0200
0000
0310
0000
,
0000
1001
1001
1001
,
1000
0000
0001
0100
0010
0100
0001
0000
,
0000
0000
2000
0000
0000
3010
1000
0000
,
0001
0000
0010
0001
0010
0100
0010
0000
,
0001
0000
0100
0000
0010
0000
0100
0010
,
1000
0010
0200
0000
0300
0000
0000
0000
,
0000
0000
0020
0000
0030
1000
0100
0000
,
0100
0000
1000
0100
0010
0100
0010
0000
,
0010
0100
1000
0001
,
0000
2000
0002
0000
0000
0000
0000
0000
,
0000
0000
0000
3000
0003
0000
0000
0000
0000
0000
0000
0000
0000
0000
0000
0000
,
0000
0000
0000
0000
,
0000
0000
0000
0000
,
0000
0000
0000
0000
,
0000
1000
1000
0010
,
0100
0000
0001
0000
0010
0020
0000
0031
,
1000
0001
0001
0010
,
0100
0000
1000
0001
1000
0001
4000
0000
,
0000
3000
1010
0000
1010
0000
1000
1000
,
1000
0000
0001
0000
0100
0000
1000
0100
,
0001
0000
0000
0001
0001
0100
0100
0000
,
0001
0000
0020
0000
0031
0200
0000
0300
,
0000
0000
0011
0000
0011
0000
0001
0001
,
0001
0000
1000
0000
0100
0000
0001
0100
,
1000
0000
0000
1000
1000
0100
0100
0000
,
1000
0000
0001
0010
0100
2000
0000
0000
,
0000
0000
0000
3000
,
0011
2000
0000
3000
,
1100
0002
0000
0003
,
0101
0000
0001
0100
0001
0100
0001
0100
,
0002
0003
1000
0000
0010
0000
0001
0010
,
1000
0000
0010
0000
0100
0020
0000
0130
,
0110
0000
0001
0000
0010
0000
1000
0010
,
0001
0000
0010
0000
0000
0200
0000
1300
,
1100
0000
1000
0000
0100
0000
0001
0100
,
1000
0000
0100
0000
0010
0200
0000
0310
,
0110
0000
0001
0000
0100
0000
1000
0100
,
0001
0000
0100
0001
1000
0001
1001
1001
,
1001
0000
0000
0000
,
0000
0000
0000
0000
;

//---------------dance-single - ----------------
#NOTES:
     dance-single:
     :
     Medium:
     10:
     0.000,0.000,0.000,0.000,0.000:
0000
0000
0000
0000
,
0000
0000
0000
0000
,
0000
0000
0000
0000
,
0000
0000
0000
0000
,
1000
0000
1000
0000
0100
0010
0001
0000
,
0001
0010
0001
0020
0000
0031
1001
0000
,
0001
0000
0001
0000
0100
0010
1000
0000
,
1000
0010
1000
0020
0000
1030
1001
0000
,
0001
0000
0100
0000
0010
1000
0100
0000
,
0100
1000
0100
2000
0000
3010
1010
0000
,
1000
0000
0100
0000
0010
0001
0010
0000
,
0100
0000
0000
0001
0100
1000
0010
0000
,
0000
0100
0010
1000
0100
0010
0001
0000
,
1000
0100
1100
0000
0110
0000
0011
0000
,
0001
0100
1000
0100
0001
0010
1000
0000
,
0000
1000
0010
0100
1000
0100
0001
0000
,
0000
0100
1000
0010
0100
0001
0010
0000
,
0001
0100
0101
0000
0110
0000
1010
0000
,
1000
0100
1000
0010
0100
0001
0100
1001
,
1001
0000
2000
0000
0000
3010
1000
0000
,
0010
0000
1000
0100
0010
0100
2000
0000
,
3100
0000
0010
0000
0001
0000
0100
0001
,
0100
0001
0022
0000
0033
0001
0010
0100
,
1000
0001
0002
0000
0000
0013
0001
0000
,
0010
0000
0001
0100
0010
0100
0002
0000
,
0103
0010
1000
0100
,
0000
1000
0200
0002
0000
0000
0000
0000
,
0303
0000
0000
0000
,
0000
0000
0000
0000
,
0000
0000
0000
0000
,
0000
0000
0000
0000
,
0000
0000
100M
0000
1000
0000
0001
0010
,
1000
0000
0010
0001
0010
0200
0000
0010
,
1300
0001
0001
1000
,
0010
0000
0001
0010
0001
0010
0100
0010
,
1000
0010
M0M1
0000
100M
0000
M001
0001
,
0001
0000
0001
0010
0100
1000
0010
0100
,
1000
0000
0000
0100
0010
0100
0010
0000
,
0001
0000
0020
0000
0130
0002
0000
0103
,
0101
0000
1M0M
0000
M001
0000
100M
1000
,
1000
0000
1000
0010
0100
0001
0010
0100
,
0001
0000
0000
0100
0010
0100
0010
0000
,
1000
0000
0020
0001
1030
0200
0000
0000
,
0000
0000
0000
0300
,
0110
2000
0000
3000
,
1100
0200
0000
0300
,
0110
0000
0001
0010
0100
1000
0101
1100
,
0101
0000
0000
0000
0001
0000
0000
0000
0001
0000
0000
0000
1000
0010
1000
0010
,
1000
0000
0100
0001
0100
0020
0000
0130
,
0110
0000
0000
0000
1000
0000
0000
0000
1000
0000
0000
0000
0001
0010
0001
0010
,
0001
0000
0100
1000
0000
0200
0000
0310
,
0110
0000
0000
0000
0001
0000
0000
0000
0001
0000
0000
0000
1000
0100
1000
0100
,
1000
0000
0001
0010
0001
0000
0001
0000
0010
0000
0200
0000
0000
0000
0310
0000
,
0110
0000
0000
0000
1000
0000
0000
0000
1000
0000
0000
0000
0001
0100
0001
0100
,
0001
0000
1000
0010
1000
0000
1000
0000
0010
0000
0100
0000
0110
0000
1001
0000
,
0110
0000
0000
0000
,
0000
0000
0000
0000
;

//---------------dance-single - ----------------
#NOTES:
     dance-single:
     :
     Hard:
     12:
     0.000,0.000,0.000,0.000,0.000:
0000
0000
0000
0000
,
0000
0000
0000
0000
,
0000
0000
0000
0000
,
0000
0000
0000
0000
,
1000
0000
0000
0000
1000
0000
0000
0000
0001
0100
0010
0100
0001
0000
0010
0001
,
1000
0010
0100
0020
0000
0130
0110
0000
,
0001
0000
0000
0000
0001
0000
0000
0000
1000
0100
0010
0100
1000
0000
0010
1000
,
0001
0010
0100
0020
0000
0130
0110
0000
,
0101
0000
0000
0000
1100
0000
0000
0000
0001
0010
0100
1000
0010
0000
0001
0010
,
0100
0010
0100
0002
0000
0103
0110
0000
,
1100
0000
0000
0000
0101
0000
0000
0000
1000
0010
0100
0001
0010
0000
0001
0100
,
0001
0000
0000
0001
0010
0001
0010
0000
,
0000
0100
0010
0010
0100
0010
0001
0000
,
1000
0000
0100
0000
1000
0100
0000
0000
0100
0010
0000
0000
0010
0001
0000
0000
,
0001
0000
0100
0000
0010
0000
0100
0000
0001
0000
0010
0000
0001
0000
1000
0010
,
0100
0000
0010
0100
0001
0000
1000
0000
0001
0000
0100
0000
0001
0010
0100
1000
,
0001
0100
0001
0010
0100
0010
0001
0000
,
0001
0000
0100
0000
0001
0100
0000
0000
0100
0010
0000
0000
0010
1000
0000
0000
,
1000
0000
0100
0000
1000
0000
0010
0000
0100
0000
0001
0000
0100
0000
1001
1000
,
0001
0000
1000
0010
2000
0000
0000
0000
0000
0000
3010
0000
1000
0000
0000
0000
,
0010
0000
1000
0100
0010
0100
2000
0000
,
3100
0000
0000
0100
0010
0000
0000
0010
0001
0000
0000
0000
0100
0000
0001
0000
,
0100
0000
0001
0000
0022
0000
0000
0000
0033
0000
0001
0010
0001
0010
0100
1000
,
0100
1000
0001
0010
0002
0000
0000
0000
0000
0000
0013
0000
0001
0000
0000
0000
,
0010
0000
0001
0100
0010
0100
0002
0000
,
0103
0000
0000
0100
0010
0000
0000
0010
1000
0000
0000
1000
0100
0000
0000
0000
,
0000
1000
0200
0002
0000
0000
0000
0000
,
0303
0000
0000
0000
,
0000
0000
0000
0000
,
0000
0000
0000
0000
,
0000
0000
0000
0000
,
0000
0000
0000
0000
100M
0000
0000
0000
1000
0000
0000
0000
0001
0010
0100
0010
,
0001
0000
1000
0100
0110
0000
1001
0000
0110
0000
2001
0000
0000
0000
0010
0000
,
3010
M0M1
0101
1M0M
,
1000
0000
0100
0000
0010
0000
0100
0000
0010
0000
0100
0000
0010
0100
0010
0100
,
1000
0010
1000
0010
1M0M
0000
0000
0000
M001
0000
0000
0000
100M
0000
1000
0000
,
1000
0000
1000
0010
0100
0001
0010
0100
,
1000
0000
0000
0000
0000
0000
0100
0000
0010
0000
0100
0000
0010
0001
0000
0000
,
0001
0010
0000
0000
0020
0000
0000
0000
0130
0000
2000
0000
0000
0000
3010
0000
,
1010
0000
M0M1
0000
100M
0000
M001
0001
,
0001
0000
0001
0010
0100
1000
0010
0100
,
0001
0000
0000
0000
0000
0000
0100
0000
0010
0000
0100
0000
0010
1000
0000
0000
,
1000
0010
0000
0000
0020
0000
0100
0000
0130
0000
0020
0000
1000
0000
1000
0000
,
1000
0001
1000
0031
,
0110
0201
1000
0301
,
0110
1020
0001
1030
,
0110
0000
0001
0010
0100
1000
0101
1100
,
0101
0000
0000
0000
0001
0000
0000
0000
0001
0000
0000
0000
1000
0010
0100
0001
,
1000
0000
0100
0010
0110
0000
1001
0000
0110
0000
1002
0000
0000
0000
0103
0000
,
0110
0000
0000
0000
1000
0000
0000
0000
1000
0000
0000
0000
0001
0010
0100
1000
,
0001
0000
0100
0010
0110
0000
1001
0000
0110
0000
2001
0000
0000
0000
3100
0000
,
0110
0000
0000
0000
0001
0000
0000
0000
0001
0000
0000
0000
1000
0100
0010
0001
,
1000
0000
0010
0001
0011
0000
0100
0000
1010
0000
0200
0000
0000
0000
0310
0000
,
0110
0000
0000
0000
1000
0000
0000
0000
1000
0000
0000
0000
0001
0100
0010
1000
,
0001
0000
0010
1000
1010
0000
0100
0000
0011
0000
0100
0000
1010
0000
0101
0000
,
1001
0000
0000
0000
,
0000
0000
0000
0000
;

//---------------dance-single - ----------------
#NOTES:
     dance-single:
     :
     Edit:
     11:
     0.000,0.000,0.000,0.000,0.000:
0000
0000
0000
0000
,
0000
0000
0000
0000
,
0000
0000
0000
0000
,
0000
0000
0000
0000
,
1000
0000
0000
0000
1000
0000
0000
0000
0001
0100
1000
0100
0001
0000
0010
0001
,
1000
0010
0001
0020
0000
0031
0110
0000
,
0001
0000
0000
0000
0001
0000
0000
0000
1000
0100
0001
0100
1000
0000
0010
1000
,
0001
0010
1000
0020
0000
1030
0110
0000
,
0101
0000
0000
0000
1100
0000
0000
0000
0001
0010
0100
1000
0010
0000
0001
0010
,
0100
0010
0100
2000
0000
3100
0110
0000
,
1100
0000
0000
0000
0101
0000
0000
0000
1000
0010
0100
0001
0010
0000
0001
0100
,
1000
0000
0000
0001
0010
1000
0010
0000
,
0000
0100
0010
1000
0100
0010
0001
0000
,
1000
0000
0100
0000
1000
0100
0000
0000
0100
0010
0000
0000
0010
0001
0000
0000
,
0001
0000
0100
0000
1000
0000
0100
0000
0001
0000
0010
0000
1000
0000
0001
1000
,
0001
0000
1000
0010
0001
0000
0001
0000
1000
0000
0100
0000
0001
0100
1000
0010
,
1000
0010
1000
0010
0100
0001
0010
0000
,
0001
0000
0100
0000
0001
0100
0000
0000
0100
0010
0000
0000
0010
1000
0000
0000
,
1000
0000
0100
0000
1000
0000
0010
0000
0100
0000
0001
0000
0100
0001
0010
0002
,
0000
0000
1003
0010
2000
0000
0000
0000
0000
0000
3010
0000
1000
0000
0000
0000
,
0010
0000
1000
0100
0010
0100
2000
0000
,
3100
0000
0000
0100
0010
0000
0000
0010
0001
0000
0000
0000
0100
0000
0001
0000
,
0100
0000
0001
0000
0022
0000
0000
0000
0033
0000
0001
0010
0100
0001
0100
1000
,
0010
0100
0001
0010
0002
0000
0000
0000
0000
0000
0013
0000
0001
0000
0000
0000
,
0010
0000
0001
0100
0010
0100
0002
0000
,
0103
0000
0000
0100
0010
0000
0000
0010
1000
0000
0000
1000
0100
0000
0000
0000
,
0000
1000
0200
0002
0000
0000
0000
0000
,
0303
0000
0000
0000
,
0000
0000
0000
0000
,
0000
0000
0000
0000
,
0000
0000
0000
0000
,
0000
0000
0000
0000
100M
0000
0000
0000
1000
0000
0000
0000
0001
0010
0100
0010
,
0001
0000
1000
0100
0110
0000
1001
0000
0110
0000
1001
0000
0000
0000
0001
0000
,
0001
0100
0010
1000
,
0100
0000
0010
0000
0001
0000
0010
0000
1000
0000
0010
0000
0001
0100
0001
0010
,
0001
0100
0001
0000
1M0M
0000
0000
0000
M001
0000
0000
0000
100M
0000
1000
0000
,
1000
0000
1000
0010
0100
0001
0010
0100
,
0001
0000
0000
0000
0000
0000
0100
0000
0010
0000
0100
0000
0010
1000
0000
0000
,
1000
0010
0000
0000
0020
0000
0000
0000
0130
0000
2000
0000
0000
0000
3010
0000
,
1010
0000
M0M1
0000
100M
0000
M001
0001
,
0001
0000
0001
0010
0100
1000
0010
0100
,
1000
0000
0000
0000
0000
0000
0100
0000
0010
0000
0100
0000
0010
0001
0000
0000
,
0001
0010
0000
0000
0020
0000
0100
0000
0031
0000
0020
0000
0001
0000
0001
0000
,
0001
1000
0001
1030
,
0110
0201
1000
0301
,
0110
1200
0001
1300
,
0110
0000
0001
0010
0100
1000
0101
1100
,
0101
0000
0000
0000
0001
0000
0000
0000
0001
0000
0000
0000
1000
0010
0100
0001
,
1000
0000
0100
0010
0011
0000
0001
0000
1100
0000
0020
0000
0000
0000
0130
0000
,
0110
0000
0000
0000
1000
0000
0000
0000
1000
0000
0000
0000
0001
0010
0100
1000
,
0001
0000
0100
0010
1010
0000
1000
0000
0101
0000
0020
0000
0000
0000
0130
0000
,
0110
0000
0000
0000
0001
0000
0000
0000
0001
0000
0000
0000
1000
0100
0010
0001
,
1000
0000
0010
0100
0101
0000
0001
0000
1010
0000
0200
0000
0000
0000
0310
0000
,
0110
0000
0000
0000
1000
0000
0000
0000
1000
0000
0000
0000
0001
0100
0010
1000
,
0001
0000
0010
0100
1100
0000
1000
0000
0011
0000
0100
0000
1010
0000
0101
0000
,
1001
0000
0000
0000
,
0000
0000
0000
0000
;
