#TITLE:Peaches and Cream x Dance with Me;
#SUBTITLE:(explicit);
#ARTIST:112;
#CREDIT:Vndt;
#MUSIC:PeachesandCream_DancewithMe_audio_explicit.ogg;
#SELECTABLE:YES;
#BACKGROUND:PeachesandCream_DancewithMe_bg.png;
#BANNER:PeachesandCream_DancewithMe_bn.png;
#CDTITLE:Part III;
#OFFSET:-0.006;
#SAMPLESTART:27.652;
#SAMPLELENGTH:19.411;
#BPMS:0=102.008,1=102.005,11=102.008,12=102.005,23=102.008,24=102.005,38=102.008,39=102.005,46=102.008,47=102.005,54=102.008,55=102.005,62=102.008,63=102.005,70=102.008,71=102.005,120=101.645,216=102.005;
#STOPS:;
#BGCHANGES:0.000=PeachesandCream_DancewithMe_video.mov=1.000=1=0=0=StretchNoLoop==CrossFade==; 99999.000=-nosongbg-=1.000=0=0=0=StretchNoLoop====;
#GENRE:R&B;

//---------------dance-single - ----------------
#NOTES:
     dance-single:
     :
     Easy:
     4:
     0.000,0.000,0.000,0.000,0.000:
0000
0000
0000
0000
,
0000
0M00
0000
0M00
0000
0MM0
0000
0000
,
0000
0000
0000
0000
,
1000
1000
0001
0001
,
0000
0100
0200
0300
,
0000
0000
0000
0000
0010
0000
0000
0000
0020
0000
0000
0030
0000
0000
0000
0000
,
1000
0200
0300
0010
,
0100
0010
0220
0330
,
0000
0010
0020
0030
,
0000
0000
0000
0000
0100
0000
0000
0000
0200
0000
0000
0300
0000
0000
0000
0000
,
1000
0020
0030
0100
,
0020
0030
0100
0100
,
0220
0330
1000
1000
,
0020
0000
0000
0030
0000
0000
0000
0000
1000
0000
0000
0000
1000
0000
0000
0000
,
0002
0000
0000
0003
0000
0000
0000
0000
1000
0000
0000
0000
1000
0000
0000
0000
,
0200
0000
0000
0300
0000
0000
0000
0000
0010
0000
0000
0000
0010
0000
0000
0000
,
0220
0330
0001
0001
,
0020
0000
0000
0030
0000
0000
0000
0000
0001
0000
0000
0000
0001
0000
0000
0000
,
2000
0000
0000
3000
0000
0000
0000
0000
0001
0000
0000
0000
0001
0000
0000
0000
,
0200
0000
0000
0300
0000
0000
0000
0000
0010
0000
0000
0000
0010
0000
0000
0000
,
0220
0000
0000
0330
0000
0000
0000
0000
0020
0000
0000
0030
0000
0000
0000
0000
,
0000
0000
1000
0000
0020
0030
0000
0000
,
0010
0000
0000
0000
0100
0000
0000
0000
0002
0000
0000
0003
0000
0000
0000
0000
,
1000
0000
0000
0000
0000
0000
MMMM
0000
0M00
0000
0M00
0MM0
0000
0000
0000
0000
,
0000
0000
0000
0000
1000
0000
0000
0000
0200
0000
0000
0300
0000
0000
0000
0000
,
0000
0000
1000
0000
0200
0300
0000
0000
,
0010
0200
0300
0010
,
0200
0300
0010
0010
,
0220
0330
0000
0000
,
0000
0000
0000
0000
,
0001
0000
0000
0000
0001
0000
0000
0000
2000
0000
0000
3000
0000
0000
0000
0000
,
0010
0000
0000
0000
0010
0000
0000
0000
2000
0000
0000
3000
0000
0000
0000
0000
,
0100
0000
0000
0000
0100
0000
0000
0000
2000
0000
0000
3000
0000
0000
0000
0000
,
0000
1001
0000
0000
0000
1001
0000
0000
,
1000
0000
0000
0000
1000
0000
0000
0000
0002
0000
0000
0003
0000
0000
0000
0000
,
0010
0000
0000
0000
0010
0000
0000
0000
0002
0000
0000
0003
0000
0000
0000
0000
,
0100
0000
0000
0000
0100
0000
0000
0000
0002
0000
0000
0003
0000
0000
0000
0000
,
0000
0110
0000
0000
0000
0110
0000
0000
,
1000
0010
1000
0000
,
0001
0010
0001
0001
,
0000
1000
0100
1000
,
0000
0000
0001
0000
0010
0000
0001
0001
,
0000
0000
0000
0000
0001
0000
1000
1000
,
0000
0000
0000
0000
1000
0000
0001
0001
,
0000
0000
0000
0000
0001
0000
1000
1000
,
0000
0000
1000
0000
0001
0001
0000
0000
,
0001
0000
0000
0000
0001
0000
0000
0000
2000
0000
0000
3000
0000
0000
0000
0000
,
0100
0000
0000
0000
0100
0000
0000
0000
2000
0000
0000
3000
0000
0000
0000
0000
,
0010
0000
0000
0000
0010
0000
0000
0000
2000
0000
0000
3000
0000
0000
0000
0000
,
0000
1010
0000
0000
0000
0011
0000
0000
,
1000
0000
0000
0000
1000
0000
0000
0000
0002
0000
0000
0003
0000
0000
0000
0000
,
0100
0000
0000
0000
0100
0000
0000
0000
0002
0000
0000
0003
0000
0000
0000
0000
,
0010
0000
0000
0000
0010
0000
0000
0000
0002
0000
0000
0003
0000
0000
0000
0000
,
0000
0011
0000
0000
0000
1010
0000
0000
,
0000
0000
0000
0000
,
0220
0330
1000
1000
,
0200
0000
0000
0300
0000
0000
0000
0000
1000
0000
0000
0000
1000
0000
0000
0000
,
0002
0000
0000
0003
0000
0000
0000
0000
1000
0000
0000
0000
1000
0000
0000
0000
,
0020
0000
0000
0030
0000
0000
0000
0000
0100
0000
0000
0000
0100
0000
0000
0000
,
0220
0000
0330
0000
0001
0000
0100
0100
,
0200
0000
0000
0300
0000
0000
0000
0000
0100
0000
0000
0000
0001
0000
0001
0000
,
0002
0000
0000
0003
0000
0000
0000
0000
1000
0000
0000
0000
0001
0000
0001
0000
,
0002
0000
0000
0003
0000
0000
0000
0000
0100
0000
0000
0000
0010
0000
0000
0000
,
0220
0000
0000
0330
0000
0000
0000
0000
0000
0000
0000
0000
0000
0000
0000
0000
;

//---------------dance-single - ----------------
#NOTES:
     dance-single:
     :
     Medium:
     9:
     0.000,0.000,0.000,0.000,0.000:
0000
0000
0000
0000
,
0000
0M00
0000
0M00
0000
0MM0
0000
0000
,
0000
0000
0000
0000
,
1000
0100
0010
0001
,
0000
0000
0001
0000
0010
0000
0100
0000
0020
0000
0000
0230
0000
0300
0000
0000
,
0000
0000
1000
0000
0010
0000
0100
0000
0020
0000
0000
0230
0000
0300
0001
0000
,
0010
0000
0M1M
0000
2000
0000
3000
0010
0000
0000
1000
0000
0100
0000
M1M0
0000
,
0001
0000
0020
0000
0031
0000
0200
0000
0320
0000
0030
2000
0000
0000
3000
0000
,
0000
0000
0001
0000
0002
0000
0000
0013
0001
0000
0010
0002
0000
0003
0000
0000
,
0000
0000
1000
0000
1000
0000
0010
0000
1000
0000
0010
2000
0000
0000
3010
0000
,
0010
0000
MM10
0000
0002
0000
0000
0013
0000
0000
0001
0000
0010
0000
0M1M
0000
,
2000
0000
0000
3010
0000
0000
1000
0000
0001
0000
1000
0000
0001
0000
1000
0000
,
1001
0001
0020
0030
0100
1000
0100
1000
,
0022
0000
0000
0033
0002
0000
0103
0000
0001
0000
0100
0000
0001
0000
0100
0000
,
2020
0000
0000
3030
0000
0000
0010
0000
0100
0000
0010
0000
0100
0000
0110
0000
,
2002
0000
0000
0000
0000
0000
0000
0000
0003
3000
0000
0000
0001
0000
0000
0000
0000
0000
0000
0000
0000
0000
0000
0000
2000
0000
0000
0000
0000
0000
3000
0000
0000
0000
0000
0000
1000
0000
0000
0000
0000
0000
0001
0000
0000
0000
0000
0000
,
2002
0000
3003
0000
0001
0010
0100
1000
,
0220
0000
0000
0330
0000
0000
0001
0000
0100
0000
0010
0000
1000
0000
0001
0000
,
0220
0000
0330
1000
0100
0010
0001
0110
,
2002
0000
0000
0000
0000
0000
0000
0000
0003
3000
0000
0000
0001
0000
0000
0000
0000
0000
0000
0000
0000
0000
0000
0000
2000
0000
0000
0000
0000
0000
3000
0000
0000
0000
0000
0000
1000
0000
0000
0000
0000
0000
0001
0000
0000
0000
0000
0000
,
1001
0000
0001
0000
0001
0000
0100
0000
0020
0000
0030
2000
0000
0000
3000
0000
,
0000
0000
1000
0000
1000
0000
0100
0000
0020
0000
0030
0002
0000
0000
0003
0000
,
1010
0000
0000
0000
0101
0000
0000
0000
0011
0000
0000
0001
0000
0000
1000
0000
,
0100
0000
0000
0000
0000
0000
0010
0000
0000
0000
0000
0000
0010
0000
0000
0000
0000
0000
2002
0000
0000
0000
0000
0000
0M00
0000
0000
0000
0000
0000
0M00
0000
0000
0MM0
0000
0000
0000
0000
0000
0000
0000
0000
0000
0000
3003
0000
0000
0000
,
0000
0000
1000
0000
0100
0000
0100
0000
0010
0000
0000
0200
0000
0000
0300
0000
,
0000
0000
1000
0000
0010
0000
0010
0000
0200
0000
0300
0002
0000
0000
0103
0000
,
1010
0000
0000
0000
0101
0000
0000
0001
0000
0000
0001
0000
0010
0000
0010
0000
,
0100
0000
0000
1000
0000
0000
0001
0000
1000
0000
0001
0000
1000
0000
0001
0000
,
2002
0000
0000
3003
0000
0000
0000
0000
0000
0000
0000
0000
0000
0000
0000
0000
,
0010
0010
0010
1020
,
0130
0000
0001
0000
0101
0000
0000
0000
0001
0000
0010
0001
0000
0000
0010
0000
,
0001
0000
1000
0000
0001
0000
0010
0000
0001
0000
1000
0001
0000
0000
1000
0000
,
0010
0000
1000
0000
0001
0000
1000
0000
0010
0000
0100
0010
0000
0000
0100
0010
,
0000
0000
1010
0000
0000
0001
0000
0000
0000
0000
0101
0000
0000
1000
0000
0000
,
0100
0000
1000
0000
0100
0000
1000
0000
0010
0000
0010
1000
0000
0000
0010
0000
,
1000
0000
0001
0000
1000
0000
0010
0000
1000
0000
1000
0001
0000
0000
1000
0000
,
0100
0000
1000
0000
0001
0000
1000
0000
0100
0000
0100
0010
0000
0000
0100
0010
,
0000
0000
0011
0000
0000
1000
0000
0000
0000
0000
1100
0000
0000
0001
0000
0000
,
1000
1000
0010
0010
0100
0000
0001
0000
,
0010
0010
0001
0001
1000
0000
0001
0000
,
0001
0100
0010
1000
0100
0010
0001
0000
,
1000
0100
0010
0000
0100
0000
1000
0110
,
0000
0000
0000
0000
0001
0100
0010
1001
,
0000
0000
0000
0000
0010
0100
0010
1001
,
0000
0000
0000
0000
0100
0010
0100
1001
,
0000
0000
0001
0100
0010
0100
0001
0100
,
0001
0000
0010
0000
0011
0000
0000
0000
0001
0000
0100
0001
0000
0000
0100
0000
,
0001
0000
1000
0000
0001
0000
0100
0000
0001
0000
1000
0001
0000
0000
1000
0000
,
0100
0000
1000
0000
0001
0000
1000
0000
0100
0000
0010
0100
0000
0000
0010
0100
,
0000
0000
1100
0000
0000
0001
0000
0000
0000
0000
0011
0000
0000
1000
0000
0000
,
0010
0000
1000
0000
0010
0000
1000
0000
0100
0000
0100
1000
0000
0000
0100
0000
,
1000
0000
0001
0000
1000
0000
0100
0000
1000
0000
1000
0001
0000
0000
1000
0000
,
0010
0000
1000
0000
0001
0000
1000
0000
0010
0000
0010
0100
0000
0000
0010
0100
,
0000
0000
0101
0000
0000
1000
0000
0000
0000
0000
1010
0000
0000
0001
0000
0000
,
0000
0000
0000
0000
0000
0000
0001
1000
,
1001
0001
0200
0300
0010
1000
0010
1000
,
0202
0000
0000
0303
0002
0000
0013
0000
0001
0000
0010
0000
0001
0000
0010
0000
,
2200
0000
0000
3300
0000
0000
0100
0000
0010
0000
0100
0000
0010
0000
0110
0000
,
2002
0000
0000
0000
0000
0000
0000
0000
0003
3000
0000
0000
0001
0000
0000
0000
0000
0000
0000
0000
0000
0000
0000
0000
2000
0000
0000
0000
0000
0000
3000
0000
0000
0000
0000
0000
1000
0000
0000
0000
0000
0000
0001
0000
0000
0000
0000
0000
,
1001
1000
0010
0001
1000
0100
0202
0303
,
0000
1000
0100
0001
1000
0010
0022
0033
,
0000
0001
0100
1000
0001
0010
2020
3030
,
0000
0000
1000
0000
0220
0330
0010
0100
,
2002
3003
0000
0000
;

//---------------dance-single - ----------------
#NOTES:
     dance-single:
     :
     Hard:
     13:
     0.000,0.000,0.000,0.000,0.000:
0000
0000
0000
0000
,
0000
0M00
0000
0M00
0000
0MM0
0000
0000
,
0000
0000
0000
0000
,
1000
0100
0010
0001
,
2000
0000
3001
0010
0001
1000
0010
0100
0010
0000
0010
0200
0000
0300
0000
0000
,
0002
0000
1003
0010
1000
0001
0010
0100
0010
0000
0010
0200
0000
0300
1000
0010
,
1000
0000
0001
0010
0002
0000
0013
0100
0000
0000
1000
0100
1000
0000
0001
0100
,
0001
0000
0020
0000
0031
0000
0200
0000
0320
0000
1030
0020
0000
0000
0030
0000
,
2000
0000
3001
0000
0001
0000
0000
0010
0100
0000
0100
0020
0000
0030
0000
0000
,
0002
0000
1003
0000
0100
0000
0010
0000
0001
0000
0100
0020
0000
0030
0010
0000
,
1000
0000
0010
0000
0200
0000
0301
0010
0000
0000
0001
0000
1000
0000
0100
1000
,
0100
0000
0100
1000
0000
0000
1000
0001
1000
0001
0100
0000
0001
0100
0001
0000
,
1001
0000
0000
0001
0000
0000
0020
0000
0000
0030
0000
0010
0100
0000
1000
0100
0000
0010
0100
0000
1000
0100
0000
0010
,
0200
0000
0300
0010
0000
0000
0002
0000
0000
0103
0000
0010
0100
0000
0001
0100
0000
0010
0100
0000
0001
0100
0000
0010
,
0200
0000
0000
0000
0000
0300
0010
0000
1000
0001
0000
0010
0001
0000
1000
0001
0000
0010
0001
0000
0000
1001
0000
0000
,
0022
0000
0000
0000
0000
0000
0000
0000
0033
0000
0000
0000
0000
0000
0000
0000
0002
0000
0000
0000
0103
0000
0010
0000
2000
0000
0000
0000
0000
0000
3000
0000
0000
0000
0000
0000
1000
0000
0000
0100
0000
0000
1000
0000
0000
0000
0000
0000
,
2002
0000
0000
0000
0000
0000
3003
0000
0000
0000
0000
1000
0001
0000
1000
0010
0000
1000
0001
0000
1000
0010
0000
1000
,
0002
0000
0000
0003
0000
0000
0000
0000
0000
1000
0000
0100
0010
0000
0100
1000
0000
0100
0010
0000
0100
1000
0000
0100
,
0020
0000
0000
0000
0000
0000
0031
0000
0100
0010
0000
0100
0001
0000
0100
0010
0000
0100
0001
0000
0000
1001
0000
0000
,
0202
0000
0000
0000
0000
0000
0000
0000
0303
0000
0000
0000
0000
0000
0000
0000
0002
0000
0000
0000
0013
0000
0100
0000
2000
0000
0000
0000
0000
0000
3000
0000
0000
0000
0000
0000
1000
0000
0000
0010
0000
0000
1000
0000
0000
0000
0000
0000
,
1001
0000
0000
0001
0000
0000
0100
0000
0000
0001
0000
0000
0010
0000
0000
0000
0000
0000
0000
0000
0001
0000
0000
0000
0020
0000
0000
0000
0000
0000
0130
0000
0000
0000
2000
0000
0000
0000
0000
0000
0000
0000
3001
0000
0000
0000
0000
0000
,
2000
0000
3010
1000
0010
0000
0100
0000
0002
0000
0000
0023
0000
0000
0031
0000
,
1010
0000
0010
0000
0101
0000
0001
0000
0011
0000
0001
0010
0000
0000
0100
1000
,
0100
0000
0000
0000
0000
0000
0010
0000
0000
0000
0000
0000
0010
0000
0000
0000
0000
0000
2002
0000
0000
0000
0000
0000
0M00
0000
0000
0000
0000
0000
0M00
0000
0000
0MM0
0000
0000
0000
0000
0000
0000
0000
0000
0000
0000
3003
0000
0000
0000
,
0002
1003
0100
1000
0100
0010
0001
0000
0020
0000
0031
0200
0000
0000
0300
0000
,
0200
0301
0100
0001
0200
0000
0320
0000
2030
0000
3001
0010
0000
0000
0100
1000
,
0010
0000
0010
1000
0100
0000
0010
0001
0000
0000
0100
0001
0010
0000
0010
0001
,
0100
0000
0010
1000
0000
0000
1000
0001
1000
0000
1000
0001
0100
0001
1000
0000
,
2002
0000
0000
3003
0000
0000
0000
0000
0000
0000
0000
0000
0000
0000
0000
0000
,
0010
0010
0010
1020
,
0130
0000
0101
0000
1100
0000
0000
0000
0001
1000
0001
0010
0000
0000
0010
0001
,
0100
0000
0010
1000
0100
0000
0010
0001
0100
0000
0010
1000
0000
0000
0010
0100
,
0010
0100
0010
0000
1000
0100
1000
0000
1010
0000
1000
0100
0000
0100
0010
0100
,
0000
0000
0011
0000
0010
0001
0000
0000
0000
0000
0101
0000
0001
0100
0000
0000
,
1010
0000
0101
0000
1100
0000
1000
0010
1000
0000
1000
0100
0000
0000
0010
0001
,
0100
0001
1000
0000
0011
0000
1010
0000
0011
0000
0001
0010
0000
0000
0100
1000
,
0010
0000
0100
0001
0010
0001
0010
0000
0101
0000
0001
0010
0000
0010
0100
0010
,
0000
0000
0011
0000
0001
0010
0000
0000
0000
0000
0101
0000
0001
0100
0000
0000
,
1000
1000
0010
0010
0100
0000
0001
0000
,
0010
0010
0001
0001
1000
0000
0001
0000
,
0001
0100
0010
1000
0100
0010
0001
0000
,
1000
0100
0010
0000
0100
0000
1000
0110
,
0000
0000
0000
0000
0001
0100
0010
1001
,
0000
0000
0000
0000
0010
0100
0010
1001
,
0000
0000
0000
0000
0100
0010
0100
1001
,
0000
0000
0001
0100
0010
0100
0001
0100
,
0101
0000
1100
0000
0101
0000
0000
0000
1000
0001
1000
0010
0000
0000
0010
1000
,
0100
0000
0010
0001
0100
0000
0010
1000
0100
0000
0010
0001
0000
0000
0010
0100
,
0010
0100
0010
0000
0001
0100
0001
0000
0011
0000
0001
0100
0000
0100
0010
0100
,
0000
0000
1010
0000
0010
1000
0000
0000
0000
0000
1100
0000
1000
0100
0000
0000
,
0011
0000
1100
0000
0101
0000
0001
0010
0001
0000
0001
0100
0000
0000
0010
1000
,
0100
1000
0001
0000
1010
0000
0011
0000
1010
0000
1000
0010
0000
0000
0100
0001
,
0010
0000
0100
1000
0010
1000
0010
0000
1100
0000
1000
0010
0000
0010
0100
0010
,
0000
0000
1010
0000
1000
0010
0000
0000
0000
0000
1100
0000
1000
0100
0000
0000
,
0000
0000
0000
0000
0000
0000
0000
0000
0000
0000
0000
0000
1000
0100
1000
0000
,
1001
0000
0000
1000
0000
0000
0020
0000
0000
0130
0000
0010
0100
0000
0001
0100
0000
0010
0100
0000
0001
0100
0000
0010
,
0200
0000
0300
0010
0000
0000
2000
0000
0000
3100
0000
0010
0100
0000
1000
0100
0000
0010
0100
0000
1000
0100
0000
0010
,
0200
0000
0300
0100
0000
0000
1000
0000
0001
1000
0000
0010
1000
0000
0001
1000
0000
0010
1000
0000
0000
1001
0000
0000
,
2020
0000
0000
0000
0000
0000
0000
0000
3030
0000
0000
0000
0000
0000
0000
0000
2000
0000
0000
0000
3100
0000
0010
0000
0002
0000
0000
0000
0000
0000
0003
0000
0000
0000
0000
0000
0001
0000
0000
0100
0000
0000
0001
0000
0000
0000
0000
0000
,
1001
0000
0000
0001
0000
0000
1000
0000
0000
0100
0000
0010
0001
0000
0100
0001
0000
0010
0001
0000
0100
0001
0000
0010
,
0002
0000
0000
0013
0000
0000
0001
0000
0000
1000
0000
0100
1000
0000
0010
1000
0000
0100
1000
0000
0010
1000
0000
0100
,
2000
0000
0000
3001
0000
0000
1000
0000
0010
0100
0000
0001
0010
0000
0100
1000
0000
0010
0100
0000
0000
1001
0000
0000
,
2200
0000
0000
0000
0000
0000
0000
0000
3300
0000
0000
0000
0000
0000
0000
0000
2000
0000
0000
0000
3010
0000
0100
0000
0002
0000
0000
0000
0000
0000
0003
0000
0000
0000
0000
0000
0001
0000
0000
0010
0000
0000
0001
0000
0000
0000
0000
0000
,
2002
3003
0000
0000
;

//---------------dance-single - ----------------
#NOTES:
     dance-single:
     :
     Challenge:
     14:
     0.000,0.000,0.000,0.000,0.000:
0000
0000
0000
0000
,
0000
0M00
0000
0M00
0000
0MM0
0000
0000
,
0000
0000
0000
0000
,
1000
0100
0010
0001
,
2000
0000
3001
0010
0001
1000
0010
0100
0010
0000
0010
0200
0000
0300
0000
0000
,
0002
0000
1003
0010
1000
0001
0010
0100
0010
0000
0010
0200
0000
0300
0100
1000
,
0100
0000
01M0
0001
0200
0000
0310
0100
0000
0000
0100
0001
0100
0000
01M0
1000
,
0100
0000
0020
0000
0031
0000
0200
0000
2300
0000
3010
0002
0000
0000
0003
0000
,
2000
0000
3001
0000
0001
0000
0000
0010
0100
0000
0100
0020
0000
0030
0000
0000
,
0002
0000
1003
0000
0100
0000
0010
0000
0001
0000
0100
0020
0000
0030
0010
0000
,
1000
0000
0010
0000
0M20
0000
0031
0010
0000
0000
0001
0000
1000
0000
0100
1000
,
0100
0000
0100
1000
0000
0000
1000
0001
1000
0001
0100
0000
0001
0100
0001
0000
,
1001
0000
0000
0001
0000
0000
0020
0000
0000
0030
0000
0010
0100
0000
1000
0100
0000
0010
0100
0000
1000
0100
0000
0010
,
0200
0000
0300
0010
0000
0000
0002
0000
0000
0103
0000
0010
0100
0000
0001
0100
0000
0010
0100
0000
0001
0100
0000
0020
,
0200
0000
0300
MM0M
0030
0000
0010
0000
1000
0001
0000
0010
0001
0000
1000
0001
0000
0010
0001
0000
0000
1001
0000
0000
,
0022
0000
0000
0000
0000
0000
0000
0000
0033
0000
0000
0000
0000
0000
0000
0000
0002
0000
0000
0000
0103
0000
0010
0000
2000
0000
0000
0000
0000
0000
3000
0000
0000
0000
0000
0000
1000
0000
0000
0100
0000
0000
1000
0000
0000
0000
0000
0000
,
2002
0000
0000
0000
0000
0000
3003
0000
0000
0000
0000
1000
0001
0000
1000
0010
0000
1000
0001
0000
1000
0010
0000
1000
,
0002
0000
0000
0003
0000
0000
0000
0000
0000
1000
0000
0100
0010
0000
0100
1000
0000
0100
0010
0000
0100
1000
0000
0100
,
0020
0000
0000
0000
0000
0000
0031
0000
0100
0010
0000
0100
0001
0000
0100
0010
0000
0100
0001
0000
0000
1001
0000
0000
,
0202
0000
0000
0000
0000
0000
0000
0000
0303
0000
0000
0000
0000
0000
0000
0000
0002
0000
0000
0000
0013
0000
0100
0000
2000
0000
0000
0000
0000
0000
3000
0000
0000
0000
0000
0000
1000
0000
0000
0010
0000
0000
1000
0000
0000
0000
0000
0000
,
1001
0000
0000
0001
0000
0000
0100
0000
0000
0001
0000
0000
0010
0000
0000
0000
0000
0000
0000
0000
0001
0000
0000
0000
0020
0000
0000
0000
0000
0000
0130
0000
0000
0000
2000
0000
0000
0000
0000
0000
0000
0000
3001
0000
0000
0000
0000
0000
,
2000
0000
3010
1000
0010
0000
0100
0000
0002
0000
0000
0023
0000
0000
0031
0000
,
1010
0000
0010
0000
0101
0000
0001
0000
0011
0000
0001
0010
0000
0000
0100
1000
,
0100
0000
0010
0000
0010
0000
MMMM
0000
0M00
0000
0M00
0MM0
0000
0000
0000
0000
,
0002
1003
0100
1000
0100
0010
0001
0000
0020
0000
0031
0200
0000
0000
0300
0000
,
0200
0301
0100
0001
0200
0000
2300
0000
3020
0000
0031
0010
0000
0000
0100
1000
,
0010
0000
0010
1000
0100
0000
01M0
0001
0000
0000
0100
0001
0010
0000
0010
0001
,
0100
0000
01M0
1000
0000
0000
1000
0001
1000
0000
1000
0001
0100
0001
1000
0000
,
2002
0000
0000
3003
0000
0000
0000
0000
0000
0000
0000
0000
0000
0000
0000
0000
,
0010
0010
0010
1020
,
0130
0000
0101
0000
1100
0000
0000
0000
0001
1000
0001
0010
0000
0000
0010
0001
,
0010
0000
0M10
1000
0010
0000
0M10
0001
0010
0000
0M10
1000
0000
0000
0010
0100
,
0010
0100
0010
0000
0M10
0001
0100
0000
1100
0000
1000
0100
0000
0100
0010
0100
,
0000
0000
0011
0000
0010
0001
0000
0000
0000
0000
1010
0000
1000
0010
0000
0000
,
1010
0000
0101
0000
1100
0000
0100
1000
0100
0000
01M0
0001
0000
0000
0001
0100
,
0010
1000
0010
0000
0011
0000
1010
0000
0011
0000
0001
0010
0000
0000
0001
1000
,
0010
0000
0M10
0001
0010
0001
0010
0000
1010
0000
0M10
0001
0000
0010
0100
0010
,
0000
0000
0011
0000
0001
0010
0000
0000
0000
0000
1010
0000
1000
0010
0000
0000
,
1000
1000
0010
0010
0100
0000
0001
0000
,
0010
0010
0001
0001
1000
0000
0001
0000
,
0001
0100
0010
1000
0100
0010
0001
0000
,
1000
0100
0010
0000
0100
0000
1000
0110
,
0000
0000
0000
0000
0000
0000
0000
1000
0001
0000
0100
0000
0010
0000
1000
0000
,
MMM1
0MMM
1000
0000
0010
0100
0110
0110
,
0000
0000
0000
0000
0100
0010
0100
1001
,
0000
0000
0001
0100
0010
0100
0001
0100
,
1010
0000
0011
0000
1010
0000
0000
0000
0001
1000
0001
0100
0000
0000
0100
0001
,
0100
0000
01M0
1000
0100
0000
01M0
0001
0100
0000
01M0
1000
0000
0000
0100
0010
,
0100
0010
0100
0000
01M0
0001
0010
0000
1010
0000
1000
0010
0000
0010
0100
0010
,
0000
0000
0101
0000
0100
0001
0000
0000
0000
0000
1100
0000
1000
0100
0000
0000
,
0011
0000
1100
0000
1010
0000
0010
1000
0010
0000
0M10
0001
0000
0000
0001
0010
,
0100
1000
0100
0000
0101
0000
1100
0000
0101
0000
0001
0100
0000
0000
0001
1000
,
0100
0000
01M0
0001
0100
0001
0100
0000
1100
0000
01M0
0001
0000
0100
0010
0100
,
0000
0000
0101
0000
0001
0100
0000
0000
0000
0000
1100
0000
1000
0100
0000
0000
,
0000
0000
0000
0000
0000
0000
0000
0000
0000
0000
0000
0000
1000
0100
1000
0000
,
1001
0000
0000
1000
0000
0000
0020
0000
0000
0130
0000
0010
0100
0000
0001
0100
0000
0010
0100
0000
0001
0100
0000
0010
,
0200
0000
0300
0010
0000
0000
2000
0000
0000
3100
0000
0010
0100
0000
1000
0100
0000
0010
0100
0000
1000
0100
0000
0010
,
0200
0000
0300
0100
0000
0000
1000
0000
0001
1000
0000
0010
1000
0000
0001
1000
0000
0010
1000
0000
0000
1001
0000
0000
,
2020
0000
0000
0000
0000
0000
0000
0000
3030
0000
0000
0000
0000
0000
0000
0000
2000
0000
0000
0000
3100
0000
0010
0000
0002
0000
0000
0000
0000
0000
0003
0000
0000
0000
0000
0000
0001
0000
0000
0100
0000
0000
0001
0000
0000
0000
0000
0000
,
1001
0000
0000
0001
0000
0000
1000
0000
0000
0100
0000
0010
1000
0000
0010
0001
0000
0010
1000
0000
0010
0001
0000
0010
,
2000
0000
0000
3010
0000
0000
0001
0000
0000
0100
0000
1000
0100
0000
0001
0100
0000
1000
0100
0000
0001
0100
0000
1000
,
0200
0000
0300
0001
0000
0000
1000
0000
0010
0001
0000
0010
1000
0000
0010
0001
0000
0010
1000
0000
0000
1001
0000
0000
,
2200
0000
0000
0000
0000
0000
0000
0000
3300
0000
0000
0000
0000
0000
0000
0000
2000
0000
0000
0000
3010
0000
0100
0000
0002
0000
0000
0000
0000
0000
0003
0000
0000
0000
0000
0000
0001
0000
0000
0010
0000
0000
0001
0000
0000
0000
0000
0000
,
2002
3003
0000
0000
;
