#TITLE:Overpass Graffiti;
#SUBTITLE:;
#ARTIST:Ed Sheeran;
#TITLETRANSLIT:;
#SUBTITLETRANSLIT:;
#ARTISTTRANSLIT:;
#GENRE:Pop;
#CREDIT:Vndt;
#MUSIC:OverpassGraffiti_audio.ogg;
#BANNER:OverpassGraffiti_bn.png;
#BACKGROUND:OverpassGraffiti_bg.png;
#CDTITLE:Equals;
#SAMPLESTART:70.880;
#SAMPLELENGTH:16.364;
#SELECTABLE:YES;
#OFFSET:0.000;
#BPMS:0.000=176.001
,10.000=175.989
,11.000=176.001
,21.000=175.989
,22.000=176.001
,32.000=175.989
,33.000=176.001
,46.000=192.366
,47.000=176.001
,62.000=175.989
,63.000=176.001
,73.000=175.989
,74.000=176.001
,81.000=175.989
,82.000=176.001
,89.000=175.989
,90.000=176.001
,97.000=175.989
,98.000=176.001
,105.000=175.989
,106.000=176.001
,113.000=175.989
,114.000=176.001
,121.000=175.989
,122.000=176.001
,129.000=175.989
,130.000=176.001
,137.000=175.989
,138.000=176.001
;
#STOPS:;
#DISPLAYBPM:176.000;
#BGCHANGES:0.000=OverpassGraffiti_video.mov=1.000=1=0=0=StretchNoLoop==CrossFade==,
99999.000=-nosongbg-=1.000=0=0=0=StretchNoLoop====
;
#FGCHANGES:;

//--------------- dance-single - ----------------
#NOTES:
     dance-single:
     :
     Beginner:
     3:
     0,0,0,0,0:
0000
0000
0000
0000
,
0000
0000
0000
0000
,
0000
0000
0000
0000
,
0000
0000
0000
0000
,
1000
0000
0000
1000
0000
0000
0000
0000
,
1000
0000
0000
1000
0000
0000
0000
0000
,
0100
0000
0000
0100
0000
0000
0000
0000
,
0100
0000
0000
0100
0000
0000
0000
0000
,
0010
0000
0000
0010
0000
0000
0000
0000
,
0010
0000
0000
0010
0000
0000
0000
0000
,
0001
0000
0000
0001
0000
0000
0000
0000
,
0001
0000
0000
0001
0000
0000
0000
0000
,
1000
0000
0000
1000
0000
0000
0000
0000
,
1000
0000
1001
0000
,
0000
0000
0000
0001
,
0000
0010
0000
0001
,
0000
1000
0000
0000
,
0000
0000
0000
1000
,
0000
0100
0000
0000
,
0000
0000
0000
0000
,
1000
0000
0000
1000
0000
0000
0000
0000
,
0001
0000
1001
0000
,
0000
0000
0000
0000
,
1000
0000
0020
0000
,
0000
0030
0000
0000
,
0000
1001
1001
1001
,
0000
0000
0000
0000
,
1000
0000
0000
1000
0000
0000
0000
0000
,
0010
0000
0010
0000
,
0100
0000
0100
0000
,
0001
0000
0000
0000
0001
0000
0000
0010
,
0000
0000
0000
0010
0000
0000
0000
0110
,
0000
0000
0000
0000
,
0100
0000
0000
0100
0000
0000
0000
1001
,
0000
0000
0000
0000
,
0000
0000
0000
1000
0000
0000
0000
1000
,
0000
0000
0100
0000
,
0100
0000
0010
0000
,
0010
0000
0000
0000
0001
0000
0000
0010
,
0000
0000
0000
0010
0000
0000
0000
0110
,
0000
0000
0000
0000
,
0100
0000
0000
0100
0000
0000
0000
0000
,
1000
0000
0000
0000
,
0001
0000
0000
0001
0000
0000
0000
0000
,
1001
0000
1000
0000
,
1000
0000
0000
0020
0000
0000
0000
0000
,
0130
0000
0000
0010
0000
0000
0000
0000
,
1000
0000
0000
0001
0000
0000
0000
0000
,
1000
0000
0000
0100
,
0000
0000
0000
1000
0000
0000
0000
1000
,
0000
0000
0000
0100
0000
0000
0000
0010
,
0000
0000
0000
0001
0000
0000
0000
0000
,
1000
0000
0002
0000
,
0013
0000
0100
0000
,
0110
0000
0010
0000
,
0010
0000
0000
0010
0000
0000
0000
0000
,
0000
0001
0001
0000
,
0001
0000
0000
0010
0000
0000
0000
0000
,
1001
0000
0000
0000
0000
0000
0000
1001
,
0000
0000
0000
0000
2000
0000
0000
3200
,
0000
0000
0000
0000
0000
0000
0000
0300
,
0000
0000
0000
0000
,
1000
1000
1000
1000
,
2000
0000
0000
0000
0000
3001
0000
0000
,
0000
0000
0000
0000
,
0001
0000
1001
0000
,
0000
0000
0000
1000
,
0000
0010
0000
1000
,
0000
0001
0000
0000
,
0000
0000
0000
0000
0000
0000
0000
0001
,
0000
0100
0000
0000
,
0000
0000
0000
0000
,
0001
0000
0000
0001
0000
0000
0000
0000
,
1000
0000
1001
0000
,
0000
0000
0000
0000
,
0001
0000
0000
0020
,
0000
0031
0000
0000
,
0000
0000
1000
1000
,
0000
0010
0000
0000
,
0100
0000
0000
0100
0000
0000
0000
0000
,
0010
0000
0010
0000
,
0100
0000
0000
0000
,
0001
0000
0000
0000
0001
0000
0000
0010
,
0000
0000
0000
0010
0000
0000
0000
0110
,
0000
0000
0000
0000
,
0100
0000
0000
0100
0000
0000
0000
1001
,
0000
0000
0000
0000
,
0000
0000
0000
0001
0000
0000
0000
0001
,
0000
0000
0100
0000
,
0100
0000
0010
0000
,
0010
0000
0000
0000
1000
0000
0000
0010
,
0000
0000
0000
0010
0000
0000
0000
0110
,
0000
0000
0000
0000
,
0100
0000
0000
0100
0000
0000
0000
0000
,
0001
0000
0000
0000
,
1000
0000
0000
1000
0000
0000
0000
0000
,
1001
0000
0001
0000
,
0001
0000
0000
0020
0000
0000
0000
0000
,
0130
0000
0000
0010
0000
0000
0000
0000
,
0001
0000
0000
1000
0000
0000
0000
0000
,
0001
0000
0000
0100
,
0000
0000
0000
0001
0000
0000
0000
0001
,
0000
0000
0000
0100
0000
0000
0000
0010
,
0000
0000
0000
1000
0000
0000
0000
0000
,
0001
0000
2000
0000
,
3010
0000
0100
0000
,
0110
0000
0010
0000
,
0010
0000
0000
0010
0000
0000
0000
0000
,
0000
1000
1000
0000
,
1000
0000
0000
0010
0000
0000
0000
0000
,
1001
0000
0000
0000
0000
0000
0000
1001
,
0000
0000
0000
0000
0002
0000
0000
0203
,
0000
0000
0000
0000
0000
0000
0000
0300
,
0000
0000
0000
0000
,
0001
0001
0001
0001
,
0001
0000
0000
0000
0000
1001
0000
0000
,
2000
0000
0000
0000
,
3010
0000
0000
0010
0000
0000
0000
0000
,
0100
0000
0000
0000
,
0001
0000
0000
0001
0000
0000
0000
0000
,
0020
0000
0000
0030
,
0010
0000
0000
0010
0000
0000
0000
0001
,
0000
0000
0000
0100
0000
0000
0000
0010
,
0000
0000
0000
2000
0000
0000
0000
0000
,
0000
0000
0000
0000
,
0000
3000
0000
0000
;

//--------------- dance-single - ----------------
#NOTES:
     dance-single:
     :
     Easy:
     6:
     0,0,0,0,0:
0000
0000
0000
0000
,
0000
0000
0000
0000
,
0000
0000
0000
0000
,
0000
0000
0000
0000
,
1000
0000
0000
1000
0000
1000
0000
0000
,
1000
0000
0000
1000
0000
1000
0000
0000
,
0100
0000
0000
0100
0000
0100
0000
0000
,
0100
0000
0000
0100
0000
0100
0000
0000
,
0010
0000
0000
0010
0000
0010
0000
0000
,
0010
0000
0000
0010
0000
0010
0000
0000
,
0001
0000
0000
0001
0000
0001
0000
0000
,
0001
0000
0000
0001
0000
0001
0000
0000
,
1000
0000
0000
1000
0000
1000
0000
0000
,
1000
0001
1001
0000
,
0001
0000
0000
0001
0000
0001
0000
0000
,
0010
0000
0010
0000
0000
0000
0001
0020
,
0000
0000
0031
0000
0000
0001
0000
0000
,
0001
0000
0000
0001
0000
0000
1000
0002
,
0000
0103
0000
0000
,
0100
0000
0000
0100
0000
0100
0000
0000
,
0001
0000
0000
0001
0000
0001
0000
0000
,
0001
1000
1001
0000
,
1000
0000
0000
1000
0000
1000
0000
0000
,
0010
0000
0010
0000
0010
0000
1000
0020
,
0000
0000
1030
0000
0000
1000
0000
0000
,
0000
1001
1001
1001
,
0000
1000
0000
0000
,
0100
0000
0000
0100
0000
0100
0000
0000
,
0010
0000
0010
0000
,
0001
0000
0001
0000
,
0100
0000
0000
0000
0100
0000
0000
0010
,
0000
0010
0000
0010
0000
0000
0000
0110
,
0000
0000
0000
0000
,
0100
0000
0000
0100
0000
0000
0000
1001
,
0000
0000
0000
0000
,
1000
0000
0000
0100
0000
0100
0000
1100
,
0000
0000
1000
0000
,
1000
0000
0010
0000
,
0010
0000
0000
0000
0100
0000
0000
0010
,
0000
0010
0000
0010
0000
0000
0000
0110
,
0000
0000
0000
0000
,
0100
0000
0000
0100
0000
0100
0000
0000
,
0001
0000
0000
0001
0000
0001
0000
0100
,
0001
0000
0000
0101
0000
0000
0000
0000
,
1001
0000
0000
0000
1000
0001
0000
0000
,
1000
0000
0000
0020
0000
0000
0000
0000
,
0130
0000
0000
0010
0000
1000
0000
0000
,
0001
0000
0000
0001
0000
0000
0000
0000
,
1000
0000
0000
0100
,
0100
0000
0000
1000
0000
0000
1000
0200
,
0000
0300
0100
0020
0000
0030
0010
0002
,
0000
0003
0001
1000
0000
0000
0000
0000
,
1000
0000
0000
0000
0001
2000
0000
0000
,
3010
0000
1000
0000
,
0110
0000
0010
0000
,
0010
0000
0000
0010
0000
0000
0000
0000
,
1000
0001
0001
0001
,
0001
0000
0000
0010
0000
0000
0001
0000
,
0001
0000
0100
0000
0100
0000
0000
1001
,
0000
0000
0000
0000
1000
0200
0000
2300
,
0000
0000
0000
3000
,
0010
0000
0000
0010
0000
0010
0000
0000
,
1000
1000
1000
1000
,
1000
0000
0000
0001
0000
1001
0000
0000
,
1000
0000
0000
1000
0000
1000
0000
0000
,
0001
1000
1001
0000
,
1000
0000
0000
1000
0000
1000
0000
0000
,
0010
0000
0010
0000
0000
0000
1000
0020
,
0000
0000
1030
0000
0000
1000
0000
0000
,
0000
0000
0000
0000
0100
0000
0000
0020
,
0000
0130
0000
0000
,
0100
0000
0000
0100
0000
0100
0000
0000
,
1000
0000
0000
1000
0000
1000
0000
0000
,
1000
0001
1001
0000
,
0001
0000
0000
0001
0000
0001
0000
0000
,
0010
0000
0002
0000
0000
0003
0001
0020
,
0000
0000
0031
0000
0000
0001
0000
0000
,
0001
0000
0000
0001
0000
0000
0010
0002
,
0000
1003
0000
0000
,
0001
0000
0000
0001
0000
0001
0000
0000
,
0010
0000
0010
0000
,
0001
0000
0000
1000
0000
0000
0000
0000
,
0010
0000
0000
0000
0010
0000
0000
0100
,
0000
0100
0000
0100
0000
0000
0000
0110
,
0000
0000
0000
0000
,
0100
0000
0000
0100
0000
0000
0000
1001
,
0000
0000
0000
0000
,
0001
0000
0000
0100
0000
0100
0000
0101
,
0000
0000
0001
0000
,
0001
0000
0100
0000
,
0100
0000
0010
0000
,
1000
0000
0000
1000
0000
0000
0000
1010
,
0000
0000
0000
0000
,
0010
0000
0000
0010
0000
0010
0000
0000
,
1000
0000
0000
1000
0000
1000
0000
0100
,
1000
0000
0000
1100
0000
0000
1000
0000
,
1001
0000
0000
0000
0001
1000
0000
0000
,
0001
0000
0000
0020
0000
0000
0000
0000
,
0130
0000
0000
0010
0000
0001
0000
0000
,
1000
0000
0000
1000
0000
0000
0000
0000
,
0001
0000
0000
0100
,
0100
0000
0000
0001
0000
0000
0001
0200
,
0000
0300
0100
0020
0000
0030
0010
2000
,
0000
3000
1000
0001
0000
0000
0000
0000
,
0001
0000
0000
0000
1000
0002
0000
0000
,
0013
0000
0001
0000
,
0110
0000
0010
0000
,
0010
0000
0000
0010
0000
0000
0000
0000
,
0001
1000
1000
1000
,
1000
0000
0000
0010
0000
0000
1000
0000
,
1000
0000
0100
0000
0100
0000
0000
1001
,
0000
0000
0000
0000
0001
0200
0000
0302
,
0000
0000
0000
0003
,
0010
0000
0000
0010
0000
0010
0000
0000
,
0001
0001
0001
0001
,
0001
0000
0000
1000
0000
1001
0000
0000
,
2000
0000
0000
0000
,
3010
0000
0000
0010
0000
0000
0000
0000
,
0100
0000
0000
0000
,
0001
0000
0000
0001
0000
0000
0000
0000
,
0210
0000
0000
0000
0320
0000
0000
0030
,
0110
0000
0000
0110
0000
0000
0001
2000
,
0000
3000
1000
0020
0000
0030
0010
0200
,
0000
0300
0100
0002
0000
0000
0000
0000
,
0000
0000
0000
0000
,
0000
0003
0000
0000
;

//--------------- dance-single - ----------------
#NOTES:
     dance-single:
     :
     Medium:
     12:
     0,0,0,0,0:
0000
0000
0000
0000
,
0000
0000
0000
0000
,
0000
0000
0000
0000
,
0000
0000
0000
0000
,
1000
0000
0100
1000
0000
1000
0100
0000
,
1000
0000
0001
0100
0000
0100
0001
0000
,
0010
0000
0001
1000
0000
1000
0001
0000
,
1000
0000
0001
0010
0000
0010
0001
0000
,
0001
0000
0100
0001
0000
0001
0100
0000
,
0001
0000
1000
0100
0000
0100
1000
0000
,
0010
0000
1000
0001
0000
0001
1000
0000
,
0001
0000
1000
0010
0000
0100
0000
0100
,
0001
0000
0001
1000
0000
1000
0100
0000
,
1100
1001
0101
0000
,
0001
0000
0010
0001
0000
0001
0010
0001
,
0010
0000
0110
0000
0000
0000
1000
0020
,
0000
0000
1030
0010
0000
0010
1000
0000
,
0001
0000
0100
0010
0000
0010
0100
0020
,
0000
0000
0130
0010
0000
0010
0100
0000
,
0010
0000
1000
0010
0000
0100
0000
0100
,
0001
0000
0001
1000
0000
1000
0010
0000
,
1010
1001
0011
0000
,
0001
0000
0100
0001
0000
0001
0100
0001
,
0100
0000
0010
0000
1000
0000
1000
0200
,
0000
0000
1300
0100
0000
0100
1000
0000
,
0001
0000
0110
0000
0110
0000
2000
0001
,
0000
0000
3001
1000
0000
1000
0001
0000
,
0001
0000
1000
0100
0000
0010
0000
0010
,
0001
0000
0000
0100
0010
0000
0000
1000
,
0100
0020
0000
0001
0000
0000
0000
0002
,
MM00
0000
0033
1000
0001
0000
0000
1100
,
0000
0001
0000
0101
0000
0001
0100
0010
,
0000
0000
1000
0010
0000
0010
1000
0000
,
0100
0000
0010
0100
0000
0000
0010
0100
,
1000
0000
0001
0100
0000
0100
0001
0000
,
0010
0000
0001
0010
0000
0100
0000
1100
,
0000
0000
0000
0100
0010
0000
0000
0001
,
0100
0010
0000
0010
0000
0000
0000
0000
,
1010
0000
0000
0001
1000
0000
0000
0101
,
0000
1000
0000
1100
0000
1000
0100
0010
,
0000
0000
0001
0010
0000
0010
0001
0000
,
0100
0000
0010
0100
0000
0000
0000
0100
,
0001
0000
0000
0001
0000
0001
0000
0100
,
0010
0000
0000
1001
0000
0000
1000
0000
,
0101
0000
0000
0000
0100
0010
0000
0000
,
1000
0000
0000
0020
0000
0000
0000
0000
,
0130
0000
0000
0010
0000
1000
0000
0000
,
0001
0010
0000
0001
0000
1000
0000
1000
,
0001
0000
0001
0100
0000
0100
0001
0100
,
0001
0000
0000
1000
0000
0000
1000
0200
,
0000
0300
0100
0020
0000
0030
0010
0002
,
0000
0003
0001
1000
0000
0010
0000
0010
,
1000
0000
0000
0000
0010
2000
0000
0000
,
3001
0000
1000
0000
,
0110
0000
0000
0001
0010
0000
0000
0001
,
0010
0000
0010
0001
0000
0001
0000
0001
,
1000
0010
0100
0010
0200
0000
0310
1000
,
0010
1000
0000
0010
0000
0100
0001
0100
,
0001
0000
0100
0000
00M0
0000
0000
1001
,
0000
1000
0010
0100
0010
2000
0000
3200
,
0000
0000
1300
0001
0000
0001
1000
0000
,
0010
0000
1000
0010
0000
0010
1000
0000
,
0001
1000
0001
1000
0001
1000
0002
1003
,
0001
0000
0000
0011
0000
1010
0000
0010
,
1000
0000
1000
0001
0000
0001
0100
0000
,
0101
1001
1100
0000
,
1000
0000
0010
1000
0000
1000
0010
1000
,
0010
0000
0110
0000
0000
0000
0001
0020
,
0000
0000
0031
0010
0000
0010
0001
0000
,
1000
0000
0100
0000
0010
0100
0000
0020
,
0000
0000
0130
0010
0000
0010
0100
0000
,
0010
0000
0001
0010
0400
0000
0000
0300
,
1000
0000
1000
0001
0000
0001
0010
0001
,
0011
1001
1010
0000
,
1000
0000
0100
1000
0000
1000
0100
1000
,
0100
0000
0200
0000
0000
0000
1300
0200
,
0000
0000
0310
0001
0000
0001
0010
0000
,
0001
0000
0000
0001
1000
0100
0010
0002
,
0000
0003
1000
0001
0000
0001
1000
0000
,
0010
0000
0100
0010
0400
0000
0000
0300
,
0001
0000
0000
0001
0010
0000
0000
0001
,
0100
0010
0000
1000
0000
0000
0000
0000
,
1010
0000
0000
0001
1000
0000
0000
0101
,
0000
1000
0000
1100
0000
1000
0100
0010
,
0000
0001
0010
0000
0000
0001
0000
0100
,
0000
0000
0001
1000
0000
0100
0010
0100
,
0000
0000
1000
0000
0000
0100
0000
1000
,
0001
0000
0100
0010
0000
0100
0000
0101
,
0000
0000
0000
0100
0010
0000
0000
1000
,
0100
0000
0100
0010
0000
0000
0000
0010
,
0001
0000
0000
1000
0010
0000
0000
0010
,
0100
0000
0100
0001
0000
0001
0100
0010
,
0000
1000
0010
0000
0000
1000
0100
0010
,
0000
0001
0010
0001
0000
0100
0010
0100
,
0010
0000
0000
0010
0000
0010
0000
1000
,
0001
0000
0000
0110
0000
0000
1000
0000
,
1100
0000
0000
0000
0100
0010
0000
0000
,
0001
0000
0000
0020
0000
0000
0000
0000
,
0130
0000
0000
0010
0000
0001
0000
0000
,
1000
0010
0000
1000
0000
0001
0000
0001
,
1000
0000
1000
0100
0000
0100
1000
0100
,
1000
0000
0000
0001
0000
0000
0001
0200
,
0000
0300
0100
0020
0000
0030
0010
2000
,
0000
3000
1000
0001
0000
0010
0000
0010
,
0001
0000
0000
0000
0010
0002
0000
0000
,
1003
0000
0001
0000
,
0110
0000
0000
1000
0010
0000
0000
1000
,
0010
0000
0010
1000
0000
1000
0000
1000
,
0001
0010
0100
0010
0200
0000
0310
0001
,
0010
0001
0000
0010
0000
0100
1000
0100
,
1000
0000
0100
0000
00M0
0000
0000
1001
,
0000
0001
0010
0100
0010
0002
0000
0203
,
0000
0000
0301
1000
0000
1000
0001
0000
,
0010
0000
0001
0010
0000
0010
0001
0000
,
1000
0001
1000
0001
1000
0001
2000
3001
,
1000
0000
0000
1010
0000
0011
0000
0000
,
1000
0000
0010
0100
0000
0100
0010
0000
,
0110
0000
0000
0110
0000
0000
0000
0000
,
1001
0000
0001
1000
0000
1000
0001
0000
,
1001
0000
0000
1001
0000
0000
0000
0000
,
0210
0000
0000
0000
0320
0000
0000
0030
,
0110
0000
0000
0110
0000
0000
0001
2000
,
0000
3000
1000
0020
0000
0030
0010
0200
,
0000
0300
0100
0002
0000
0010
0000
0023
,
0000
0000
0000
0000
,
0030
0000
0000
0000
;

//--------------- dance-single - ----------------
#NOTES:
     dance-single:
     :
     Hard:
     13:
     0,0,0,0,0:
0000
0000
0000
0000
,
0000
0000
0000
0000
,
0000
0000
0000
0000
,
0000
0000
0000
0000
,
1000
0000
0100
1000
0000
1000
0100
0000
,
1000
0000
0001
0100
0000
0100
0001
0000
,
0010
0000
0001
1000
0000
1000
0001
0000
,
1000
0000
0001
0010
0000
0010
0001
0000
,
0001
0000
0100
0001
0000
0001
0100
0000
,
0001
0000
1000
0100
0000
0100
1000
0000
,
0010
0000
1000
0001
0000
0001
1000
0000
,
0001
0000
1000
0010
0000
0100
0000
0100
,
0001
0000
0001
1000
0000
1000
0100
1000
,
1100
1001
0101
0000
,
0001
0000
0010
0001
0000
0001
0010
0001
,
0010
0000
0110
0000
0000
0000
1000
0020
,
0000
0000
1030
0010
0000
0010
1000
0000
,
0001
0000
0100
0010
0000
0010
0100
0020
,
0000
0000
0130
0010
0000
0010
0100
0000
,
0010
0000
1000
0010
0000
0100
0000
0100
,
0001
0000
0001
1000
0000
1000
0010
1000
,
1010
1001
0011
0000
,
0001
0000
0100
0001
0000
0001
0100
0001
,
0100
0000
0010
0000
1000
0000
1000
0200
,
0000
0000
1300
0100
0000
0100
1000
0000
,
0001
0000
0110
0000
0110
0000
2000
0001
,
0000
0000
3001
1000
0000
1000
0001
0000
,
0001
0000
1000
0100
0000
0010
0000
0010
,
0001
0000
0000
0100
0010
0000
0000
1000
,
0100
0020
0000
0001
0000
0000
0000
0002
,
MM00
0000
0033
1000
0001
0000
0000
1100
,
0000
0001
0000
0101
0000
0001
0100
0010
,
0000
0000
1000
0010
0000
0010
1000
0000
,
0100
0000
0010
0100
0000
0100
0010
0100
,
1000
0000
0001
0100
0000
0100
0001
0000
,
0010
0000
0001
0010
0000
0100
0000
1100
,
0000
0000
0000
0100
0010
0000
0000
0001
,
0100
0010
0000
0010
0000
0000
0000
0000
,
1010
0000
0000
0001
1000
0000
0000
0101
,
0000
1000
0000
1100
0000
1000
0100
0010
,
0000
0000
0001
0010
0000
0010
0001
0000
,
0100
0000
0010
0100
0000
0100
0010
0100
,
0001
0000
0000
0001
0000
0001
0000
0100
,
0010
0000
0000
1001
0000
0000
1000
0000
,
0101
0000
0000
0000
0100
0010
0000
0000
,
1000
0000
0000
0020
0000
0000
0000
0000
,
0130
0000
0000
0010
0000
1000
0000
0000
,
0001
0010
0000
0001
0000
1000
0010
1000
,
0001
0000
0001
0100
0000
0100
0001
0100
,
0010
0000
0000
1000
0000
0000
1000
0200
,
0000
0300
0100
0020
0000
0030
0010
0002
,
0000
0003
0001
1000
0000
0010
0000
0010
,
1000
0000
0001
0100
0010
2000
0000
0000
,
3001
0000
1000
0000
,
0110
0000
0000
0001
0010
0000
0000
0001
,
0010
0000
0010
0110
0000
0001
0100
0001
,
1000
0010
0100
0010
0100
0000
0010
1000
,
0001
1000
0000
0010
0000
0100
0001
0100
,
0010
0000
0100
0000
00M0
0000
0000
1001
,
0000
1000
0010
0100
0010
2000
0000
3200
,
0000
0000
1300
0001
0000
0001
1000
0000
,
0010
0000
1000
0010
0000
0010
1000
0000
,
0001
1000
0001
1000
0001
1000
0002
1003
,
1001
0000
0000
0011
0000
1010
0000
0010
,
1000
0000
1000
0001
0000
0001
0100
0001
,
0101
1001
1100
0000
,
1000
0000
0010
1000
0000
1000
0010
1000
,
0010
0000
0110
0000
0000
0000
0001
0020
,
0000
0000
0031
0010
0000
0010
0001
0000
,
1000
0000
0100
0000
0010
0100
0000
0020
,
0000
0000
0130
0010
0000
0010
0100
0000
,
0010
0000
0001
0010
0100
0100
0100
0100
,
1000
0000
1000
0001
0000
0001
0010
0001
,
0011
1001
1010
0000
,
1000
0000
0100
1000
0000
1000
0100
1000
,
0100
0000
0200
0000
0000
0000
1300
0200
,
0000
0000
0310
0001
0010
0001
0010
0001
,
0010
0001
0010
0001
1000
0100
0010
0002
,
0000
0003
1000
0001
0100
0001
0100
0001
,
1000
0001
0100
0010
0100
0100
0100
0100
,
0001
0000
0000
0001
0010
0000
0000
0001
,
0100
0010
0000
1000
0000
0000
0000
1000
,
1010
0000
0000
0001
1000
0000
0000
0101
,
0000
1000
0000
1100
0000
1000
0100
0010
,
0000
0001
0010
0000
0000
0001
0000
010M
,
0000
0000
0M01
1000
0000
M100
0010
0100
,
0002
0000
1000
0000
0000
0100
0000
1003
,
0001
0000
0100
0010
0000
0100
0000
0101
,
0000
0000
0000
0100
0010
0000
0000
1000
,
0100
0000
0100
0010
0000
0000
0000
0010
,
0001
0000
0000
1000
0010
0000
0000
0010
,
0100
0000
0100
0001
0000
0001
0100
0010
,
0000
1000
0010
0000
0000
1000
0100
0010
,
0000
0001
1000
0001
0000
010M
0010
0100
,
1100
0000
0000
0001
0000
0100
0000
0001
,
1000
0000
0000
0110
0000
0000
1000
0000
,
1100
0000
0000
0000
0100
0010
0000
0000
,
0001
0000
0000
0020
0000
0000
0000
0000
,
0130
0000
0000
0010
0000
0001
0000
0000
,
1000
0010
0000
1000
0000
0001
0010
0001
,
1000
0000
1000
0100
0000
0100
1000
0100
,
0010
0000
0000
0001
0000
0000
0001
0200
,
0000
0300
0100
2000
0000
3000
1000
0020
,
0000
0030
0010
0001
0000
0010
0000
0010
,
0001
0000
1000
0100
0010
0002
0000
0000
,
1003
0000
0001
0000
,
0110
0000
0000
1000
0010
0000
0000
1000
,
0010
0000
0010
0110
0000
1000
0100
1000
,
0001
0010
0100
0010
0100
0000
0010
0001
,
1000
0001
0000
0010
0000
0100
1000
0100
,
0010
0000
0100
0000
00M0
0000
0000
1001
,
0000
0001
0010
0100
0010
0002
0000
0203
,
0000
0000
0301
1000
0000
1000
0001
0000
,
0010
0000
0001
0010
0000
0010
0001
0000
,
1000
0001
1000
0001
1000
0001
2000
3001
,
1001
0000
0000
1010
0000
0011
0000
0010
,
0001
0010
0001
0010
0001
0010
0001
0010
,
0001
1000
0001
1000
0001
1000
0001
1000
,
0010
0100
0010
0100
0010
0100
0010
0100
,
0001
1000
0001
1000
0001
1000
0001
1000
,
0100
0010
0100
0010
0100
0010
0100
0010
,
0001
0010
0001
0010
0001
0010
0001
0200
,
0000
0300
0100
2000
0000
3000
1000
0020
,
0000
0030
0010
0002
0000
0010
0000
0023
,
0000
0000
0000
0000
,
0030
0000
0000
0000
;
