#TITLE:Not Like Us;
#SUBTITLE:not in A minor;
#ARTIST:Kendrick Lamar, Mustard;
#TITLETRANSLIT:;
#SUBTITLETRANSLIT:;
#ARTISTTRANSLIT:;
#GENRE:West Coast hip hop;
#CREDIT:Vndt;
#MUSIC:NotLikeUs_audio.ogg;
#BANNER:NotLikeUs_jk.png;
#BACKGROUND:NotLikeUs_jk.png;
#CDTITLE:;
#SAMPLESTART:57.030;
#SAMPLELENGTH:16.638;
#SELECTABLE:YES;
#OFFSET:0.000;
#BPMS:0.000=101.000
,4.000=12.625
,5.000=101.000
,37.000=12.625
,38.000=101.000
,84.958=-101.000
,88.958=101.000
,93.000=202.000
,97.000=50.500
,98.000=202.000
,100.000=50.500
,101.000=101.000
,108.000=11.222
,109.000=101.000
,111.000=202.000
,112.000=101.000
,113.000=202.000
,114.000=101.000
,115.000=202.000
,116.000=101.000
,119.000=202.000
,120.000=101.000
,121.000=202.000
,122.000=101.000
,123.000=202.000
,124.000=101.000
,150.000=100.996
,151.000=101.000
,174.958=-101.000
,178.958=101.000
,197.000=12.625
,198.000=101.000
,200.000=202.000
,201.000=101.000
,202.000=202.000
,203.000=101.000
,204.000=202.000
,205.000=101.000
,208.000=202.000
,208.958=-202.000
,212.958=202.000
,217.000=101.000
,218.000=202.000
,218.958=-202.000
,222.958=202.000
,227.000=101.000
,228.000=202.000
,228.958=-202.000
,232.958=202.000
,237.000=101.000
,261.958=-101.000
,265.958=101.000
,278.250=12.625
,279.250=101.000
,281.000=202.000
,281.958=-202.000
,285.958=202.000
,290.000=101.000
,291.000=202.000
,291.958=-202.000
,295.958=202.000
,300.000=101.000
,301.000=202.000
,301.958=-202.000
,305.958=202.000
,310.000=101.000
,313.000=202.000
,313.958=-202.000
,317.958=202.000
,322.000=101.000
,323.000=202.000
,323.958=-202.000
,327.958=202.000
,332.000=101.000
,333.000=202.000
,333.958=-202.000
,337.958=202.000
,342.000=101.000
;
#STOPS:95.000=0.149
,95.500=0.149
,96.000=0.149
,96.500=0.149
,98.000=0.149
,98.500=0.149
,99.000=0.149
,99.500=0.149
,111.000=0.099
,111.333=0.099
,111.667=0.099
,113.000=0.099
,113.333=0.099
,113.667=0.099
,115.000=0.099
,115.333=0.099
,115.667=0.099
,119.000=0.099
,119.333=0.099
,119.667=0.099
,121.000=0.099
,121.333=0.099
,121.667=0.099
,123.000=0.099
,123.333=0.099
,123.667=0.099
,200.000=0.099
,200.333=0.099
,200.667=0.099
,202.000=0.099
,202.333=0.099
,202.667=0.099
,204.000=0.099
,204.333=0.099
,204.667=0.099
,208.000=0.099
,208.333=0.099
,208.667=0.099
,218.000=0.099
,218.333=0.099
,218.667=0.099
,228.000=0.099
,228.333=0.099
,228.667=0.099
,281.000=0.099
,281.333=0.099
,281.667=0.099
,291.000=0.099
,291.333=0.099
,291.667=0.099
,301.000=0.099
,301.333=0.099
,301.667=0.099
,313.000=0.099
,313.333=0.099
,313.667=0.099
,323.000=0.099
,323.333=0.099
,323.667=0.099
,333.000=0.099
,333.333=0.099
,333.667=0.099
;
#DISPLAYBPM:101.000;
#BGCHANGES:;
#FGCHANGES:;

//--------------- dance-single - ----------------
#NOTES:
     dance-single:
     :
     Beginner:
     15:
     0,0,0,0,0:
0000
0000
0000
0000
,
0000
0000
0000
0001
,
0000
1000
1000
1000
,
1000
0000
0000
0001
,
0001
0001
0000
0000
,
1001
0010
0000
1000
,
0000
0001
0000
0010
,
0000
0001
0000
1000
,
0000
0010
0000
1000
,
0000
0000
0000
0000
,
1001
0000
0001
0000
,
0001
0000
0010
0000
,
0010
0000
0001
0000
,
0001
0000
0000
0000
0000
0000
0000
0000
0M00
0M00
0000
0000
0000
0000
0000
0000
,
1000
0M00
0000
0001
,
1000
0M00
0000
0001
,
1000
0001
0000
0000
,
0000
1000
0000
0100
,
0100
0100
0000
0010
,
0010
0010
0000
0001
,
0001
0001
1000
1000
,
1000
0010
4000
0000
,
3000
0000
0000
0000
,
0000
00M0
0000
4000
,
0000
3000
0004
0000
,
0003
0000
1000
0000
,
1000
0000
0010
0000
,
0020
0M3M
0000
0001
,
1000
0001
1000
0001
,
1000
0000
0000
0010
,
1000
0010
1000
0010
,
1000
0000
0001
0000
,
1000
1000
0001
0000
,
1000
1000
0001
0000
,
0100
0100
0001
0000
,
0010
0010
0000
0001
,
0000
0100
0000
0010
,
0000
0000
2000
0000
0200
3300
0000
0000
,
1000
0000
0001
1002
,
0000
0013
0000
0001
,
0000
0100
0000
0010
,
0000
1000
0000
0100
,
0000
0010
0000
0001
,
0000
1001
0000
M111
,
0000
0001
0000
1000
,
0000
0000
0000
1000
,
0000
0001
0000
1000
,
0000
0001
0000
0010
,
0000
0001
1000
0000
,
0002
0000
0000
0000
0000
0000
0000
0000
0000
0000
0000
0000
2000
0MM0
0000
0000
0000
0000
0000
0000
0000
0000
0000
0000
3003
0000
0000
0000
0000
0000
0000
0000
0000
0000
0000
0000
0000
0000
0000
0000
0000
0000
0000
0000
0000
0000
0000
0000
,
0001
1000
0001
1000
,
0001
1000
0000
0000
,
0001
1MM0
0001
1MM0
,
0001
0000
0000
0000
,
0000
1000
0001
1MM0
,
0001
1MM0
0000
0000
,
0000
0000
0000
1000
,
0001
1MM0
0000
0000
,
0000
0000
0000
0000
,
0000
1000
0000
0000
,
0001
0000
0000
0010
0020
0030
0000
0000
,
0001
0000
0000
0010
0020
0030
0000
0000
,
0001
0000
0000
0010
0020
0030
0000
0000
,
0001
0000
0000
0010
0020
0030
0000
0000
,
1000
0000
0000
0010
0020
0030
0000
0000
,
1000
0000
0000
0010
11M1
0000
0000
0000
,
1000
0000
0000
0010
0000
0000
0000
0000
,
0000
0000
0000
0000
0020
0030
0000
0000
,
1000
0000
0000
0010
0020
0030
0000
0000
,
0000
0000
0000
0000
2000
0000
0000
0000
0002
0000
0000
0000
0000
3003
0000
0000
,
0000
0001
M111
0001
,
M111
0001
0000
0000
,
0000
0000
1000
0001
,
M111
0001
M111
0000
,
0000
0000
0000
0000
,
1000
0001
M111
0000
,
0000
0000
0000
0000
,
0000
0000
1000
0000
,
0000
0001
M111
0001
,
M111
0001
0000
0000
,
0000
0000
1000
0001
,
M111
0001
M111
0000
,
0000
0000
0000
0000
,
1000
0001
M111
0000
,
0000
0000
0000
0000
,
0000
0000
1000
0000
,
0000
0000
1000
0000
,
1000
0000
1000
0000
,
0001
0001
0001
0000
,
0001
0001
0001
0000
,
0000
0000
1000
1000
1000
0000
0000
0000
,
0000
0000
1000
1000
1000
0000
0000
0000
,
0000
0010
0010
0000
,
0000
0010
0010
0000
,
0000
0001
0001
0000
,
0000
1000
1000
2000
,
0010
0000
0002
3000
0010
0000
2000
0003
,
0010
0000
0002
3000
0010
0000
1003
0000
,
1000
0000
0000
0001
,
0001
0000
0000
0002
,
0010
0000
2000
0003
0010
0000
0002
3000
,
0010
0000
2000
0003
0010
0000
3001
0000
;

//--------------- dance-single - ----------------
#NOTES:
     dance-single:
     :
     Easy:
     15:
     0,0,0,0,0:
0000
0000
0000
0000
,
0000
0000
0000
0001
,
0001
1000
1000
1010
,
0010
0010
0000
0000
1000
0000
1000
0000
,
0001
0001
1000
0000
0100
0000
0010
0000
,
0011
0010
0001
0100
,
0010
0000
1000
0010
,
0100
0010
1000
0100
,
0010
0000
0001
0001
,
1000
0000
0000
0010
,
0010
0010
0000
1000
0000
0000
0100
0000
0000
0100
0000
0000
,
0010
0010
0000
0000
0100
0100
0000
0000
,
1000
1001
1000
0010
,
0000
0000
0000
0000
1000
0000
0000
0000
0M00
000M
0000
0000
0000
0000
0000
0000
,
0100
0100
0M00
0000
0000
0000
0001
0000
,
0100
0100
0M00
0000
0000
0000
0001
0000
,
1000
1001
0000
0000
,
0000
0001
0000
0100
,
0100
0000
0100
0100
0000
0000
0010
0000
,
0010
0000
0010
0010
0000
0000
1000
0000
,
1000
0000
1000
1000
1001
0000
0010
0000
,
1001
0000
0010
0000
1000
1000
1000
1000
,
1000
0000
0000
0000
,
0000
0000
00M0
0000
0000
0000
1000
1000
,
1000
1000
1000
0000
0001
0001
0001
0001
,
0001
0000
0001
0011
,
0010
0000
0001
0001
0001
0000
1000
0000
,
0020
0000
0000
0M3M
0000
0000
0000
0000
0000
0001
0001
0001
,
1MM0
0000
0000
0001
0001
0001
1MM0
0000
0000
0001
0001
0001
,
1MM0
0000
0000
0000
0000
0000
0000
0000
0000
0010
0010
0010
,
1M0M
0000
0000
0010
0010
0010
1M0M
0000
0000
0010
0010
0010
,
1M0M
0000
0001
0100
,
0010
1001
0001
0010
,
0110
1000
0001
0100
,
0010
0000
0100
0100
0100
0100
0100
0000
,
0001
0100
0010
1000
,
0100
0000
0110
0000
0200
0300
1000
0000
,
0010
0000
2000
0000
0200
3300
1000
0000
,
0010
0000
0100
0100
0100
0100
0100
0000
,
0010
0010
0100
0001
,
0001
0100
0001
0010
,
0010
0001
1000
0010
,
0010
1000
0001
0011
,
0101
1000
0001
11M1
,
0001
0001
0001
0000
1000
0000
0010
0000
,
0000
0000
0000
0010
,
0001
0001
0001
0000
1000
0000
0010
0000
,
0100
0100
M10M
0000
0001
0000
0010
0000
,
0001
0001
1000
0010
,
1000
0000
0000
0000
0000
0000
0000
0000
0000
0000
0000
0000
2002
0MM0
0000
0000
0000
0000
0000
0000
0000
0000
0000
0000
3003
0000
0000
0000
0000
0000
0000
0000
0000
0000
0000
0000
0000
0000
0000
0000
0000
0000
0000
0000
0000
0000
0000
0000
,
0001
0100
0010
1M0M
0000
0000
0001
0100
0010
1M0M
0000
0000
,
0001
0100
0010
1M0M
0000
0000
0000
0000
0000
0000
0000
0000
,
0001
0100
0010
1MMM
0000
0000
0001
0100
0010
1MMM
0000
0000
,
0001
0100
0010
0000
0000
0000
0000
0000
0000
0000
0000
0000
,
0000
0000
0000
1000
0000
0000
0001
0100
0010
1MMM
0000
0000
,
0001
0100
0010
1MMM
0000
0000
0000
0000
0000
0000
0000
0000
,
0000
0000
0000
1000
,
0001
0100
0010
1MMM
0000
0000
0000
0000
0000
0000
0000
0000
,
0000
0000
0000
0000
,
0000
1000
0000
0000
,
0100
0000
1000
0001
2000
0000
3000
0000
,
0010
0000
1000
0001
2000
0000
3000
1001
,
1000
0000
0000
0001
0001
0000
0011
0000
,
0010
0000
0001
0001
0002
0000
0003
0000
,
0100
0000
0010
0010
0020
0000
1030
1001
,
0001
0010
111M
1000
,
0001
1000
0000
0000
,
0000
0000
0001
1000
,
0001
1000
0110
0010
,
0100
0000
0000
0000
0110
0000
0000
0000
2002
0000
0000
0000
0000
3003
0000
0000
,
0000
0000
0000
0001
0100
0010
M111
0000
0000
0001
0100
0010
,
M111
0000
0000
0001
0100
0010
0000
0000
0000
0000
0000
0000
,
0000
0000
0000
0000
0000
0000
1000
0000
0000
0001
0100
0010
,
M111
0000
0000
0001
0100
0010
M111
0000
0000
0000
0000
0000
,
0000
0000
0000
0000
,
1000
0000
0000
0001
0100
0010
M111
0000
0000
0000
0000
0000
,
0000
0000
0000
0000
,
0000
0000
1000
0000
,
0000
0000
0000
0001
0010
0100
M111
0000
0000
0001
0010
0100
,
M111
0000
0000
0001
0010
0100
0000
0000
0000
0000
0000
0000
,
0000
0000
0000
0000
0000
0000
1000
0000
0000
0001
0010
0100
,
M111
0000
0000
0001
0010
0100
M111
0000
0000
0000
0000
0000
,
0000
0000
0000
0000
,
1000
0000
0000
0001
0010
0100
M111
0000
0000
0000
0000
0000
,
0000
0000
0000
0000
,
0000
0000
1000
0000
,
0000
0000
0000
0000
0000
1000
0000
0000
,
0000
0000
0000
0002
0000
0023
0030
0000
,
0010
0000
0010
0000
0010
0001
0000
0000
,
0100
0100
0000
0001
,
1000
0000
0001
0001
0001
0000
1000
0000
,
0001
0000
1000
1000
1000
0000
0010
0010
,
0010
0010
0000
0000
0000
0000
0100
0100
,
0100
0100
0000
0000
0000
0000
0000
0000
,
0000
0101
0101
0000
,
0000
1100
1100
2000
,
0010
0000
0002
3000
0010
0000
2000
0003
,
0010
0000
0002
3000
0010
0000
1003
0000
,
0001
0000
0000
1000
,
0001
0000
0000
0002
,
0010
0000
2000
0003
0010
0000
0002
3000
,
0010
0000
2000
0003
0010
3000
1010
0000
;

//--------------- dance-single - ----------------
#NOTES:
     dance-single:
     :
     Medium:
     12:
     0,0,0,0,0:
0000
0000
0000
0000
,
00M0
00M0
00M0
00M0
00M0
0M00
000M
0000
0M00
0000
0000
000M
M000
M000
00M0
0M00
1010
0000
0000
0000
0000
0000
0000
0000
1000
0000
0000
0000
0000
0000
0000
0000
0011
0000
0000
0000
0000
0000
0000
0000
0010
0000
0000
0000
0000
0000
0000
0000
0001
0000
0000
0000
0000
0000
0000
0000
0010
0000
0000
0000
0000
0000
0000
0000
,
0001
1010
1000
0011
1000
0011
0M10
1010
,
0M10
0011
0001
0100
0001
1010
0M10
0011
,
0M10
1010
1000
0010
1000
0001
2001
300M
,
0101
0100
0010
0001
0100
0010
0100
0001
,
0010
0000
0010
0000
0010
0000
0000
0000
0000
0001
0000
0000
0001
0000
0000
1000
0000
0000
0010
0000
0000
0100
0000
0000
,
0001
0010
0001
1000
0001
0010
0100
1000
,
0010
0000
0010
0000
0010
0000
0000
0000
0000
1000
0000
0000
1000
0000
0000
0001
0000
0000
1000
0000
0000
0001
0000
0000
,
0000
0100
0000
0010
0000
0000
0000
0000
0000
0000
0000
0000
0010
0000
1000
0000
,
1010
0000
1010
0000
0000
0000
1000
0000
0000
0100
0000
0000
0010
0000
0000
0001
0000
0000
0010
0000
0000
0001
0000
0000
,
0100
0000
0000
0010
0000
0000
0100
0000
0000
0001
0000
0000
0010
0000
0000
0100
0000
0000
0110
0000
0110
0000
0000
0000
,
1000
0000
0000
0000
0000
0000
0010
0000
0000
0000
0000
0000
1000
0000
0000
0000
0000
0000
0010
0000
0000
0000
0000
0000
1000
0000
0000
0001
0000
0000
1000
0000
0000
0000
0000
0000
0010
0000
0000
0000
0010
0000
0000
0000
0010
0000
0000
0000
,
0000
0000
1000
0000
1000
0000
1000
0000
00M0
000M
0000
0000
0000
0000
0000
0000
,
0100
0100
MMMM
0000
0000
1000
0001
0100
,
0101
1100
000M
0000
0000
0100
1000
0100
,
1000
0001
0001
0000
0000
0100
0001
0100
,
0000
0000
0010
0000
0000
0000
0100
0010
,
0100
0010
0100
0100
0000
0010
1000
0010
,
1000
0100
0010
0010
0000
0001
0010
0001
,
1001
0000
0000
0001
0000
0000
0100
0000
0000
0010
0000
0000
0110
0000
0110
0000
0000
0000
1000
0000
0000
0000
0000
0000
,
0110
0000
0110
0000
0000
0000
0001
0100
0010
0000
0000
0000
0110
0000
0000
0110
0000
0000
0110
0000
0000
0110
0000
0000
,
0110
0000
0000
0000
,
0000
0000
0000
0000
0000
0000
000M
0M00
00M0
0000
0000
0000
0000
0000
0000
0000
0000
0000
0110
0000
0000
0110
0000
0000
,
0110
0110
0110
0000
1001
1001
1001
1001
,
1001
0000
0000
0000
0000
0000
0000
0000
0000
1000
0000
0000
0100
0000
0000
1000
0000
0000
0011
0000
0010
0000
0001
0000
,
0010
0100
1000
0001
1000
0010
1000
0001
,
0020
0000
0000
0M3M
0000
0000
0000
0000
0000
0001
0010
0001
,
1MM0
0000
0000
0001
0010
0001
1MM0
0000
0000
0001
0010
0001
,
10M0
0000
0000
0000
0000
0000
0000
0000
0000
0010
0100
0010
,
1M0M
0000
0000
0010
0100
0010
1M0M
0000
0000
0010
0100
0010
,
1M0M
0000
0000
0000
1000
0100
0010
0001
,
1000
0010
1001
0000
0001
0100
0010
1000
,
0110
0010
1000
0000
1000
0020
0130
0010
,
1000
1000
0100
0100
0100
0100
0010
0010
,
0001
0010
0001
0000
1000
0000
0000
0000
0010
0000
0100
0000
1000
0000
0000
0000
,
0100
0001
0010
0000
0010
0100
0001
0000
,
0100
1000
0020
0000
0002
0033
0010
0000
,
0100
0000
M001
100M
M001
200M
0002
0000
,
0000
3003
0010
MMMM
0001
0010
0100
1000
,
0001
1000
0100
MMMM
1000
0010
0100
0001
,
1000
0001
0100
MMMM
0001
0100
0010
1000
,
0001
1000
0010
MMMM
0001
0010
0011
0100
,
0101
0100
1010
0000
1000
0001
11M1
0001
,
0100
0010
0110
MMMM
1000
0100
0000
0000
,
0000
0000
0000
0000
0000
0000
0010
0001
,
0100
0010
0110
MMMM
1000
0100
0010
0001
,
1000
0000
0000
0000
0000
0000
M11M
0000
0000
MMMM
0000
0000
4000
0000
0000
0000
0000
0000
3000
0000
0001
0000
0010
0000
,
0001
0000
0010
0000
0001
0000
0010
0000
0000
MMMM
0000
0000
1000
0000
0010
0000
1000
0000
0010
0000
1000
0000
0010
0000
,
1000
0000
0000
0000
0010
0000
0000
0000
2000
0000
0000
0000
0002
0MM0
0000
0000
0000
0000
0000
0000
0000
0000
0000
0000
3003
0000
0000
0000
0000
0000
0000
0000
0000
0000
0000
0000
0000
0000
0000
0000
0000
0000
0000
0000
0000
0000
0000
0000
,
0001
0010
0100
10MM
0000
0000
0010
0100
0001
1MM0
0000
0000
,
0001
0100
0010
1M0M
0000
0000
0000
0000
0000
0000
0000
0000
,
0001
0010
0100
MMM1
0000
0000
0010
0100
0001
MM1M
0000
0000
,
0001
0100
0010
0000
0000
0000
0000
0000
0000
0000
0000
0000
,
0000
0000
0000
1000
0000
0000
0010
0100
0001
MM1M
0000
0000
,
0001
0100
0010
MMM1
0000
0000
0000
0000
0000
0000
0000
0000
,
0000
0000
0000
1000
,
0001
0100
0010
MMM1
0000
0000
0000
0000
0000
0000
0000
0000
,
0000
0000
0000
0000
,
0000
0000
1000
0000
0000
0000
0000
1000
,
0100
0001
1000
0010
0002
0010
1003
0001
,
0100
1000
0001
0010
2000
0000
3001
1001
,
1000
0001
0000
0100
0010
0000
0110
1000
,
0001
1000
0001
0001
0012
0010
1003
0001
,
0100
0001
0100
0010
2010
0000
3001
1001
,
0001
1000
0010
0100
111M
0000
4000
0004
,
0000
0000
0000
3003
0000
0000
0000
0000
,
0000
0000
0000
0000
0001
0000
4000
0004
,
0000
0000
0000
3003
0110
0100
0010
0100
,
0010
0000
0000
0000
0110
0000
0000
0000
2002
0000
0000
0000
0000
3003
0000
0000
,
0000
0000
0000
0001
0010
0100
MMM1
0000
0000
0010
0100
0001
,
MM1M
0000
0000
0001
0100
0010
0000
0000
0000
0000
0000
0000
,
0000
0000
0000
0000
0000
0000
1000
0000
0000
0010
0100
0001
,
MM1M
0000
0000
0001
0100
0010
MMM1
0000
0000
0000
0000
0000
,
0000
0000
0000
0000
,
1000
0000
0000
0001
0100
0010
MMM1
0000
0000
0000
0000
0000
,
0000
0000
0000
0000
,
0000
0000
1000
0000
,
0000
0000
0000
0100
0001
0100
MMM1
0000
0000
0010
0001
0010
,
MMM1
0000
0000
0010
0100
0010
0000
0000
0000
0000
0000
0000
,
0000
0000
0000
0000
0000
0000
1000
0000
0000
0010
0001
0010
,
MMM1
0000
0000
0010
0100
0010
M1MM
0000
0000
0000
0000
0000
,
0000
0000
0000
0000
,
1000
0000
0000
0010
0100
0010
M1MM
0000
0000
0000
0000
0000
,
0000
0000
0000
0000
,
0000
0000
1000
0000
,
0000
0000
0000
0000
0000
1000
M000
0000
,
0000
0000
0000
0002
0000
0023
0030
0001
,
0010
1000
0010
0001
0010
0001
000M
1000
,
0010
0000
0001
0000
0010
0000
1000
0000
0010
0100
0010
0000
1000
0000
1000
0000
,
1000
1000
0110
1001
0001
0000
0001
0001
,
0001
0001
0110
1001
1000
0000
1100
1100
,
1100
0000
0000
1100
0000
0000
0001
0000
0010
0000
0001
0000
0010
0000
0000
0000
0000
0000
0101
0000
0000
0101
0000
0000
,
0101
0000
0000
0101
0000
0000
1000
0000
0010
0000
1000
0000
0010
0000
0000
0000
0000
0000
0011
0000
0000
1000
0000
0000
,
1010
0000
0000
0000
0000
0000
1010
0001
,
0011
0000
0000
0000
0000
0000
0000
0000
0000
0000
0001
0000
1000
0000
0000
2000
,
0010
0000
0000
0000
0010
0000
0000
3010
0100
0000
0010
0000
1000
0000
0000
0002
,
0100
0000
0000
0000
0100
0000
0000
0103
0010
0000
0000
0000
0100
0000
0000
0000
,
0010
0000
0000
0100
,
0010
0000
0000
0000
0000
0000
0000
0000
0000
0000
1000
0000
0001
0000
0000
0002
,
0010
0000
0000
0000
0010
0000
0000
0013
0100
0000
0010
0000
0001
0000
0000
2000
,
0100
0000
0000
0000
0100
0000
0000
3100
0010
0000
0000
0000
0000
0000
0000
0000
;

//--------------- dance-single - ----------------
#NOTES:
     dance-single:
     :
     Hard:
     6:
     0,0,0,0,0:
0000
0000
0000
0000
,
00M0
00M0
00M0
00M0
00M0
0M00
000M
0000
0M00
0000
0000
000M
M000
M000
00M0
0M00
1010
0000
0000
0000
0000
0000
0000
0000
1000
0000
0000
0000
0000
0000
0000
0000
0011
0000
0000
0000
0000
0000
0000
0000
0010
0000
0000
0000
0000
0000
0000
0000
0001
0000
0000
0000
0100
0000
0000
0000
0001
0000
0000
0000
0100
0000
0000
0000
,
0010
1010
1000
0011
1000
0011
0010
1010
,
0010
0011
0001
0100
0001
1010
0010
0011
,
0010
0000
0000
0000
0000
0000
1010
0000
0000
0000
0000
0000
1000
0000
0000
0010
0000
0000
0100
0000
0000
0001
0000
0000
1000
0000
0000
0100
0000
0000
0010
0000
0000
0001
0000
0000
0010
0000
0000
0000
0001
0000
0000
0000
1000
0000
0000
0000
,
0100
0000
0000
0000
0010
0000
0000
0000
0100
0000
0000
0000
0010
0000
0000
0100
0000
0000
1000
0000
0000
0010
0000
0000
0100
0000
0000
0001
0000
0000
0100
0000
0000
0000
0000
0000
0010
0000
0000
0100
0000
0000
0001
0000
0000
0100
0000
0000
,
0010
0000
0000
0000
1000
0000
0000
0000
0001
0000
0000
0000
0000
0000
0000
0010
0000
0000
0100
0000
0000
0010
0000
0000
0100
0000
0000
1000
0000
0000
0001
0000
0000
1000
0000
0000
0010
0000
0000
0100
0000
0000
0010
0000
0000
1000
0000
0000
,
0001
0000
0000
0010
0000
0000
0010
0000
0000
0001
0000
0000
0010
0000
0000
0100
0000
0000
0010
0000
0000
0001
0000
0000
1000
0000
0000
0010
0000
0000
0100
0000
0000
0010
0000
0000
0100
0000
0000
0010
0000
0000
0100
0000
0000
0000
0001
0000
,
1000
0000
0000
0000
0010
0000
0000
0000
0100
0000
0000
0000
0000
0000
0000
0001
0000
0000
0010
0000
0000
0100
0000
0000
1000
0000
0000
0000
0000
0000
1000
0000
0000
0001
0000
0000
1000
0000
0000
0001
0000
0000
0100
0000
0000
0010
0000
0000
,
0000
0100
0000
0010
0000
0000
0000
0000
0000
0000
0000
1000
0010
0100
0001
1000
,
1010
0000
0000
0000
0011
0000
0000
0000
0001
0000
0000
0000
1000
0000
0000
0000
0100
0000
0010
0000
0000
0000
0000
0000
0001
0000
0000
0010
0000
0000
0001
0000
0000
1000
0000
0000
0010
0000
0000
1000
0000
0000
0001
0000
0000
0010
0000
0000
,
0100
0000
0000
1000
0000
0000
0010
0000
0000
0100
0000
0000
0001
0000
0000
1000
0000
0000
0010
0000
0000
0000
0000
0000
0010
0000
0000
1000
0000
0000
0100
0000
0000
0000
0000
0000
0011
0000
0000
0000
1010
0000
0000
0000
1000
0000
0000
0000
,
0001
0000
0000
0100
0000
0000
0010
0000
0000
1000
0000
0000
0010
0000
0000
0100
0000
0000
0010
0000
0000
0000
0000
0000
0010
0000
0000
1000
0000
0000
0010
0000
0000
0000
0000
0000
0100
0000
0000
0000
0001
0000
0000
0000
0100
0000
0000
0000
,
0000
0001
0100
0001
0100
0010
0100
0000
0001
1000
0000
0000
0000
0000
0000
1000
,
0010
0100
0001
1000
0010
0000
0000
0000
0000
0010
0100
0010
1000
0001
1000
0001
,
0101
0000
1100
0000
0001
0000
0000
0000
0000
0001
0100
0010
1000
0001
0100
0001
,
0100
0000
0010
0000
1000
0000
0010
0000
1000
0000
0000
0000
0000
0000
0000
0000
0000
0000
0001
0000
0010
0000
0000
0001
0000
0000
0010
0000
0001
0000
1000
0000
,
0010
0000
0000
0000
0100
0000
0000
0000
0010
0000
0000
0000
1000
0000
0000
0010
0000
0000
0000
0000
0000
0000
0000
0000
0000
0000
0000
1000
0000
0000
0100
0000
0000
0010
0000
0000
0100
0000
0000
0010
0000
0000
0100
0000
0000
0010
0000
0000
,
0100
1000
0001
1000
0001
0010
0100
0000
0000
1000
0010
0100
0010
0100
0010
0100
,
0010
1000
0001
1000
0001
0000
0010
0000
0000
0001
0010
0100
0010
0100
0110
0000
,
1001
0000
0000
0000
0000
0000
0001
0000
0000
0100
0000
0000
0010
0000
0000
1000
0000
0000
0100
0000
0000
0000
0000
0000
0110
0000
0000
0000
1001
0000
0000
0000
0000
0000
0000
0000
1000
0000
0010
0000
0100
0000
0000
0000
0000
0000
0000
0000
,
0110
0000
1001
0000
0000
0000
0001
0100
0010
0000
0000
0000
1010
0000
0000
0010
0000
0000
0011
0000
0000
0010
0000
0000
,
1010
0000
0000
0000
,
0000
0000
0000
0000
0000
0000
0001
0100
0010
0000
0000
0000
0000
0000
0000
0000
0000
0000
1010
0000
0000
0010
0000
0000
,
0011
0010
1010
0000
1100
0100
0101
0100
,
1100
0000
0000
0000
0000
0000
0000
0000
0000
0000
0000
0000
0000
0000
0000
0000
0000
0000
1000
0000
0000
0010
0000
0000
0100
0000
0000
0010
0000
0000
1000
0000
0000
0001
0000
0000
0011
0000
0000
0000
0010
0000
0000
0000
0100
0000
0000
0000
,
1000
0000
0001
0000
0001
0010
0100
0010
0001
0000
1000
0010
0100
0010
1000
0000
,
0020
0000
0000
0200
0000
0000
0000
0000
0000
0000
0000
0000
0000
0000
0000
0000
0000
0000
0000
0000
0000
0000
0000
0000
0000
0000
0000
0000
0000
0000
0000
0000
0000
0000
0000
0000
0000
0000
0000
0000
0000
0000
0000
0000
0000
0000
0000
0000
0330
0000
0000
0000
0000
0000
0000
0000
0000
0000
0000
0000
0000
0000
0000
0000
0000
0000
0000
0000
0000
0000
0000
0000
0000
0000
0000
0000
0000
0000
0000
0000
0000
0000
0000
0000
0000
0000
0000
0000
0000
0000
0000
0000
0000
0000
0000
0000
0000
0000
0000
0000
0000
0000
0000
0000
0000
0000
0000
0000
0000
0000
0000
0000
0000
0000
0000
0000
0000
0000
0000
0000
0000
0000
0000
0000
0000
0000
0000
0000
0000
0000
0000
0000
0000
0000
0000
0000
0000
0000
0000
0000
0000
0000
0000
0000
0001
0000
0000
0000
0000
0000
0000
0000
0000
0000
0000
0000
0000
0000
0000
0000
0010
0000
0000
0000
0000
0000
0000
0000
0000
0000
0000
0000
0000
0000
0000
0000
0001
0000
0000
0000
0000
0000
0000
0000
0000
0000
0000
0000
0000
0000
0000
0000
,
1000
0000
0000
0010
0100
0010
1000
0000
0000
0100
0010
0100
,
1000
0000
0000
0000
0000
0000
0000
0000
0000
0010
0100
0001
,
1000
0000
0000
0100
0010
0001
1000
0000
0000
0001
0100
0010
,
1000
0000
0000
0000
0000
0000
0000
0000
0000
0000
0000
0000
0000
0000
0000
0000
0000
0000
0000
0000
0000
0000
0000
0000
1000
0000
0000
0001
0000
0000
0200
0000
0000
0000
0000
0000
0310
0000
0000
0100
0000
0000
0001
0000
0100
0000
0010
0000
,
1000
0000
0010
1000
0001
1000
0000
1000
0001
1000
0200
0000
0310
0100
1000
0100
,
0010
0000
0000
0001
0000
0000
0010
0000
0000
0001
0000
0000
1000
0000
0000
0001
0000
0000
0000
0000
0000
0001
0000
0000
1000
0000
0000
0001
0000
0000
0020
0000
0000
0000
0000
0000
0130
0000
0000
0000
0010
0000
0000
0000
0000
0001
0000
0000
,
1000
0000
0000
0010
0000
0000
1000
0000
0000
0010
0000
0000
0100
0000
0000
0001
0000
0000
0000
0000
0001
0000
0010
0000
0001
0000
0000
0010
0000
0000
0100
0000
0000
1000
0000
0000
0001
0000
0000
1000
0000
0000
0001
0000
0010
0000
0100
0000
,
1000
0000
0000
0010
0000
0000
0100
0000
0000
0010
0000
0000
1000
0000
0000
0001
0000
0000
0000
0000
1000
0000
0010
0000
0100
0000
0000
0010
0000
0000
1000
0000
0000
0100
0000
0000
1000
0000
0000
0100
0000
0000
0000
0000
0000
0010
0000
0000
,
0001
0000
0010
0000
0100
0000
1000
0000
0000
0001
0000
0000
0100
0000
0000
0000
0000
0000
0000
0000
0000
0010
0000
0000
1000
0000
0000
0000
0000
0000
1000
0000
0100
0000
0010
0000
0001
0000
0000
0100
0000
0000
0010
0000
0000
0100
0000
0000
,
0010
0000
0000
1000
0000
0000
0010
0000
0100
0000
0001
0000
0100
0000
0000
0000
0000
0000
0000
0000
0000
0001
0000
0000
0200
0000
0000
0000
0000
0000
0301
0000
0000
0010
0000
0000
0001
0000
0000
0010
0000
0000
0100
0000
0000
0010
0000
0000
,
0001
0000
0010
0000
0100
0000
0000
0000
0000
1000
0000
0000
1001
0000
0000
0000
0000
0000
1000
0000
0000
0000
0000
0000
0001
0000
0000
0000
0100
0000
0000
0000
0010
0000
0000
0000
1000
0000
0000
0100
0000
0000
0010
0000
0000
0100
0000
0000
,
0010
0000
0001
0000
0010
0000
0000
0000
0100
0000
0000
0000
1000
0000
0000
0000
0000
0000
1100
0000
0000
0000
0000
0000
0001
0000
0000
0100
0000
0000
0010
0000
0000
0000
0000
0000
0010
0000
0000
0100
0000
0000
0001
0000
0000
0100
0000
0000
,
0010
0000
0100
0000
0001
0000
1000
0000
0000
0000
0000
0000
0100
0000
0000
0000
0000
0000
0110
0000
0000
0000
0000
0000
0201
0000
0000
0000
0000
0000
0310
0000
0000
0000
0000
0000
0100
0000
0000
0010
0000
0000
1000
0000
0000
0010
0000
0000
,
0100
0000
0000
0000
0010
0000
0000
0000
1000
0000
0000
0000
0100
0000
0000
0000
0000
0000
0101
0000
0000
0000
0000
0000
0001
0000
0000
0000
0000
0000
1000
0000
0000
0100
0000
0000
0010
0000
0000
0000
0000
0000
0010
0000
0000
0100
0000
0000
,
1000
0001
1000
0010
0100
0000
0101
0000
0001
0000
0010
0000
0011
0000
0100
0000
,
0101
0000
0000
0100
0000
0000
1010
0000
0000
1001
0000
0000
1000
0010
1000
0001
0000
0000
1000
0000
0000
0001
0100
0000
,
0110
0000
0000
1001
0000
0000
0101
0000
0000
1010
0000
0000
1000
0100
0010
0000
0000
0000
0000
0000
0000
0000
0000
0000
,
0000
0000
0000
0000
0000
0000
0000
0000
0000
0000
0000
0000
0000
0000
0000
0000
0000
0000
1000
0000
0000
0001
0100
0000
,
0110
0000
0000
0000
0000
0000
1001
0000
0000
0000
0000
0000
0101
0000
0000
0000
0000
0000
1010
0000
0000
0000
0000
0000
1000
0000
0100
0000
0010
0000
0000
0000
0000
0000
0000
0000
0010
0000
0000
0100
0000
0000
1000
0000
0000
0001
0000
0000
,
1000
0000
0001
0000
1000
0000
0000
0000
0100
0000
0000
0000
0010
0000
0000
0000
0000
0000
0011
0000
0000
0000
0000
0000
4000
0000
0000
0040
0000
0000
0000
0000
0000
0000
0000
0000
3030
0000
0000
0000
0001
0000
0000
0000
0100
0000
0000
0000
,
0010
0000
1000
0000
0010
0000
1010
0000
0000
0101
0000
0000
0001
0100
0010
0000
1000
0000
0010
0000
0100
0000
0001
0000
,
0010
0100
1000
1001
0000
0000
0000
0000
0000
0000
0000
0000
,
0001
0010
0100
1000
0000
0000
0010
0100
0001
1000
0000
0000
,
0001
0100
0010
1000
0000
0000
0000
0000
0000
0000
0000
0000
,
0001
0100
0010
1000
0000
0000
0100
0010
0001
1000
0000
0000
,
0001
0010
0100
1000
0000
0000
0000
0000
0000
0000
0000
0000
,
0000
0000
0000
1000
0000
0000
0100
0010
0001
1000
0000
0000
,
0001
0010
0100
1000
0000
0000
0000
0000
0000
0000
0000
0000
,
0000
0000
0000
1000
,
0001
0010
0100
1000
0000
0000
0000
0000
0000
0000
0000
0000
,
0000
1000
0010
0000
0000
0000
0000
0000
0000
0000
0000
0000
0000
0000
0000
0000
,
0000
0000
0000
0000
1000
0000
0000
0000
0000
0000
0000
0000
0000
1000
0010
0000
,
0100
0001
0100
0001
1000
0010
0100
0001
0100
0000
0102
0000
1003
0000
1000
0100
,
0010
0001
0010
0001
1000
0100
0010
0001
0020
0000
0000
0000
0031
0000
1010
0000
,
1000
0000
0001
0010
0001
0000
0100
0000
0010
0000
0000
0000
0110
0000
1000
0010
,
1000
0010
1000
0010
0100
0000
0100
0001
0100
0000
2100
0000
3001
0000
0001
0010
,
0100
0000
0100
1000
0100
1000
0010
0000
2010
0000
0000
0000
3001
0000
0011
0000
,
0001
0000
0010
0001
0010
0000
0001
0100
0010
0000
0000
1000
0001
1000
0001
1000
,
0001
1000
0001
1000
0010
0000
0000
0000
0000
0000
0000
0000
0000
0000
0000
0000
,
0000
0000
0000
0000
0000
0000
0000
0000
0010
0000
0000
1000
0001
1000
0001
1000
,
0001
1000
0001
1000
0010
0100
0001
0000
0101
0000
0100
0000
0010
0000
1000
0000
,
0001
0000
0010
0100
0010
0100
1000
0010
2000
0002
0000
0000
0000
3003
0000
0000
,
0000
0000
0000
0001
0010
0001
1000
0000
0000
0010
0100
0010
,
1000
0000
0000
0100
0010
0100
1000
0000
0000
0000
0000
0000
,
0000
0000
0000
0000
0000
0000
1000
0000
0000
0010
0100
0010
,
1000
0000
0000
0100
0010
0100
1000
0000
0000
0000
0000
0000
,
0000
0000
0000
0000
,
1000
0000
0000
0100
0010
0100
1000
0000
0000
0000
0000
0000
,
0000
0000
0000
0000
,
0000
0000
1000
0000
,
0000
0000
0000
0001
0100
0010
1000
0000
0000
0100
0010
0001
,
1000
0000
0000
0001
0010
0100
1000
0000
0000
0000
0000
0000
,
0000
0000
0000
0000
0000
0000
1000
0000
0000
0100
0010
0001
,
1000
0000
0000
0001
0010
0100
1000
0000
0000
0000
0000
0000
,
0000
0000
0000
0000
,
1000
0000
0000
0001
0010
0100
1000
0000
0000
0000
0000
0000
,
0000
0000
0000
0000
,
0000
0000
1000
0000
,
0000
0000
0000
0000
0000
1000
0000
0000
,
0000
0000
0000
0000
0000
0000
0002
0000
0000
0000
0023
0000
0030
0000
0001
0100
,
0010
0000
1000
0100
0010
0000
0001
0100
0010
0000
1000
0000
0000
0000
0001
0010
,
0100
0000
1000
0010
0100
0000
0001
0010
0100
0010
0100
0000
1000
0001
0010
0000
,
0100
1000
0100
1000
0110
0000
1001
0000
1000
0000
0000
0000
0001
1000
0010
0000
,
0100
0001
0100
0001
0110
0000
1001
0000
0001
0000
0000
0000
1100
0000
1100
0000
,
1100
0000
0000
1100
0000
0000
0001
0000
0010
0000
0001
0000
0010
0000
0000
0000
0000
0000
0101
0000
0000
0101
0000
0000
,
0101
0000
0000
0101
0000
0000
1000
0000
0010
0000
1000
0000
0010
0000
0000
0000
0000
0000
0011
0000
0000
1000
0000
0000
,
1010
0000
0000
0000
0000
0000
1010
0001
,
0011
0000
0000
0000
0000
0000
0000
0000
0000
0000
0001
0000
1000
0000
0000
2000
,
0010
0000
0000
0000
0010
0000
0000
3010
0100
0000
0010
0000
1000
0000
0000
0002
,
0100
0000
0000
0000
0100
0000
0000
0103
0010
0000
0000
0000
0100
0000
0000
0000
,
0010
0000
0000
0100
,
0010
0000
0000
0000
0000
0000
0000
0000
0000
0000
1000
0000
0001
0000
0000
0002
,
0010
0000
0000
0000
0010
0000
0000
0013
0100
0000
0010
0000
0001
0000
0000
2000
,
0100
0000
0000
0000
0100
0000
0000
3100
0010
0000
0000
0000
0000
0000
0000
0000
;

//--------------- dance-single - ----------------
#NOTES:
     dance-single:
     :
     Challenge:
     4:
     0,0,0,0,0:
0000
0000
0000
0000
,
00M0
00M0
00M0
00M0
00M0
0M00
000M
0000
0M00
0000
0000
000M
M000
M000
00M0
0M00
1010
0000
0000
0000
0000
0000
0000
0000
1000
0000
0000
0000
0000
0000
0000
0000
0011
0000
0000
0000
0000
0000
0000
0000
0010
0000
0000
0000
0000
0000
0000
0000
0001
0000
0000
0000
0100
0000
0000
0000
0001
0000
0000
0000
0100
0000
0000
0000
,
0010
1010
1000
0011
1MM0
0011
0M1M
1010
,
MM10
0011
MM01
0100
M0M1
1010
MM10
0011
,
0M1M
0000
0000
0000
0000
0000
1010
0000
0000
0000
0000
0000
1000
0000
0000
0010
0000
0000
0100
0000
0000
0001
0000
0000
1000
0000
0000
0100
0000
0000
0001
0000
0000
1000
0000
0000
0010
0000
0000
0000
0001
0000
0000
0000
1000
0000
0000
0000
,
0100
0000
0000
0000
0001
0000
0000
0000
0100
0000
0000
0000
0010
0000
0000
0100
0000
0000
1000
0000
0000
0010
0000
0000
0100
0000
0000
0001
0000
0000
0100
0000
0000
0000
0000
0000
0010
0000
0000
0100
0000
0000
0001
0000
0000
0100
0000
0000
,
0010
0000
0000
0000
1000
0000
0000
0000
0001
0000
0000
0000
0000
0000
0000
0010
0000
0000
0100
0000
0000
0010
0000
0000
0100
0000
0000
1000
0000
0000
0001
0000
0000
1000
0000
0000
0010
0000
0000
0100
0000
0000
0010
0000
0000
1000
0000
0000
,
0001
0000
0000
0010
0000
0000
0010
0000
0000
0001
0000
0000
0010
0000
0000
0100
0000
0000
0010
0000
0000
0001
0000
0000
1000
0000
0000
0010
0000
0000
0100
0000
0000
0010
0000
0000
0100
0000
0000
0010
0000
0000
0100
0000
0000
0000
0001
0000
,
1000
0000
0000
0000
0010
0000
0000
0000
0100
0000
0000
0000
0000
0000
0000
0001
0000
0000
0010
0000
0000
0100
0000
0000
1000
0000
0000
0000
0000
0000
1000
0000
0000
0001
0000
0000
1000
0000
0000
0001
0000
0000
0100
0000
0000
0010
0000
0000
,
0000
0100
0000
0010
0000
0000
0000
0000
0000
0000
0000
1000
0010
0100
0001
1000
,
1010
0000
0000
0000
0011
0000
0000
0000
0001
0000
0000
0000
1000
0000
0000
0000
0100
0000
0010
0000
0000
0000
0000
0000
0001
0000
0000
0010
0000
0000
0001
0000
0000
1000
0000
0000
0010
0000
0000
1000
0000
0000
0001
0000
0000
0010
0000
0000
,
0100
0000
0000
1000
0000
0000
0010
0000
0000
0100
0000
0000
0001
0000
0000
1000
0000
0000
0010
0000
0000
0000
0000
0000
0010
0000
0000
1000
0000
0000
0100
0000
0000
0000
0000
0000
0011
0000
0000
0000
1010
0000
0000
0000
1000
0000
0000
0000
,
0001
0000
0000
0100
0000
0000
0010
0000
0000
1000
0000
0000
0010
0000
0000
0100
0000
0000
0010
0000
0000
0000
0000
0000
0010
0000
0000
1000
0000
0000
0010
0000
0000
0000
0000
0000
0100
0000
0000
0000
0001
0000
0000
0000
0100
0000
0000
0000
,
0000
0001
0100
0001
0100
0010
0100
0000
M000
000M
0000
0000
0000
0000
0000
1000
,
0010
0100
0001
1000
0010
0000
0000
0000
0000
0010
0100
0010
1000
0001
1000
0001
,
0101
0000
1100
0000
MMMM
0000
0000
0000
0000
0001
0100
0010
1000
0001
0100
0001
,
0100
0000
0010
0000
1000
0000
0010
0000
1000
0000
0000
0000
0000
0000
0000
0000
0000
0000
0001
0000
0010
0000
0000
0001
0000
0000
0010
0000
0001
0000
1000
0000
,
0000
0000
0000
0000
1000
0010
0000
0000
0000
1000
0100
0010
0100
0010
0100
0010
,
0100
1000
0001
1000
0001
0010
0100
0000
0000
1000
0010
0100
0010
0100
0010
0100
,
0010
1000
0001
1000
0001
0000
0010
0000
0000
0001
0010
0100
0010
0100
0110
0000
,
1001
0000
0000
0000
0000
0000
0001
0000
0000
0100
0000
0000
0010
0000
0000
1000
0000
0000
0100
0000
0000
0000
0000
0000
0110
0000
0000
0000
1001
0000
0000
0000
0000
0000
0000
0000
1000
0000
0010
0000
0100
0000
0000
0000
0000
0000
0000
0000
,
0110
0000
1001
0000
0000
0000
0001
0100
0010
0000
0000
0000
1010
0000
0000
MM10
0000
0000
0011
0000
0000
0M1M
0000
0000
,
1010
0000
0000
0000
,
0000
0000
0000
0000
0000
0000
000M
0M00
00M0
0000
0000
0000
0000
0000
0000
0000
0000
0000
1010
0000
0000
MM10
0000
0000
,
0011
0M1M
1010
0000
1100
M1M0
0101
01MM
,
1100
0000
0000
0000
0000
0000
0000
0000
0000
0000
0000
0000
0000
0000
0000
0000
0000
0000
1000
0000
0000
0010
0000
0000
0100
0000
0000
0010
0000
0000
1000
0000
0000
0001
0000
0000
0011
0000
0000
0000
0010
0000
0000
0000
0100
0000
0000
0000
,
1000
0000
0001
0000
0001
0010
0100
0010
0001
0000
1000
0010
0100
0010
1000
0000
,
0020
0000
0000
0M3M
0000
0000
0000
0000
0000
0001
0010
0001
,
1MM0
0000
0000
0010
0100
0010
1M0M
0000
0000
0100
0010
0100
,
10MM
0000
0000
0000
0000
0000
0000
0000
0000
0010
0100
0001
,
1MM0
0000
0000
0100
0010
0001
1MM0
0000
0000
0001
0100
0010
,
1M0M
0000
0000
0000
0000
0000
0000
0000
0000
0000
0000
0000
0000
0000
0000
0000
0000
0000
0000
0000
0000
0000
0000
0000
1000
0000
0000
0001
0000
0000
0200
0000
0000
0000
0000
0000
0310
0000
0000
0100
0000
0000
0001
0000
0100
0000
0010
0000
,
1000
0000
0010
1000
0001
1000
0000
1000
0001
1000
0200
0000
0310
0100
1000
0100
,
0010
0000
0000
0001
0000
0000
0010
0000
0000
0001
0000
0000
1000
0000
0000
0001
0000
0000
0000
0000
0000
0001
0000
0000
1000
0000
0000
0001
0000
0000
0020
0000
0000
0000
0000
0000
0130
0000
0000
0000
0010
0000
0000
0000
0000
0001
0000
0000
,
1000
0000
0000
0010
0000
0000
1000
0000
0000
0010
0000
0000
0100
0000
0000
0001
0000
0000
0000
0000
0001
0000
0010
0000
0001
0000
0000
0010
0000
0000
0100
0000
0000
1000
0000
0000
0001
0000
0000
1000
0000
0000
0001
0000
0010
0000
0100
0000
,
1000
0000
0000
0010
0000
0000
0100
0000
0000
0010
0000
0000
1000
0000
0000
0001
0000
0000
0000
0000
1000
0000
0010
0000
0100
0000
0000
0010
0000
0000
1000
0000
0000
0100
0000
0000
1000
0000
0000
0100
0000
0000
0000
0000
0000
M100
0000
0000
,
0001
0000
0010
0000
0100
0000
1000
0000
0000
0001
0000
0000
0100
0000
0000
0000
0000
0000
0000
0000
0000
010M
0000
0000
1000
0000
0000
0000
0000
0000
1000
0000
0100
0000
0010
0000
0001
0000
0000
0100
0000
0000
0010
0000
0000
0100
0000
0000
,
0010
0000
0000
1000
0000
0000
0010
0000
0100
0000
0001
0000
0100
0000
0000
0000
0000
0000
0000
0000
0000
010M
0000
0000
1000
0000
0000
0000
0000
0000
0001
0000
0000
0100
0000
0000
0001
0000
0000
0010
0000
0000
0100
0000
0000
0010
0000
0000
,
0001
0000
0010
0000
0100
0000
0000
0000
0000
1000
0000
0000
1001
0000
0000
0000
0000
0000
1000
0000
0000
0000
0000
0000
0001
0000
0000
0000
0100
0000
0000
0000
0010
0000
0000
0000
1000
0000
0000
0100
0000
0000
0010
0000
0000
0100
0000
0000
,
0010
0000
0001
0000
0010
0000
0000
0000
0100
0000
0000
0000
1100
0000
0000
0000
0000
0000
MM00
0000
0000
0000
0000
0000
0001
0000
0000
0100
0000
0000
1000
0000
0000
0000
0000
0000
1000
0000
0000
0100
0000
0000
0001
0000
0000
0100
0000
0000
,
0010
0000
0100
0000
0001
0000
1000
0000
0000
0000
0000
0000
0110
0000
0000
0000
0000
0000
0MM0
0000
0000
0000
0000
0000
0201
0000
0000
0000
0000
0000
030M
0000
0000
0000
0000
0000
0100
0000
0000
0010
0000
0000
1000
0000
0000
0010
0000
0000
,
0001
0000
0000
0000
0010
0000
0000
0000
1000
0000
0000
0000
1100
0000
0000
0000
0000
0000
MM00
0000
0000
0000
0000
0000
0001
0000
0000
0000
0000
0000
1000
0000
0000
0100
0000
0000
0001
0000
0000
0000
0000
0000
0001
0000
0000
0100
0000
0000
,
1000
0001
1000
0010
0110
0000
0MM0
0000
0001
0000
0010
0000
0011
0000
0100
0000
,
0101
0000
0000
0100
0000
0000
1010
0000
0000
M0M0
0000
0000
1000
0010
1000
0001
0000
0000
M111
0000
0000
0001
0100
0000
,
0110
0000
0000
1001
0000
0000
0101
0000
0000
0M0M
0000
0000
1000
0100
0010
0000
0000
0000
0000
0000
0000
0000
0000
0000
,
0000
0000
0000
0000
0000
0000
0000
0000
0000
0000
0000
0000
0000
0000
0000
0000
0000
0000
0000
0000
0000
0000
0000
0000
0000
0000
0000
0000
0000
0000
0000
0000
0000
0000
0000
0000
0000
0000
0000
0000
0000
0000
0000
0000
0000
0000
0000
0000
0000
0000
0000
0000
0000
0000
0000
0000
0000
0000
0000
0000
0000
0000
0000
0000
0000
0000
0000
0000
0000
0000
0000
0000
0000
0000
0000
0000
0000
0000
0000
0000
0000
0000
0000
0000
0000
0000
0000
0000
0000
0000
0000
0000
0000
0000
0000
0000
0000
0000
0000
0000
0000
0000
0000
0000
0000
0000
0000
0000
0000
0000
0000
0000
0000
0000
0000
0000
0000
0000
0000
0000
0000
0000
0000
0000
0000
0000
0000
0000
0000
0000
0000
0000
0000
0000
0000
0000
0000
0000
0000
0000
0000
0000
0000
0000
1000
0MMM
0000
0000
0000
0000
0000
0000
0000
0000
0000
0000
0000
0000
0000
0000
0000
0000
0000
0000
0000
0000
0000
0000
0001
0000
0000
0000
0000
0000
0000
0000
0100
0000
0000
0000
0000
0000
0000
0000
0000
0000
0000
0000
0000
0000
0000
0000
,
0110
0000
0000
0000
0000
0000
1001
0000
0000
0000
0000
0000
0101
0000
0000
0000
0000
0000
0M0M
0000
0000
0000
0000
0000
1000
0000
0100
0000
0010
0000
0000
0000
0000
0000
0000
0000
0010
0000
0000
0100
0000
0000
1000
0000
0000
0001
0000
0000
,
1000
0000
0001
0000
1000
0000
0000
0000
0000
0000
0000
0000
M11M
0000
0000
0000
0000
0000
0MM0
0000
0000
0000
0000
0000
4000
0000
0000
0040
0000
0000
0000
0000
0000
0000
0000
0000
3030
0000
0000
0000
0001
0000
0000
0000
0100
0000
0000
0000
,
1000
0000
0001
0000
0010
0000
1010
0000
0000
M0M0
0000
0000
0001
0100
0010
0000
1000
0000
0010
0000
0001
0000
1000
0000
,
0100
0000
0000
0000
0000
0000
0000
0000
0000
0000
0000
0000
0000
0000
0000
0000
0001
0000
0000
0000
0000
0000
0000
0000
0000
0000
0000
0000
0000
0000
0000
0000
1000
0000
0000
0000
0000
0000
0000
0000
0000
0000
0000
0000
0000
0000
0000
0000
1MM1
0000
0000
M00M
0000
0000
0000
0000
0000
0000
0000
0000
0000
0000
0000
0000
0000
0000
0000
0000
0000
0000
0000
0000
0000
0000
0000
0000
0000
0000
0000
0000
0000
0000
0000
0000
0000
0000
0000
0000
0000
0000
0000
0000
0000
0000
0000
0000
0000
0000
0000
0000
0000
0000
0000
0000
0000
0000
0000
0000
0000
0000
0000
0000
0000
0000
0000
0000
0000
0000
0000
0000
0000
0000
0000
0000
0000
0000
0000
0000
0000
0000
0000
0000
0000
0000
0000
0000
0000
0000
0000
0000
0000
0000
0000
0000
0000
0000
0000
0000
0000
0000
0000
0000
0000
0000
0000
0000
0000
0000
0000
0000
0000
0000
0000
0000
0000
0000
0000
0000
0000
0000
0000
0000
0000
0000
0000
0000
0000
0000
0000
0000
0000
0000
0000
0000
0000
0000
0000
0000
0000
0000
0000
0000
,
0001
0010
0100
10MM
0000
0000
0010
0100
0001
1MM0
0000
0000
,
0001
0100
0010
1M0M
0000
0000
0000
0000
0000
0000
0000
0000
,
0001
0100
0010
MMM1
0000
0000
0100
0010
0001
M1MM
0000
0000
,
0001
0010
0100
0000
0000
0000
0000
0000
0000
0000
0000
0000
,
0000
0000
0000
1M0M
0000
0000
0100
0010
0001
M1MM
0000
0000
,
0001
0010
0100
MMM1
0000
0000
0000
0000
0000
0000
0000
0000
,
0000
0000
0000
1MM0
,
0001
0010
0100
MMM1
0000
0000
0000
0000
0000
0000
0000
0000
,
0000
1000
0010
0000
0000
0000
0000
0000
0000
0000
0000
0000
0000
0000
0000
0000
,
0000
0000
0000
0000
10MM
0000
0000
0000
0000
0000
0000
0000
0000
1000
0010
0000
,
0100
0001
0100
0001
1000
0010
0100
0001
0100
0000
0101
0000
01MM
0000
1000
0100
,
0010
0001
0010
0001
1000
0100
0010
0001
0010
0000
0000
0000
0M1M
0000
1010
0000
,
1000
0000
0001
0010
0001
0000
0100
0000
0010
0000
0000
0000
0110
0000
1000
0010
,
1000
0010
1000
0010
0100
0000
0100
0001
0100
0000
1100
0000
01M0
0000
0001
0010
,
0100
0000
0100
1000
0100
1000
0010
0000
1010
0000
0000
0000
MM10
0000
0011
0000
,
0001
0000
0010
0001
0010
0000
0001
0100
11M1
0000
0000
1000
0001
1000
0001
1000
,
0001
1000
0001
1000
0010
0000
0000
0000
0000
0000
0000
0000
0000
0000
0000
0000
,
0000
0000
0000
0000
0000
0000
0000
0000
0010
0000
0000
1000
0001
1000
0001
1000
,
0001
1000
0001
1000
0010
0100
0001
0000
0101
0000
0100
0000
MMMM
0000
0001
0000
,
1000
0000
0010
0100
0001
1000
0100
0010
0002
2000
0000
0000
0000
3003
0000
0000
,
0000
0000
0000
0001
0010
0001
MM1M
0000
0000
0010
0001
0010
,
MMM1
0000
0000
0100
0001
0100
0000
0000
0000
0000
0000
0000
,
0000
0000
0000
0000
0000
0000
1MM0
0000
0000
0010
0001
0010
,
MMM1
0000
0000
0100
0001
0100
MMM1
0000
0000
0000
0000
0000
,
0000
0000
0000
0000
,
1M0M
0000
0000
0100
0001
0100
MMM1
0000
0000
0000
0000
0000
,
0000
0000
0000
0000
,
0000
0000
10MM
0000
,
0000
0000
0000
0001
0100
0010
MMM1
0000
0000
0100
0010
0001
,
M1MM
0000
0000
0001
0010
0100
0000
0000
0000
0000
0000
0000
,
0000
0000
0000
0000
0000
0000
1M0M
0000
0000
0100
0010
0001
,
M1MM
0000
0000
0001
0010
0100
MMM1
0000
0000
0000
0000
0000
,
0000
0000
0000
0000
,
1MM0
0000
0000
0001
0010
0100
MMM1
0000
0000
0000
0000
0000
,
0000
0000
0000
0000
,
0000
0000
10MM
0000
,
0000
0000
0000
0000
0000
1000
M000
0000
,
0000
0000
0000
0000
0000
0000
0002
0000
0000
0000
0023
0000
0030
0000
0001
0100
,
1000
0000
0001
0010
1000
0000
0001
0100
0010
0000
1000
0000
M000
0000
0001
0010
,
1000
0000
0001
0100
1000
0000
0001
0010
M000
0000
0000
0000
1000
0001
0010
0000
,
0100
1000
0100
1000
0110
0000
1001
0000
1000
0000
0000
0000
0001
1000
0010
0000
,
0100
0001
0100
0001
0110
0000
1001
0000
0001
0000
0000
0000
1100
0000
1100
0000
,
1100
0000
0000
1100
0000
0000
0001
0000
0010
0000
0001
0000
0010
0000
0000
0000
0000
0000
0101
0000
0000
0101
0000
0000
,
0101
0000
0000
0101
0000
0000
1000
0000
0010
0000
1000
0000
0010
0000
0000
0000
0000
0000
0011
0000
0000
001M
0000
0000
,
1010
0000
0000
0000
0000
0000
1010
M010
,
0011
0000
0000
0000
0000
0000
0000
0000
0000
0000
0001
0000
1000
0000
0000
2000
,
0010
0000
0000
0000
0010
0000
0000
3010
0001
0000
0010
0000
0001
0000
0000
0002
,
0100
0000
0000
0000
0100
0000
0000
0103
1000
0000
0000
0000
0100
0000
0000
0000
,
0010
0000
0000
0010
,
0100
0000
0000
0000
0000
0000
0000
0000
0000
0000
1000
0000
0001
0000
0000
0002
,
0010
0000
0000
0000
0010
0000
0000
0013
1000
0000
0010
0000
1000
0000
0000
2000
,
0100
0000
0000
0000
0100
0000
0000
3100
0001
0000
0000
0000
0000
0000
0000
0000
;
