#TITLE:Nails, Hair, Hips, Heels;
#SUBTITLE:;
#ARTIST:Todrick Hall;
#CREDIT:Todrick Hall;
#MUSIC:Nails_ Hair_ Hips_ Heels - Todrick Hall_DDR_7.ogg;
#SELECTABLE:YES;
#BACKGROUND:NailsHairHipsHeelsBG.png;
#BANNER:NailsHairHipsHeels.png;
#CDTITLE:Haus Party;
#OFFSET:-3.23295;
#SAMPLESTART:0.000;
#SAMPLELENGTH:0.000;
#BPMS:0=126;
#STOPS:;

//---------------dance-single - ----------------
#NOTES:
     dance-single:
     :
     Beginner:
     4:
     0.000,0.000,0.000,0.000,0.000:
0000
0000
0000
0000
,
0000
0000
0000
0000
,
0001
0000
0000
0000
,
0010
0000
0000
0000
,
1000
0000
0100
0000
,
0010
0000
0001
0000
,
0001
0000
0010
0000
,
0100
0000
1000
0000
,
1001
0000
0000
0000
,
1001
0000
0000
0000
,
0110
0000
0000
0000
,
0110
0000
0000
0000
,
1000
0000
0010
0000
,
0100
0000
0001
0000
,
1000
0000
0100
0000
,
0010
0000
0001
0000
,
2200
0000
0000
0000
,
3300
0000
0000
0000
,
0001
0001
0000
0000
,
0100
0100
0000
0000
,
1000
1000
0000
0000
,
0010
0010
0000
0000
,
1000
0010
0000
0000
,
0100
0001
0000
0000
,
0100
0010
0000
0000
,
0022
0000
0000
0033
,
0001
0000
1000
0000
,
0001
0000
1000
0000
,
0001
0000
0010
0000
,
0100
0000
1000
0000
,
1001
0000
0001
0000
,
1000
0000
0001
0000
,
0100
0000
0010
0000
,
0100
0000
0010
0000
,
MMMM
0000
0002
0003
,
2000
3000
0002
0003
,
0MM0
0000
0MM0
0000
,
2000
0000
0020
3030
,
0000
0000
0000
0000
,
0000
0000
0000
0100
,
0000
0000
0010
1000
,
0000
0000
0010
0000
,
0000
0000
0000
0000
,
0000
0000
0000
1000
,
0000
0100
0001
0000
,
0010
0000
1000
0000
,
1000
0000
0000
0100
,
0010
0000
0000
1000
,
0001
0000
0000
0010
,
0100
0000
0000
1001
,
0000
0000
0000
0110
,
0000
0000
0000
0110
,
0000
0000
0000
0110
,
0000
0000
0000
0110
,
0000
0000
0000
0000
0000
0000
0002
0003
,
0000
0000
0000
0000
0000
0000
0202
0303
,
0000
0000
0000
0000
0000
0000
2000
3000
,
0000
0000
0000
0000
0000
0000
2200
3300
,
0000
0000
0000
0001
,
0000
0000
0000
0010
,
0000
0000
0000
1000
,
0000
0000
0000
0010
,
0000
0000
MMMM
0000
,
0000
0000
0000
0000
0000
0000
0000
0000
0020
0000
0000
0000
0000
0000
0000
0000
0000
0000
0000
0000
0000
0000
0000
0000
0000
0000
0000
0030
0000
0000
0000
0000
,
0000
0000
0000
0000
,
0000
0000
0000
0000
,
0000
0000
0000
0000
;

//---------------dance-single - ----------------
#NOTES:
     dance-single:
     :
     Easy:
     5:
     0.000,0.000,0.000,0.000,0.000:
0000
0000
0000
0000
,
0000
0000
0000
0000
,
0002
0003
2000
3000
,
0002
0003
0000
0000
,
0001
1000
0001
1001
,
0001
1000
0001
1001
,
0001
0010
0001
0011
,
0022
0000
0000
0033
,
0010
0001
0010
1000
,
0010
0001
0010
1000
,
0002
0103
0010
0001
,
0020
0000
0000
0030
,
0010
0010
0010
0000
1000
1000
1000
0000
,
0010
0010
0010
0010
,
0001
1000
0100
0001
,
0010
0100
1000
0001
,
1001
0000
0000
0000
,
1001
0000
0000
0000
0000
0000
0000
0000
0000
0000
0000
0000
0000
0000
0000
0000
0000
0000
0000
0000
0000
0000
0000
0000
0000
0000
0000
0000
0000
0000
0000
0000
1000
0000
0000
0000
0000
0000
0000
0000
0000
0000
0000
0000
0000
0010
0000
0000
0000
0000
0000
0000
0000
0000
0000
0000
0000
0000
0000
0000
0000
0000
0000
0000
,
1010
0000
0000
0000
0000
0000
0000
0000
0000
0000
0000
0000
0000
0000
0000
0000
1010
0000
0000
0000
0000
0000
0000
0000
0000
0000
0000
0000
0000
0000
0000
0000
0001
0000
0000
0000
0000
0000
0000
0000
0000
0000
0000
0000
0000
0010
0000
0000
0000
0000
0000
0000
0000
0000
0000
0000
0000
0000
0000
0000
0000
0000
0000
0000
,
0011
0000
0000
0000
0000
0000
0000
0000
0000
0000
0000
0000
0000
0000
0000
0000
0011
0000
0000
0000
0000
0000
0000
0000
0000
0000
0000
0000
0000
0000
0000
0000
0100
0000
0000
0000
0000
0000
0000
0000
0000
0000
0000
0000
0000
1000
0000
0000
0000
0000
0000
0000
0000
0000
0000
0000
0000
0000
0000
0000
0000
0000
0000
0000
,
1100
1100
0010
2000
,
0020
3030
0100
0010
,
1000
0100
0001
0100
,
1000
0100
0001
0010
,
0110
0010
0100
0001
,
0001
4004
0000
3003
,
0100
0002
2003
3200
,
0320
0032
0203
0320
,
2030
0000
3020
0000
0230
0000
0302
0003
,
0010
0100
1001
1001
,
0010
0100
0001
1001
,
0100
0010
1000
1001
,
0001
0010
0100
1100
,
1000
0010
0100
0101
,
2020
0000
0000
3030
,
2100
0000
0010
3000
,
0012
0000
0100
0003
,
2010
0000
3001
1001
,
0000
0000
0000
0000
,
0000
0000
0000
1000
,
0001
0000
0101
0001
,
1000
0000
1010
0000
,
0000
0000
0000
0000
0000
0000
0000
0000
0000
1001
0000
0000
0000
0000
0000
0000
,
0000
0000
0000
1000
,
0010
0100
1001
0000
,
0010
2000
3001
1100
,
0001
0001
0001
0101
,
0010
0010
0010
0110
,
1000
1000
1000
1100
,
0010
0010
0010
0110
,
0001
0000
0000
0010
0000
0000
0110
0000
,
1000
0000
0000
0100
0000
0000
0110
0000
,
0001
0000
0000
0100
0000
0000
0110
0000
,
1000
0000
0000
0010
0000
0000
0110
0000
,
0202
0000
0300
0013
,
2200
0000
0300
3010
,
0202
0000
0300
1003
,
2200
0000
0300
3001
,
0100
0000
0000
0001
0000
0000
0101
0000
,
0010
0000
0000
1000
0000
0000
1100
0000
,
0001
0000
0000
0010
0000
0000
0011
0000
,
1000
0000
0000
0010
0000
0000
1010
0000
,
0000
0000
0000
0000
MMMM
MMMM
0000
0000
,
0000
2002
0000
0000
,
0000
0000
3003
0000
,
0000
0000
0000
0000
,
0000
0000
0000
0000
;

//---------------dance-single - ----------------
#NOTES:
     dance-single:
     :
     Medium:
     9:
     0.000,0.000,0.000,0.000,0.000:
1002
M003
2000
300M
,
0002
M003
2000
300M
,
0002
M003
2000
300M
,
0002
0000
M003
0000
0000
0000
0200
0300
,
0001
1000
0001
1001
,
0001
1000
0001
1001
,
0001
0010
0001
0011
,
0022
0000
0000
0000
0000
0033
0011
0000
,
0010
0001
0010
1000
,
0010
0001
0010
1000
,
0002
0000
0103
0010
2000
0000
3000
0000
,
0020
0000
MM0M
MM3M
,
0010
1000
0010
0000
0010
1000
0010
0000
,
0010
00M0
0010
0000
0010
00M0
0010
0000
,
0001
1000
0100
0001
,
0010
0010
0100
0100
1000
1000
0001
0000
,
2002
0000
0000
3003
,
1010
0000
0000
0000
0000
0000
0000
0000
0000
0000
0000
0000
0000
0000
0000
0000
0000
0000
0000
0000
0000
0000
0000
0000
0000
0000
0000
0000
0000
0000
0000
0000
1000
0000
0000
0000
0000
0000
0000
0000
0000
0000
0000
0000
0000
0010
0000
0000
0000
0000
0000
0000
0000
0000
0000
0000
1000
0000
0000
0000
0000
0000
0000
0000
,
0110
00M0
0001
0010
,
0001
0010
0100
1000
,
0100
0000
1000
0000
0010
0000
1000
0002
,
0020
0033
0000
0010
,
1000
0100
0001
0100
,
1000
0000
0100
0000
0001
0000
0010
0100
,
0110
0000
0020
0030
0100
0000
0001
1000
,
0001
0404
0000
0303
,
1000
0000
0002
0000
2000
0003
300M
0000
,
0100
0000
0020
0000
2000
0030
30M0
0000
,
0001
0100
0202
1010
,
0000
0000
0003
0000
0000
000M
0300
0000
,
0010
0100
0001
1001
,
0100
0010
1000
1001
,
0001
0010
0100
1100
,
1000
0010
0100
0101
,
2020
0030
00M0
30M0
,
2100
0001
0010
3001
,
0012
1000
0100
1003
,
1200
0010
0001
0002
,
0303
0000
0000
0000
,
0000
0000
0000
2000
,
0002
0000
3013
0002
,
2000
0000
3013
0000
,
0000
0000
0000
0000
0000
0000
0000
0000
0000
1001
0000
0000
0000
0000
0000
0000
,
0000
0000
0000
1000
,
0010
0100
1001
0000
,
0010
2000
3001
1100
,
0101
0101
0101
010M
,
0110
0110
0110
01M0
,
1100
1100
1100
M100
,
0110
0110
0110
01M0
,
0001
0000
0000
0010
0000
0000
0110
0000
,
1000
0000
0000
0100
0000
0000
0110
0000
,
0001
0000
0000
0100
0000
0000
0110
0000
,
1000
0000
0000
0010
0000
0000
0110
0000
,
0101
0000
0000
1001
0000
0000
0022
0033
,
1100
0000
0000
1001
0000
0000
2020
3030
,
0101
0000
0000
0011
0000
0000
2002
3003
,
1100
0000
0000
1010
0000
0000
2002
3003
,
0100
0000
0000
0001
0000
0000
0101
0000
,
0010
0000
0000
1000
0000
0000
1100
0000
,
0001
0000
0000
0010
0000
0000
0011
0000
,
1000
0000
0000
0010
0000
0000
1010
0000
,
0000
0000
0000
0000
1000
0100
0000
0000
,
0000
2002
0000
0000
,
0000
0000
3003
0000
,
0000
0000
0000
0000
,
0000
0000
0000
0000
;

//---------------dance-single - ----------------
#NOTES:
     dance-single:
     :
     Hard:
     13:
     0.000,0.000,0.000,0.000,0.000:
1002
0000
0000
0000
M003
0000
0100
0000
0010
0000
0000
0100
000M
0000
0001
0000
,
1002
0000
0000
0000
M003
0000
0010
0000
0100
0000
0000
0010
000M
0000
1000
0000
,
1200
0000
0000
0000
M300
0000
0010
0000
0001
0000
0000
1000
0M00
0000
0100
0000
,
1200
0000
0000
0000
M300
0000
1000
0000
1000
0000
0001
0010
0220
0000
0330
0000
,
MMMM
0000
MMMM
0000
2002
0003
300M
0000
,
2200
0000
3300
0001
0022
0000
0033
1000
,
1000
0000
0000
0000
0001
0000
0100
0000
0110
0000
0001
1000
0010
0100
1000
0000
,
1001
0000
0000
0000
0100
0010
0000
0000
2002
0000
0000
0000
3013
0000
0000
0000
,
2000
0000
3020
0000
0230
0001
0302
0000
,
0023
0000
0230
0000
2300
0001
3002
0000
,
2003
0000
3200
0000
0320
0001
0032
0000
,
2003
3020
M03M
0MM0
,
0010
1000
1000
0000
0010
0000
1000
1000
0100
0000
1000
0000
0100
0000
1001
0000
,
0010
0001
0001
0000
0010
0000
0001
0001
0100
0000
0001
0000
0100
0000
0101
0000
,
0010
0000
0001
0000
0010
0000
0100
1000
0100
0000
0010
0000
0100
0000
1100
0000
,
1000
0000
0100
0000
1000
0000
0001
0000
1000
0000
0100
0010
0001
0000
1000
0000
,
2200
0000
0300
0000
0100
0100
0100
0000
0100
0000
0100
0000
0100
0000
3100
0000
,
1100
0000
0000
0000
0000
0000
0000
0000
0000
0000
0000
0000
0000
0000
0000
0000
0001
0000
0000
0000
0000
0000
0000
0000
0000
0000
0000
0000
0000
0000
0000
0000
1000
0000
0000
0000
1000
0000
0000
0000
0000
0000
0000
0000
0000
0010
0000
0000
0000
0000
0000
0000
0000
0000
0000
0000
0001
0000
0000
0000
0000
0000
0000
0000
,
0011
0000
0000
0000
0000
0000
0000
0000
0000
0000
0000
0000
0000
0000
0000
0000
0011
0000
0000
0000
0000
0000
0000
0000
0000
0000
0000
0000
0000
0000
0000
0000
0001
0000
0000
0000
0001
0000
0000
0000
0000
0000
0000
0000
0000
0010
0000
0000
0000
0000
0000
0000
0000
0000
0000
0000
0100
0000
0000
0000
0000
0000
0000
0000
,
0110
0000
0000
0000
0000
0000
0000
0000
0000
0000
0000
0000
0000
0000
0000
0000
0110
0000
0000
0000
0000
0000
0000
0000
0000
0000
0000
0000
0000
0000
0000
0000
0010
0000
0000
0000
0010
0000
0000
0000
0000
0000
0000
0000
0000
0100
0000
0000
0000
0000
0000
0000
0000
0000
0000
0000
1000
0000
0000
0000
0000
0000
0000
0000
,
1100
0000
0000
0000
1100
0000
0000
0000
0010
0000
0100
1000
0000
0000
0001
0000
,
0010
0000
0000
0000
0000
0000
0000
0000
0022
0000
0000
0000
0000
0000
0000
0000
0033
0000
0000
0000
0000
0000
0000
0000
1000
0000
0000
0000
0000
0000
0000
0000
0001
0000
0000
0000
0010
0000
0000
0000
0000
0000
0000
0000
0000
0100
0000
0000
0000
0000
0000
0000
0000
0000
0000
0000
1000
0000
0000
0000
0000
0000
0000
0000
,
2200
0000
0000
0000
0000
0000
0000
0000
3300
0000
0000
0000
0000
0000
0000
0000
0020
0000
0000
0000
0030
0000
0000
0000
00M1
0000
0000
0000
0000
0000
0000
0000
0010
0000
0000
0000
0000
0000
0000
0000
0100
0000
0000
0000
0000
1000
0000
0000
0000
0000
0000
0000
0000
0000
0000
0000
0001
0000
0000
0000
0000
0000
0000
0000
,
0101
0000
0000
0000
0000
0000
0000
0000
0010
0000
0000
0000
0000
0000
0000
0000
1000
0000
0000
0000
0000
0000
0000
0000
0100
0000
0000
0000
0000
0000
0000
0000
1000
0000
0000
0000
0000
0000
0000
0000
0100
0000
0000
0000
0000
0010
0000
0000
0000
0000
0000
0000
0000
0000
0000
0000
0001
0000
0000
0000
0000
0000
0000
0000
,
2200
0000
0000
0000
0000
0000
0000
0000
3300
0000
0000
0000
0000
0000
0000
0000
0020
0000
0000
0000
0000
0000
0000
0000
1030
0000
0000
0000
0000
0000
0000
0000
0001
0000
0000
0000
1000
0000
0000
0000
0000
0000
0000
0000
0000
0001
0000
0000
0000
0000
0000
0000
0000
0000
0000
0000
0001
0000
0000
0000
0000
0000
0000
0000
,
0202
0303
0404
0000
0000
0000
0303
0010
,
0001
0110
1000
0110
,
0001
0110
1000
0110
,
0010
1001
0100
1001
,
0010
0000
0000
0000
1001
0000
0000
0000
0100
0000
4004
0000
0000
3003
0010
0000
,
1100
0000
0000
0000
0001
0000
0001
0000
0011
0000
0000
0100
0000
0000
0100
0000
,
1100
0000
0000
0000
0001
0000
0001
0000
0011
0000
0000
0100
0000
0000
0100
0000
,
1100
0000
0000
0000
0010
0000
0100
0000
0101
0000
0000
1000
0000
0000
1000
0000
,
1100
0000
0000
0010
0000
0000
0010
0000
0101
0000
0000
0000
1000
0100
0010
0000
,
MMMM
MMMM
0202
1313
,
2100
0001
0010
3001
,
0012
1000
0100
1003
,
1000
0010
0000
0000
2000
0000
0000
0000
0200
0000
0000
0000
0002
0000
0000
0000
,
0000
3303
0000
0000
0000
0000
0000
0000
,
0000
0000
0000
0000
0000
0000
0100
0010
0000
0000
0000
0000
2000
0000
0000
0000
,
0002
3003
2000
0002
3013
0000
0002
0000
,
2000
3003
0002
2000
3103
0000
0000
0000
,
0000
0000
0000
0000
0000
0000
0000
0000
0000
0000
1000
0000
0010
0000
0000
0100
0000
0000
1001
0000
0000
0000
0000
0000
0000
0000
0000
0000
0000
0000
0000
0000
,
0000
0000
0000
0000
0000
0000
0000
0000
0000
0000
1000
0000
0000
0000
0000
0000
0000
0000
0200
0000
0000
0000
0000
0000
2000
0000
0000
0000
0000
0000
0000
0000
0000
0300
0000
0000
0001
0000
0000
0000
0000
0000
0000
0000
0000
0000
0000
0000
3000
0000
0000
0000
0000
0000
0000
0000
0000
0000
0000
0000
0000
0000
0000
0000
0000
0000
0000
0000
0000
0000
0000
0000
1000
0000
0000
0000
0000
0000
0000
0000
0000
0000
0000
0000
0100
0000
0000
0000
0000
0000
0000
0000
0000
1000
0000
0000
,
0000
0000
0100
0000
0001
0000
0000
0010
,
0010
0000
0000
2000
0002
0000
0000
0000
3013
0000
0000
0000
1000
0100
0000
0000
,
1100
0000
0000
0000
0000
0000
0000
0000
0000
0100
0000
1000
0000
0000
0000
0000
0000
0000
0000
0000
0000
0000
0000
0000
1100
0000
0000
0000
0000
0000
0000
0000
0000
2000
0000
0200
0000
0000
0000
0000
0000
0000
0000
0000
0000
0000
0000
0000
3310
0000
0000
0000
0000
0000
0000
0000
0000
0000
0000
0000
0000
0000
0000
0000
,
0101
0000
0000
0000
0000
0000
0000
0000
0000
0001
0000
0100
0000
0000
0000
0000
0000
0000
0000
0000
0000
0000
0000
0000
0101
0000
0000
0000
0000
0000
0000
0000
0000
0200
0000
0002
0000
0000
0000
0000
0000
0000
0000
0000
0000
0000
0000
0000
0313
0000
0000
0000
0000
0000
0000
0000
0000
0000
0000
0000
0000
0000
0000
0000
,
1001
0000
0000
0000
0000
0000
0000
0000
0000
0001
0000
1000
0000
0000
0000
0000
0000
0000
0000
0000
0000
0000
0000
0000
1001
0000
0000
0000
0000
0000
0000
0000
0000
2000
0000
0002
0000
0000
0000
0000
0000
0000
0000
0000
0000
0000
0000
0000
3013
0000
0000
0000
0000
0000
0000
0000
0000
0000
0000
0000
0000
0000
0000
0000
,
1001
0000
0000
0000
0000
0000
0000
0000
0000
1000
0000
0001
0000
0000
0000
0000
0000
0000
0000
0000
0000
0000
0000
0000
1001
0000
0000
0000
0000
0000
0000
0000
0000
0002
0000
2000
0000
0000
0000
0000
0000
0000
0000
0000
0000
0000
0000
0000
3013
0000
0000
0000
0000
0000
0000
0000
0001
0000
0000
0000
0000
0000
0000
0000
,
0101
0000
1000
0010
0000
0000
1010
0000
0001
0100
0000
0000
0110
0000
1000
0000
,
1100
0000
0001
0010
0000
0000
0011
0000
1000
0100
0000
0000
0110
0000
0001
0000
,
0011
0000
1000
0100
0000
0000
1100
0000
0001
0010
0000
0000
0110
0000
1000
0000
,
1010
0000
0001
0100
0000
0000
0101
0000
1000
0010
0000
0000
0440
0000
0000
0330
,
0101
0000
0000
0000
0000
0000
1000
0000
0000
0020
0000
0000
1000
0000
0000
0030
0000
0000
1000
0000
0000
0000
0000
0000
0001
0000
0000
0200
0000
0000
0000
0300
0000
0000
0000
0000
1001
0000
0000
0000
0000
0000
2000
0000
0000
0000
0000
0000
,
0002
0000
0000
3000
0000
0000
0200
0000
0000
0000
0003
0000
2000
0000
0000
0000
0300
0000
0020
0000
0000
0000
3000
0000
0002
0000
0000
0030
0000
0000
0200
0000
0000
0000
0000
0000
1303
0000
0000
0000
0000
0000
0000
0000
0000
0000
0000
0000
,
1100
0000
0000
0000
0000
0000
0001
0000
0000
0020
0000
0000
0001
0000
0000
0030
0000
0000
0001
0000
0000
0000
0000
0000
1000
0000
0000
0200
0000
0000
0000
0300
0000
0000
0000
0000
1001
0000
0000
0000
0000
0000
0002
0000
0000
0000
0000
0000
,
2000
0000
0000
0003
0000
0000
0200
0000
0000
0000
3000
0000
0002
0000
0000
0000
0300
0000
0020
0000
0000
0000
0003
0000
2000
0000
0000
0030
0000
0000
0200
0000
0000
0000
0000
0000
3301
0000
0000
0000
0000
0000
0000
0000
0000
0000
0000
0000
,
MMMM
0000
0100
0001
0000
0000
0001
0000
0100
0001
0000
0000
0202
0000
0303
0000
,
MMMM
0000
0010
1000
0000
0000
1000
0000
0010
1000
0000
0000
2020
0000
3030
0000
,
MMMM
0000
1000
0001
0000
0000
0001
0000
1000
0001
0000
0000
1001
0000
M00M
0000
,
0001
0000
0000
1000
0000
0000
0100
0000
0010
0000
0000
0000
0001
0010
0001
0000
,
0000
0000
0000
0000
2000
0200
0000
0000
,
0000
0000
0011
0000
0000
0000
3300
10MM
,
1000
0000
0000
0000
0000
0000
0000
0000
0000
0000
0000
0000
0000
0000
0000
0000
0000
0000
0010
0000
0000
0000
0000
0000
0000
0000
0000
0000
0000
0000
0000
0000
0000
0000
0000
0000
0000
0000
0000
0100
0000
0000
0000
0000
0000
0000
0000
0000
0000
0000
0000
0000
0000
0000
0000
0000
0000
0000
0000
0000
0001
0000
0000
0000
0000
0000
0000
0000
0000
0000
0000
0000
0000
0000
0000
0000
0000
0000
0000
0000
0010
0000
0000
0000
0000
0000
0000
0000
0000
0000
0000
0000
0000
0000
0000
0000
0000
0000
0000
0000
0000
0000
0000
0000
0000
0000
0000
0000
0000
0000
0000
0000
0000
0000
0000
0000
0000
0000
0000
0000
0000
0000
0000
0000
0000
0000
0000
0000
0000
0000
0000
0000
0000
0000
0000
0000
0000
0000
0000
0000
0000
0000
0000
0000
0000
0000
0000
0000
0000
0000
0000
0000
0000
0000
0000
0000
0000
0000
0000
0000
0000
0000
0000
0000
0000
0000
0000
0000
0000
0000
0000
0000
0000
0000
0000
0000
0000
0000
0000
0000
0000
0000
0000
0000
0000
0000
0000
0000
0000
0000
0000
0000
,
0000
0000
0000
0000
,
0000
0000
0000
0000
;
