#TITLE:Love Can't Turn Around;
#SUBTITLE:(feat. The Heritage Orchestra & Jules Buckley);
#ARTIST:Pete Tong x Riton x Vula;
#CREDIT:Illumi Music, vndt_;
#MUSIC:LoveCantTurnAround_audio.ogg;
#SELECTABLE:YES;
#BACKGROUND:lovecantturnaround_bg.png;
#BANNER:lovecantturnaround_bg.png;
#CDTITLE:;
#OFFSET:-0.167;
#SAMPLESTART:35.167;
#SAMPLELENGTH:17.000;
#BPMS:0=120;
#STOPS:;
#BGCHANGES:-0.5=lovecantturnaround_video.mp4=1.000=1=0=0=StretchNoLoop==CrossFade==,
247.50=Rasputin_bg.png=1.000=1=0=1===CrossFade==,
99999=-nosongbg-=1.000=0=0=0 // don't automatically add -songbackground-

//---------------dance-single - ----------------
#NOTES:
     dance-single:
     :
     Beginner:
     6:
     0.000,0.000,0.000,0.000,0.000:
0000
0000
0000
0000
,
0000
0000
0000
0000
,
0001
0000
0000
0000
0010
0000
0000
0200
0000
0000
1300
0000
0000
0000
0000
1000
,
0000
0000
0000
0100
0000
0000
0000
0020
0000
0000
0031
0000
0000
0000
0000
0200
,
0000
0320
0000
0000
0030
0000
0000
0200
,
0000
0320
0000
0000
0030
0000
0000
0000
,
1000
0000
0000
0000
0010
0000
0000
0000
1000
0000
0000
0000
0000
0000
0000
0001
,
0000
0000
0000
0100
0000
0000
0000
0001
0000
0000
0000
1000
0000
0000
0000
0200
,
0000
0320
0000
0000
0030
0000
0000
0220
,
0000
0000
0330
0000
,
1000
0000
0000
0000
0010
0000
0000
0200
0000
0000
0301
0000
0000
0000
0000
0001
,
0000
0000
0000
0100
0000
0000
0000
0020
0000
0000
1030
0000
0000
0000
0000
0200
,
0000
0320
0000
0000
0030
0000
2002
0000
,
0000
0000
0000
0000
3003
0000
0000
0000
0000
0000
0000
0000
0000
0000
0000
1000
,
0000
0000
0000
0010
0000
0000
0000
1000
0000
0000
0000
0001
0000
0000
0000
0100
,
0000
0000
0000
0001
0000
0000
0000
1000
0000
0000
0000
0000
0010
0000
0000
0200
,
0000
0320
0000
0000
0030
0000
0220
0000
,
0000
0000
0000
0000
0330
0000
0000
0000
0001
0000
0000
0010
0000
0000
0200
0000
,
0000
1000
0010
1000
,
0310
0000
0000
0000
0100
0000
0000
0000
1000
0000
0000
0010
0000
0000
0200
0000
,
0000
0001
0010
0001
,
0310
0000
0000
0000
0100
0000
0000
0000
0001
0000
0000
0001
0000
0000
0002
0000
,
0000
0100
1000
0010
,
1003
0000
0000
0000
0001
0000
0000
0000
1000
0000
0000
1000
0000
0000
2000
0000
,
0000
0100
0001
0010
,
3001
0000
0010
0010
0010
0010
0010
0010
,
0110
0000
0000
0000
0010
0000
0000
0010
0000
0000
0220
0000
0000
0330
0000
0000
,
0001
0000
0000
0000
0001
0000
0000
0001
0000
0000
2002
0000
0000
3003
0000
0000
,
0100
0000
0000
0000
0100
0000
0000
0100
0000
0000
0220
0000
0000
0330
0000
0000
,
1000
0000
0000
0000
1000
0000
0000
1000
0000
0000
2001
0000
0000
0000
0000
3000
,
0001
0000
0000
0000
0100
0000
0000
0020
0000
0000
1030
0000
0000
0000
0000
1000
,
0000
0000
0000
0010
0000
0000
0000
0200
0000
0000
0301
0000
0000
0000
0000
0020
,
0000
0230
0000
0000
0300
0000
0020
0000
,
0200
0000
0330
0000
,
1000
0000
0000
0000
0100
0000
0000
0000
1000
0000
0000
0000
0000
0000
0000
0001
,
0000
0000
0000
0010
0000
0000
0000
0001
0000
0000
0000
0000
1000
0000
0000
0020
,
0000
0230
0000
0000
0320
0000
0000
0000
,
0030
0000
0000
0000
,
1000
0000
0000
0000
0100
0000
0000
0020
0000
0000
0031
0000
0000
0000
0000
0001
,
0000
0000
0000
0010
0000
0000
0000
0200
0000
1000
0300
0000
0000
0200
0000
1000
,
0000
0001
1000
0002
,
0003
0000
2000
0000
3300
0000
0000
0000
0000
0000
0000
0000
0000
0000
0000
1000
,
0000
0000
0000
0100
0000
0000
0000
2000
0000
0000
3001
0000
0000
0000
0000
0010
,
0000
0000
0000
0001
0000
0000
0000
1000
0000
0000
0000
0000
0100
0000
0000
0020
,
0000
0230
0000
0000
0300
0000
0220
0000
,
0000
0000
0000
0000
0330
0000
0000
0000
1000
0000
0000
1000
0000
0000
0200
0000
,
1000
0001
1000
0001
,
1300
0010
1000
1000
,
0020
1000
0001
1000
,
0031
0020
0230
0302
,
0023
1000
0001
1000
,
0031
0000
0000
0000
0020
0000
0000
0000
2000
0000
0000
3000
0002
0000
0030
0000
,
0203
1000
0001
1000
,
0301
0000
0000
0000
1000
0000
0000
0000
0000
0000
0220
0000
0000
0330
0000
0000
,
1000
0000
0000
0000
1000
0000
0000
1000
0000
0000
0020
0000
0000
0000
0030
0000
,
0100
0000
0000
0000
0100
0000
0000
0100
0000
0000
0002
0000
0000
0000
0003
0000
,
0010
0000
0000
0000
0010
0000
0000
0010
0000
0000
0200
0000
0000
0000
0300
0000
,
1000
0000
0000
0000
1000
0000
0000
1000
0000
0000
0002
0000
0000
0000
0003
0000
,
0001
0000
0001
0000
0001
0000
0000
0010
0000
0000
0020
0000
0000
0000
0030
0000
,
0100
0000
0100
0000
0100
0000
0000
1000
0000
0000
2000
0000
0000
0000
3000
0000
,
0010
0000
0010
0000
0010
0000
0000
0100
0000
0000
0200
0000
0000
0000
0300
0000
,
0001
0000
0001
0000
0001
0000
0000
1000
0000
0000
2000
0000
0000
0000
3000
0000
,
0000
0000
0000
0000
;

//---------------dance-single - ----------------
#NOTES:
     dance-single:
     :
     Easy:
     9:
     0.000,0.000,0.000,0.000,0.000:
0000
0000
0000
0000
,
0000
0000
0000
0000
0000
0000
0000
1000
,
0001
0000
0010
0000
0100
0000
0000
2000
0000
0000
3100
0000
0000
1000
0000
0010
,
0000
1000
0000
0100
0000
0010
0000
0002
0000
0000
0013
0000
0000
0000
0000
0200
,
0000
0320
0000
0000
0030
0000
0000
0200
,
0000
0320
0000
0000
0030
0000
0000
0001
,
0001
0000
0001
0000
0010
0000
0000
0000
0001
0000
0000
1000
0000
1000
0000
1000
,
0000
1000
0000
0100
0000
1000
0000
1000
0000
0000
0000
0001
0000
0010
0000
0200
,
0000
0320
0000
0000
0030
0000
0000
0220
,
0000
0000
0000
0000
0330
0000
0000
0001
,
1000
0000
0010
0000
0100
0000
0000
0002
0000
0000
0103
0000
0000
0000
0000
0001
,
0000
0000
0000
0100
0000
0010
0000
1000
0000
0000
0010
0000
0000
0000
0000
0200
,
0000
0320
0000
0000
0030
0000
2002
0000
,
0000
0000
0000
0000
3003
0000
0000
0000
0000
0000
0000
0000
0000
1000
0000
1000
,
0000
1000
0000
0010
0000
1000
0000
1000
0000
0001
0000
0001
0000
0001
0000
0100
,
0000
0001
0000
0001
0000
1000
0000
0010
0000
1000
0000
0000
0010
0000
0000
0200
,
0000
0320
0000
0000
0030
0000
0220
0000
,
0000
0000
0000
0000
0330
0000
0000
0000
0001
0000
0000
0100
0000
0000
1000
0000
,
1100
0101
0011
1010
,
1000
0000
0000
0000
1000
0000
0000
0000
1000
0000
0000
0010
0000
0000
0001
0000
,
0020
0000
0001
0000
1000
0000
0031
2000
,
0000
0000
0000
0000
3000
0000
0000
0000
1000
0000
0000
0100
0000
0000
0001
0000
,
0101
1100
1010
0011
,
0001
0000
0000
0000
0001
0000
0000
0000
0001
0000
0000
0010
0000
0000
1000
0000
,
0020
0000
1000
0000
0001
0000
1030
0200
,
0000
0000
0310
0100
0010
0100
0010
0100
,
0110
0000
0001
0000
0010
0000
0001
0010
0000
0000
0000
0000
0000
0000
0000
0000
,
0001
0000
0100
0000
0001
0000
0100
0001
0000
0000
0000
0000
0000
0000
0000
0000
,
1000
0000
0010
0000
1000
0000
0010
1000
0000
0000
0000
0000
0000
0000
0000
0000
,
1000
0000
0100
0000
1000
0000
0100
1000
0000
0000
0200
0000
0000
0000
0000
0000
,
1300
0000
0010
0000
0100
0000
0000
0001
0000
0000
0100
0000
0001
0000
0010
0000
,
0000
0100
0000
1000
0000
0100
0000
2000
0000
3000
M010
0000
0000
0000
0000
0200
,
0000
0320
0000
0000
0030
0000
0000
0000
,
0000
0000
0000
0000
0000
0000
0000
0001
,
0100
0000
0010
0000
1000
0000
0000
0200
0000
0000
1300
0000
0001
0000
0010
0000
,
0000
0100
0000
1000
0000
0010
0000
0200
0000
0000
0301
0000
1000
0000
0000
0002
,
0000
2003
0000
3000
0020
0000
1000
0000
,
0030
0000
0000
0000
0000
0000
0000
1000
,
0100
0000
0010
0000
0001
0000
0000
0200
0000
0000
0301
0000
0000
1000
0000
0010
,
0000
0100
0000
0001
0000
0010
0000
0200
0000
1300
0000
0000
0001
0000
0000
2000
,
0000
3002
0023
0032
,
0000
0000
0003
0000
0000
0000
0000
1000
,
0100
0000
1000
0000
0001
0000
0000
2000
0000
0000
3010
0000
0100
0000
0000
0001
,
0000
0100
0000
1000
0000
0100
0000
0001
0000
0010
0000
0000
0110
0000
0000
0110
,
0000
0220
0000
0000
0330
0000
2002
0000
,
0000
0000
0000
0000
3003
0000
0000
0000
1000
0000
0000
1000
0000
0000
1000
0000
,
0001
0100
1000
0010
,
0001
0010
1000
1000
,
0001
0010
1000
0100
,
0001
0002
0023
0230
,
1300
0010
0001
0100
,
1000
0000
0000
0000
0020
0000
0000
0000
2000
0000
0000
3000
0002
0000
0030
0000
,
0013
1000
0100
0001
,
0010
0000
1000
0000
0000
0110
0000
1001
,
1000
0000
0000
0000
0010
0000
1000
0010
0000
0000
2020
0000
0000
0000
3030
0000
,
0001
0000
0000
0000
0010
0000
0001
0010
0000
0000
0022
0000
0000
0000
0033
0000
,
0001
0000
0000
0000
0100
0000
0001
0100
0000
0000
0202
0000
0000
0000
0303
0000
,
1000
0000
0000
0000
0100
0000
1000
0100
0000
0000
4400
0000
0000
0000
3300
0000
,
0001
0000
0001
0000
0010
0000
0010
0001
0000
0000
0022
0000
0000
0000
0033
0000
,
1000
0000
1000
0000
0010
0000
0010
1000
0000
0000
2020
0000
0000
0000
3030
0000
,
1000
0000
1000
0000
0100
0000
0100
1000
0000
0000
2200
0000
0000
0000
3300
0000
,
0001
0000
0001
0000
0100
0000
0100
0001
0000
0000
0202
0000
0000
0000
0303
0000
,
0000
0000
0000
0000
;
