#TITLE:Loadsamoney;
#SUBTITLE:Doin' Up the House;
#ARTIST:Harry Enfield;
#CREDIT:Vndt;
#MUSIC:LODSOFEMONE_audio.ogg;
#SELECTABLE:YES;
#BACKGROUND:loadsamoney_bg.png;
#BANNER:loadsamoney_bg.png;
#CDTITLE:;
#OFFSET:-5.13299;
#SAMPLESTART:30.102;
#SAMPLELENGTH:7.802;
#BPMS:0=115.349,2=115.354,3=115.349,10=115.354,11=115.349,18=115.354,19=115.349,24=113.762,25=115.349,26=115.354,27=115.349,34=115.354,35=115.349,43=115.354,44=115.349,47=116.651,48=115.349,51=115.354,52=115.349,59=115.354,60=115.349,67=115.354,68=115.349,75=115.354,76=115.349,190=115.672,194=115.349,212=114.392,213=115.349,221=112.219,222=115.349,285=115.997,286=115.672,288=115.349;
#STOPS:;
#BGCHANGES:-9.86=loadsamoney_video.mov=1.000=1=0=0=StretchNoLoop==CrossFade==,
99999=-nosongbg-=1.000=0=0=0 // don't automatically add -songbackground-;

//---------------dance-single - ----------------
#NOTES:
     dance-single:
     :
     Beginner:
     2:
     0.000,0.000,0.000,0.000,0.000:
0000
0000
0000
0000
,
0001
0000
0010
0000
,
0000
0001
0000
0000
0000
0000
0000
0000
,
0001
0000
1000
0000
,
1000
0010
0000
0000
,
0000
0000
0000
0000
,
0010
0000
0010
0000
,
0010
0000
0100
0000
,
0001
0000
0010
0000
,
0000
0000
0004
0000
,
0003
4000
0000
3000
,
0000
0000
0000
0000
,
0001
0001
1000
1000
,
1001
0010
0100
0010
,
0100
0010
0220
0330
,
2002
0000
0000
3003
1000
0000
0000
0001
,
0000
0010
0100
0010
,
0000
0000
0000
0000
,
2100
0000
0010
3010
,
0010
0010
0010
0000
,
0100
0100
0100
0000
,
0001
0001
0001
0000
,
0100
0100
0100
0000
,
0102
0000
0010
0000
,
0010
0000
0000
0010
0003
0000
0000
0000
,
1001
0000
0000
0000
,
2002
0000
3003
0000
,
0001
0000
0220
0000
,
0000
0000
0330
0000
,
1000
0000
0000
0000
0010
0000
0000
0100
,
0000
0000
0000
0000
,
0001
0000
0001
0000
,
0010
0000
0010
0000
,
0100
0000
0100
0000
,
1000
1000
1000
1000
,
0004
0000
0000
0000
0000
0003
0000
0000
,
1001
0001
0000
0000
,
0000
0000
0000
0000
0000
0001
0000
0000
,
0001
0000
0001
0000
,
0001
0000
0000
0110
,
0000
0000
0000
0000
,
0000
0000
0000
0000
,
1000
0000
0000
0100
,
0000
0010
0000
0001
,
0000
0000
0001
0000
,
0000
1001
0000
1001
,
0000
0002
0000
1003
,
0000
0000
0000
0000
0000
0100
0000
0000
0000
0000
0000
0000
0000
0000
0000
0000
0000
0000
0000
0000
0010
0000
0000
0000
0000
0000
0000
0000
0000
0000
0000
0000
,
0100
0000
0000
1000
,
0000
0000
1000
0010
,
1000
0000
0000
0010
,
0000
0010
0000
1000
,
0000
1000
0000
0010
,
0000
0010
0000
0100
,
0000
0100
0000
0001
,
0000
0001
1000
0000
,
0010
0000
0001
0000
,
0100
0000
1000
0000
,
0010
0000
0001
0000
,
0100
0000
1000
0000
,
0010
0000
0001
0000
,
0100
0000
1000
0000
,
0010
0000
1000
0000
,
1001
0000
0001
0000
,
1001
0000
1000
0000
,
1001
0000
0001
0000
,
0010
0000
0001
0000
,
0100
0001
0001
0000
,
0100
0001
0001
0000
,
0100
0001
0001
0000
,
0100
0001
1000
0000
,
0100
1000
1000
0000
,
0100
1000
1100
0000
,
1100
0000
2100
0000
,
3010
0000
0101
0000
,
0101
0000
0102
0000
,
0013
0000
2010
0000
,
3010
0000
0012
0000
,
0013
0000
0001
0000
,
0010
0010
0100
0000
,
1000
0000
0001
1000
,
0001
1000
1001
1001
,
1001
0000
1000
0000
,
0010
0010
0100
0000
,
0001
0000
1000
0001
,
1000
0001
1001
1001
,
1001
0000
0000
0000
,
0000
0000
0000
0000
,
0000
0000
0000
0000
,
0000
0000
0000
0000
,
0000
0000
0000
0000
,
0000
0000
0000
0000
,
0000
0000
0000
0000
;

//---------------dance-single - ----------------
#NOTES:
     dance-single:
     :
     Easy:
     7:
     0.000,0.000,0.000,0.000,0.000:
0000
0000
0000
0000
,
0001
0000
0010
0000
,
0000
0000
0001
1000
0000
0000
0000
0000
0000
0000
0000
0000
0000
0000
0000
0000
,
0001
0000
0000
0000
0000
0000
0000
0000
1000
0001
0000
0000
0000
0000
0000
0000
,
1000
1000
0010
0010
0000
0000
0100
0000
,
0001
0100
0010
1000
,
0010
1000
0000
0000
0010
1000
0000
0000
,
0010
0000
1000
0000
0000
0000
0000
0000
0100
1000
0000
0100
1000
0000
0000
0000
,
1000
0000
0000
0000
0010
0000
0000
0000
0100
0000
0000
0010
0000
0000
0000
0000
,
0000
0000
0040
0000
,
0030
4000
0000
3000
,
0000
0000
0000
0000
,
0001
0001
1000
1000
,
1001
0010
0100
0010
,
0100
0000
0010
0000
0100
0010
0100
0000
,
1001
0000
0000
0001
1000
0000
0000
0000
1000
0000
0000
0000
0000
0000
0001
0000
,
0010
0000
0010
0000
0100
0000
0010
0001
,
0010
0010
0001
0010
0000
0000
0000
0000
,
0100
1000
0000
0010
0010
0000
0010
0000
,
1010
0010
0010
0000
,
1100
0100
0100
0000
,
0101
0001
0001
0000
,
0101
0100
0100
0000
,
0102
0000
0010
0000
,
0010
0000
0000
0010
0003
0001
0000
0000
,
1000
0000
0000
0001
0000
0000
0000
0000
0000
0000
0000
0000
0000
0000
0000
0000
,
2002
0000
0000
0000
0000
0000
0000
0000
3003
0000
0000
0000
0001
1000
0000
0000
,
0001
0000
0220
0000
,
0000
0000
0330
0000
,
1000
0000
0000
0000
0000
0000
0000
0000
0010
0000
0000
0000
0100
0000
0001
0100
,
0000
0000
0000
0000
0000
0000
0000
0001
,
0001
0010
0001
0100
,
0010
0000
1000
0000
0100
0000
1000
0100
,
0100
1000
0010
1000
,
0001
1000
0001
0000
1000
0001
1000
0000
,
0004
0000
0000
0000
0000
0003
0000
0000
,
1000
0000
0001
0000
0000
0010
0000
0000
0000
0000
0000
0001
0000
0000
0000
0010
,
0000
0000
0000
0011
0000
0000
0000
0000
0000
0000
0001
0000
0000
0001
0000
0000
,
0001
0000
0000
0001
0000
0000
0000
0000
0001
0000
0000
0001
0000
0000
0000
0000
,
0001
0000
0000
0000
0000
0000
0000
0000
0000
0000
0000
0000
0110
0000
0000
0010
,
0000
0100
0000
0000
0000
0000
0004
0000
,
0003
0040
0030
0004
,
1003
0000
0000
0000
0100
0000
0000
0000
0000
0000
0000
0000
0100
0000
1000
0100
,
0000
0000
0000
0000
0010
0000
0000
0000
0000
0000
0000
0000
0001
0010
0000
0000
,
0000
0000
0000
0000
0000
0000
0000
0000
0000
0001
0000
0000
0000
0000
0001
0000
,
0000
0000
0001
0000
0010
0000
0000
0001
0000
0010
0000
0000
1001
0000
0000
0000
,
0000
1000
0000
0000
0002
0000
0000
0000
0000
0000
0000
0000
1003
0000
0000
0000
,
0000
0000
0000
0000
0000
0100
0000
0000
0000
0000
0000
0000
0010
0000
0001
0000
0000
0000
0000
0000
0010
0000
0000
0000
0000
0000
0000
0000
0000
0000
0000
0000
,
0100
1000
0000
0000
0100
0000
0000
1000
0000
0000
1000
0000
1000
0000
0000
0000
,
0000
0000
1000
0010
,
1000
0000
0000
0010
0000
0000
0000
0000
0000
0000
0000
0000
1000
0000
0000
0000
,
0010
0100
0001
1000
,
0010
0100
0001
0010
,
0100
1001
0001
0010
,
0100
1000
0010
0100
,
0001
0010
0000
0000
0001
0000
0000
0000
1000
0000
0000
0000
0010
0000
0000
0000
,
0001
0100
1000
0010
,
0100
0001
1000
0100
,
0001
0010
1000
0100
,
0010
0001
0001
0010
,
1000
0100
0001
0010
,
0100
1000
0001
0100
,
1000
0000
0010
0000
1000
0100
0000
0000
,
1010
0000
0000
0001
0100
0001
0000
0000
,
0011
0000
0000
1000
0100
1000
0000
0000
,
1010
0000
1001
0000
,
1000
0010
0000
0000
1000
0000
0000
0000
0001
0000
0001
0000
0100
0000
0100
0000
,
0001
0000
0101
0000
1000
1000
0010
0010
,
1000
0000
1010
0000
1000
1000
0100
0100
,
1000
0000
1100
0000
0001
0001
0010
0010
,
0001
0000
0011
0000
1000
1000
0001
0001
,
1000
0001
0000
0000
1002
0000
0000
0000
0103
0000
0100
0000
0010
0000
0010
0000
,
0100
0010
0000
0000
0110
0000
0000
0000
0001
0000
0100
0000
0100
0000
0000
0000
,
0001
0100
0100
0000
0001
0100
0100
0000
,
0001
0000
0010
0000
0000
0000
0000
0000
0100
0000
1000
0100
0000
0000
0000
0000
,
0100
0000
1000
0100
0000
0000
0000
0000
0100
0000
1000
0100
0000
0000
0000
0000
,
1000
0000
0100
0000
0000
0000
0000
0000
1000
0000
0100
0000
1000
0200
0000
0000
,
0310
0000
0000
0000
0000
0000
0000
0000
0001
0000
0100
0000
0001
0200
0000
0000
,
0310
0000
1000
1000
,
0010
00M0
0010
0000
0010
1000
0001
1000
,
1001
0000
0000
0000
1000
0001
1000
0001
,
1000
0001
1000
0001
1001
0000
1001
0000
,
1001
0000
0001
0001
,
0010
00M0
0010
0000
0010
0001
1000
0001
,
1001
0000
0000
0000
0001
1000
0001
1000
,
0001
1000
0001
1000
1001
0000
1001
0000
,
1001
0000
0000
0000
,
0000
0000
0000
0000
,
0000
0000
0000
0000
,
0000
0000
0000
0000
,
0000
0000
0000
0000
,
0000
0000
0000
0000
,
0000
0000
0000
0000
;

//---------------dance-single - ----------------
#NOTES:
     dance-single:
     :
     Medium:
     9:
     0.000,0.000,0.000,0.000,0.000:
0000
0000
0000
0000
,
0001
0000
0000
0000
0000
0010
0001
0000
0010
0000
0100
0000
0000
0000
1000
0000
,
0010
0000
1000
0001
0000
0000
0000
0000
0000
0000
0000
0000
0000
0000
0000
0000
,
1001
0000
0000
0000
0000
0000
0001
0000
1000
0001
0000
0000
0000
0000
0001
0000
,
0100
0100
0001
0100
0000
0000
0100
0000
,
0001
0100
0010
1000
,
0010
1000
0000
0000
0000
0000
0000
0000
0010
1000
0000
0000
0000
0000
0000
0000
,
0010
1000
0000
0000
0000
0000
0000
0100
0000
1000
0000
0100
1000
0000
0000
0000
,
1001
0000
0000
0000
0110
0000
0000
0000
2001
0000
0000
0010
3000
0000
0000
0000
,
1000
0100
1000
0001
0010
0001
0010
0001
,
1000
0010
1000
0100
1000
0100
1000
0100
,
1000
0100
1000
0000
0010
0000
0100
0000
,
0001
0001
1000
1000
,
1001
0010
0100
0010
,
0100
0000
0010
0000
0100
0010
0100
0000
,
1001
0000
0000
0001
0010
0100
0000
0000
1000
0000
0010
0000
0000
0000
0010
0000
,
0010
0000
1000
0000
0000
0010
1000
0000
0100
0010
0000
0000
0001
0000
0010
0000
,
0001
0001
0010
0001
0000
0000
0000
0000
,
1000
0100
0000
0010
0010
0001
0001
1000
,
0010
0000
0010
0000
1000
0000
1000
0000
0010
0000
0010
0000
0000
MMMM
0000
0000
,
1000
0000
1000
0000
0100
0000
0100
0000
1000
0000
1000
0000
0000
MMMM
0000
0000
,
0001
0000
0001
0000
0100
0000
0100
0000
0001
0000
0001
0000
0000
MMMM
0000
0000
,
0010
0000
0010
0000
0001
0000
0001
0000
0010
0000
0010
0000
0000
MMMM
0000
0000
,
0001
0200
0000
0000
0000
0000
0000
0000
0310
0000
0010
0000
0000
0000
0000
0010
,
0000
0000
0010
0000
0000
0000
0010
0000
0000
1000
0010
0000
0000
0000
0000
0000
,
0000
1000
0001
1000
0001
0000
0000
0010
0000
0000
0100
0000
0000
1000
0000
0000
,
2002
0000
0000
0000
0000
0000
0000
0000
3003
1000
0000
0010
0000
0100
0010
0000
,
1000
0100
0000
0000
0220
0000
0000
0000
,
0000
0000
0000
0000
0000
0000
0000
0000
0330
0000
0000
0000
0000
0000
0000
1000
,
0000
0010
0000
0100
0000
0000
0000
0000
0110
0000
0000
0000
1001
0000
0001
0100
,
0000
0000
0000
0000
0000
0000
0000
0001
0000
0001
0000
0000
0010
0000
0001
0001
,
0001
0000
0010
0000
0100
0000
1000
0000
0010
0000
0100
0000
0010
0100
0000
0010
,
0100
0000
0001
0000
0100
0000
0010
0000
1000
0000
0010
0000
0100
0010
0000
1000
,
1000
0100
0010
0001
0010
0100
0010
0100
,
0010
0001
1001
0001
1000
0001
1000
0010
,
0000
0400
0000
0000
0000
0000
0000
0000
0000
0000
0000
0000
0300
0000
0000
0000
,
0001
0000
1000
0000
0000
0010
0000
0000
0000
0000
0000
0100
0000
0000
0000
0010
,
0000
0000
0000
2020
0000
0000
0000
0000
3030
0000
0001
0010
0000
0001
0010
0000
,
0001
0010
0000
0001
0010
0000
0001
0000
0001
0010
0000
0001
0010
0000
0000
0001
,
0010
0000
0001
0000
0010
0000
0100
0000
1000
0000
0010
0000
0110
0000
0000
0010
,
0000
0000
0100
0000
0000
0000
0000
0000
1000
0010
0000
1000
0010
0000
0000
0000
,
0100
0001
0000
0100
0001
0000
0000
0000
0001
0010
0000
0001
0010
0000
0000
0000
,
1100
0000
0000
0000
0100
0000
1000
0000
0010
0000
1000
0000
0100
0000
1000
0100
,
1000
0000
0000
0000
0010
0000
0000
1000
0000
1000
0000
0000
0001
0010
0000
0000
,
0000
0000
0000
0000
0000
0000
0000
0001
0000
0010
0000
0000
0100
0000
1000
0001
,
0000
0000
0001
0000
0010
0000
0000
0001
0000
0010
0000
0000
1001
0000
1001
0000
,
0000
1000
0000
0000
0002
0000
1000
0000
0000
0000
0000
0000
1003
0000
0100
0000
,
1000
0000
0000
0000
0000
0100
0000
0000
0000
0000
0000
0000
0010
0000
0001
0000
0000
0000
0000
0000
0010
0000
0000
0000
0001
0000
0000
0000
0010
0000
0000
0000
,
0100
0000
1000
0000
0000
0100
0000
0000
0000
1000
0000
0100
0000
0000
1000
0000
0100
0000
1000
0000
0000
0000
0000
0000
1100
0000
0000
0000
0000
0000
0000
0000
,
0000
0000
1100
0011
,
0101
0000
0000
1010
0000
0000
0000
0000
1000
0000
0010
0000
1000
0000
0010
1000
,
0000
1000
0010
0000
1000
0000
0010
0000
0100
0000
0001
0000
0100
0000
0001
0100
,
0000
0100
0001
0000
0100
0000
0001
0000
0001
0000
0010
0000
0001
0000
0010
0001
,
0000
0001
0010
0000
0011
0000
0010
0000
0100
0000
1000
0000
0100
0000
1000
0100
,
0000
0100
1000
0000
0100
0000
1000
0000
0001
0000
0010
0000
0100
0000
1000
0100
,
0000
0100
0010
0000
0001
0000
0010
0000
1000
0000
0100
0000
0001
0000
0010
0000
,
1000
0100
0001
0000
1000
0010
0100
0001
,
0010
0100
1000
0010
0001
0100
1000
0010
,
0001
0100
1000
0000
0001
0100
0010
1000
,
0100
0010
0001
0100
1000
0010
0001
0100
,
1000
0010
0001
0000
1000
0100
0010
0001
,
0100
0010
1000
0100
0001
0010
1000
0100
,
0001
0000
0010
0000
1000
0000
0001
1000
0001
0000
1000
0000
0000
0000
0000
0000
,
2002
0000
0000
0000
3003
0000
0010
0100
0010
0000
0100
0000
0000
0000
0000
0000
,
0220
0000
0000
0000
0330
0000
1000
0001
1000
0000
0001
0000
0000
0000
0000
0000
,
2002
0000
3003
0000
0011
0000
0000
1000
,
1000
0010
0000
0000
1010
0000
0000
0000
0001
0000
0001
0000
0100
0000
0100
0000
,
0001
0100
0000
0000
0101
0000
0000
0000
1000
0000
1000
0000
0010
0000
0010
0000
,
1000
0010
0000
0000
1010
0000
0000
0000
1000
0000
1000
0000
0100
0000
0100
0000
,
1000
0100
0000
0000
1100
0000
0000
0000
0001
0000
0001
0000
0010
0000
0010
0000
,
0001
0010
0000
0000
0011
0000
0000
0000
1000
0000
1000
0000
0001
0000
0001
0000
,
1000
0001
0000
0000
1002
0000
0000
0000
0103
0000
0100
0000
0010
0000
0010
0000
,
0100
0010
0000
0000
0110
0000
0000
0000
0101
0000
0100
0000
0010
0000
0000
0000
,
0101
0000
0100
0000
0010
0000
0000
0000
0101
0000
0100
0000
0010
0001
0000
0001
,
0010
0000
0100
0000
0000
0000
0000
0000
1100
0000
1000
0100
0000
0000
0000
0000
,
1100
0000
0100
1000
0000
0000
0000
0000
1100
0000
1000
0100
0000
1000
0000
0100
,
1000
0000
0010
0000
0000
0000
0000
0000
1000
0000
0100
0000
1000
0100
0000
0100
,
0010
0000
0000
0001
0000
0000
0000
0000
0001
0000
0100
0000
0001
0100
0000
0100
,
0010
1000
1001
0000
1000
1000
0100
0010
,
0002
0000
0013
0100
0010
0100
0010
0002
,
0000
0013
0010
0010
0001
0001
0100
0010
,
2000
0000
3010
0100
0010
0100
0010
2000
,
0000
3010
0010
0010
1000
1000
0010
0100
,
0002
0000
0103
0010
0100
0010
0100
0002
,
0000
0103
0100
0100
0001
0001
0010
0100
,
2000
0000
3100
0010
0100
0010
0100
2000
,
0000
3100
0100
0100
0000
0000
0000
0000
,
0000
0000
0000
0000
,
0000
0000
0000
0000
,
0000
0000
0000
0000
,
0000
0000
0000
0000
,
0000
0000
0000
0000
,
0000
0000
0000
0000
;

//---------------dance-single - ----------------
#NOTES:
     dance-single:
     :
     Hard:
     13:
     0.000,0.000,0.000,0.000,0.000:
0000
0000
0000
0000
,
0001
0000
0000
0000
0000
0010
0001
0000
0010
0000
0100
0000
0000
0000
1000
0000
,
0010
0000
1000
0001
0000
0000
0000
0000
0000
0000
0000
0000
0000
0000
0000
0000
,
1001
0000
0000
0000
0000
0000
0001
0000
1000
0001
0000
0000
0000
0000
0001
0000
,
0100
0000
0100
0000
0001
0000
0100
0000
0001
0010
0100
0000
1000
0000
0100
0000
,
1000
0000
0010
0000
0100
0000
0001
0010
0001
0010
0001
0010
0100
0000
0010
0000
,
0010
0000
0000
1000
0000
0000
0000
0000
0000
0000
0000
0000
0000
0000
0000
0000
0010
0000
0000
0100
0000
0000
0000
0000
0000
0000
0000
0000
0000
0000
0000
0000
,
0010
0000
0000
0001
0000
0000
0000
0000
0000
0000
0000
0000
0000
0000
0001
0000
0000
0000
0010
0000
0001
0000
0100
0000
0010
0000
0000
0000
0000
0000
0000
0000
,
1000
0001
0000
0000
0100
0010
0000
0000
2000
0001
0000
0010
3000
0000
0000
0000
,
0001
0000
0010
0000
0100
0000
1000
0010
1000
0010
1000
0010
0100
0010
0100
0010
,
1000
0000
0100
0010
0001
0100
0001
0100
0001
0100
0001
0100
0010
0100
0010
1000
,
0001
0010
0100
1000
0010
0100
0001
0010
0100
1000
0001
0100
0010
1000
0100
0000
,
2000
0000
0000
0000
3MMM
0000
0000
0MM0
2002
0000
0000
0000
3003
0MM0
0000
0MM0
200M
0000
0MM2
0000
0000
3003
0000
0000
2MM0
000M
000M
000M
3MM0
0000
0000
0000
,
2MM1
0000
0000
0000
3MM2
0000
0000
0000
M1M3
0000
0000
0000
0MM0
M00M
M00M
M000
M1M2
M000
M000
M000
M003
0000
0000
0000
22MM
0000
000M
0300
000M
0000
300M
0000
,
0110
M00M
M00M
M00M
M00M
0MM0
0000
0000
2002
0000
0M00
0000
00M0
0000
3003
0000
2M1M
0000
0000
3000
2000
0000
0000
3000
2M10
0000
0000
0000
0000
0000
3MMM
0000
,
2002
0000
0000
0000
3000
0M00
0010
0003
0001
00M0
0100
M000
0000
0000
0000
0000
0001
0000
0000
0000
0010
0000
0000
0000
0000
0000
0000
0000
0001
0000
0010
0000
,
0100
0000
1000
0100
0000
0100
0010
0001
0100
0010
1000
0000
0001
0000
1100
0000
,
0101
0000
0101
0000
1100
0000
0101
0000
0000
0000
0000
0000
0001
0100
0001
0000
,
1000
0000
0100
0000
1000
0000
0010
0000
0010
0000
1000
0001
1000
0000
1000
0000
,
0010
0000
0010
0000
1000
0000
1000
0000
0010
0000
0010
0000
1000
0010
0100
0001
,
1000
0000
1000
0000
0100
0000
0100
0000
1000
0000
1000
0000
0001
0100
0010
1000
,
0001
0000
0001
0000
0100
0000
0100
0000
0001
0000
0001
0000
1000
0100
0010
0001
,
0010
0010
0001
0001
0010
0010
0000
0000
,
0001
0200
0000
0000
0000
0000
0000
0000
0310
1000
0010
0000
0000
0000
0000
0010
,
0000
0000
0010
0000
0000
0000
0010
0000
0000
1000
0010
0100
0000
0000
0000
0000
,
0000
0001
1000
0001
0010
0100
0010
0001
1000
0001
0010
0100
0010
0001
1000
0001
,
2000
0000
3002
0000
0023
0000
0032
0000
0003
1000
0000
0010
0000
0100
0010
0000
,
1000
0000
0100
0000
M10M
0000
0001
0000
0010
0000
0001
0100
0001
0010
0100
1000
,
0010
0000
0100
0000
0001
0000
1000
0000
0010
0000
0100
0000
0001
0000
0000
1000
0000
0001
0000
0000
0010
0000
0000
0000
0001
0000
0000
0000
0000
0000
1000
0000
,
0000
0010
0000
0100
0000
0000
0000
0000
0110
0000
0000
0000
1001
0000
0001
0100
,
0001
0000
0100
0000
0010
0000
1000
0001
0000
0010
0100
0010
0001
0000
0001
0001
,
0001
0100
0010
0100
0001
0000
1000
0100
0010
0000
0100
0000
0010
0100
0000
0010
,
0100
0000
0000
0000
1000
0000
0000
0000
0100
0000
0000
0000
0010
0000
0001
0000
1000
0000
0000
0000
0010
0000
0000
0100
0000
0000
0010
0000
0000
0000
1000
0000
,
1000
0000
0100
0010
0001
0100
0000
0000
0001
0000
0100
0000
0010
1000
0100
1000
,
0010
0000
0100
0000
1001
0000
0001
0010
0100
1000
0010
0100
0001
0000
0010
0100
,
0040
0000
0000
0000
0000
0000
0000
0000
0000
0000
0000
0030
0000
0000
0000
0000
,
0001
0000
1000
0000
M000
0020
0000
0000
0030
0000
0000
0100
0000
0000
0000
0010
,
0000
0000
0000
0022
0000
0000
0000
0000
0033
0000
0001
0010
0000
0001
0010
0100
,
1000
0010
0000
1000
0010
1000
0001
1000
0010
1000
0000
1000
0010
1000
0100
1000
,
0010
1000
0001
0000
0010
0000
0100
1000
0010
0100
0001
0000
0110
0000
0000
0010
,
0000
0000
0100
0000
0000
0000
0000
0000
1000
0010
0000
1000
0010
0100
0001
0010
,
0100
1000
0000
0100
1000
0010
0100
0001
0010
0001
0000
0010
0001
0010
0100
0000
,
1100
0000
0000
0000
0100
1000
0100
0010
0000
0100
0000
1000
0000
0000
0010
0100
,
0001
0010
0000
0000
0010
0001
0000
1001
0000
1001
0000
0000
0001
0010
0000
0000
,
0001
0100
0001
0000
1000
0000
1000
0001
0000
0010
0000
0000
0100
0000
1000
0001
,
0000
0000
0001
0000
0010
0000
0000
0001
0000
0010
0000
0000
1001
0000
1001
0000
,
0000
1000
0000
0000
0002
0000
1000
0000
0000
0000
0000
0000
1003
0000
0100
0010
,
0000
0100
0010
0000
0000
0200
0000
0000
0000
0000
0000
0300
0010
0000
0001
0000
0000
0000
0000
0000
0010
0000
0000
0000
0001
0000
0010
0000
0001
0000
0000
0000
,
1100
0000
0001
0000
0000
0100
0000
0010
0000
1000
0000
0100
0000
0000
1000
0000
0100
0000
1000
0000
0001
0000
0100
0000
0010
0000
1000
0000
0000
0000
0000
0000
,
0000
0000
1100
0011
,
0101
0000
0000
1010
0000
0000
0000
0000
1000
0000
0100
0000
0001
0000
0100
0010
,
0000
0010
0001
0000
0100
0000
0001
0000
1000
0000
0010
0000
0001
0000
0010
0100
,
0000
0100
0001
0000
0010
0000
0001
0000
0001
0000
0100
0000
1000
0000
0100
0010
,
0000
0010
1000
0000
1100
0000
1000
0000
0001
0000
0010
0000
1000
0000
0010
0100
,
0000
0100
1000
0100
0010
0000
1000
0000
0001
0000
0100
0000
0001
0000
0010
1000
,
0010
0100
0000
0010
0100
0000
0010
0000
1000
0000
0100
0000
0001
0000
0010
0000
,
1000
0000
0100
0000
0001
0000
0000
0000
1000
0010
1000
0010
0100
0001
0100
0001
,
0010
0001
0100
0010
1000
0001
1000
0010
0001
0000
0100
0000
1000
0000
0010
0000
,
0001
0000
0100
0000
1000
0000
0001
1000
0001
0010
0001
0010
0100
1000
0100
1000
,
0010
1000
0100
0010
0001
1000
0001
0010
1000
0000
0010
0000
0001
0000
0100
0000
,
1000
0000
0010
0000
0001
0000
0010
1000
0010
0000
0100
0000
0001
0000
0010
0100
,
0010
0000
0001
0100
0000
0001
1000
0100
0001
0000
0010
0000
1000
0000
0100
0000
,
0001
0000
0010
0000
1000
0000
0100
0010
0001
0000
1001
0000
0000
0000
0000
0000
,
0102
0000
0023
0000
0130
0000
1000
0010
0100
0000
1001
0000
0000
0000
0000
0000
,
2100
0000
3020
0000
0130
0000
0001
0100
0010
0000
1001
0000
0000
0000
0000
0000
,
0012
0203
0310
0000
0220
0330
0000
1000
,
1000
0010
1000
0001
0000
0000
0000
0000
0101
0000
0101
0000
1010
0000
1010
0000
,
0001
0100
0000
0000
0101
0000
MMMM
0000
1100
0000
1100
0000
0011
0000
0011
0000
,
1000
0100
0000
0000
1100
0000
MMMM
0000
1001
0000
1001
0000
0110
0000
0110
0000
,
0001
1000
0000
0000
1001
0000
MMMM
0000
0110
0000
0110
0000
1001
0000
1001
0000
,
0100
0010
0000
0000
0110
0000
MMMM
0000
0101
0000
0101
0000
1100
0000
1100
0000
,
0001
0100
0000
0000
0101
0000
MMMM
0000
0011
0000
0011
0000
1010
0000
1010
0000
,
0001
0010
0000
0000
0011
0000
0000
0000
0102
0000
0010
0000
0013
0000
0000
0000
,
2100
0000
0010
0000
3010
0000
0000
0000
0102
0000
0010
0000
0013
0001
0000
0001
,
0010
0000
0100
0000
1001
0000
0000
0000
0102
0000
0010
0010
0003
0000
0000
0000
,
2100
0000
0010
0010
3000
0000
0000
0000
0102
0000
0010
0010
0003
0001
0000
0001
,
0010
0000
0100
0000
1001
0000
0000
0000
1000
0000
0100
0000
0010
0100
0000
0100
,
0010
0000
0001
0000
1001
0000
0000
0000
0001
0000
0100
0000
0010
0100
0000
0100
,
0010
1000
1001
0000
1000
0010
0001
0010
,
0100
0M00
1000
0010
0100
0001
0010
0100
,
1001
0000
0001
0000
0010
0000
0100
0000
1000
0010
1000
0010
0100
0001
0100
0001
,
1000
0100
1000
0100
0010
0001
0010
0001
0101
0000
1000
0000
1010
0000
0001
0000
,
0101
0001
0000
0000
0010
0000
0100
1000
0001
0000
0010
0000
1000
0000
0010
0000
,
0100
0M00
0001
0010
0100
1000
0010
0100
,
1001
0000
1000
0000
0010
0000
0100
0000
0001
0010
0001
0010
0100
1000
0100
1000
,
0001
0100
0001
0100
0010
1000
0010
1000
1100
0000
0001
0000
0011
0000
1000
0000
,
1100
1000
0000
0000
0010
0000
0100
0001
0000
0000
0000
0000
0000
0000
0000
0000
,
0000
0000
0000
0000
,
0000
0000
0000
0000
,
0000
0000
0000
0000
,
0000
0000
0000
0000
,
0000
0000
0000
0000
,
0000
0000
0000
0000
;
