#TITLE:Let It Snow;
#SUBTITLE:;
#ARTIST:Frank Sinatra;
#CREDIT:;
#MUSIC:LetItSnow_audio.ogg;
#SELECTABLE:YES;
#BACKGROUND:letitsnow_bg.png;
#BANNER:letitsnow_bg.png;
#CDTITLE:;
#OFFSET:-0.4;
#SAMPLESTART:47.140;
#SAMPLELENGTH:12.665;
#BPMS:0=140.096,1=136.399,2=142.021,3=138.223,4=144,5=136.399,6=138.223,7=144,10=136.399,11=131.204,12=146.035,13=144,14=131.204,15=129.56,16=136.399,17=144,19=142.021,20=140.096,21=142.021,22=144,24=140.096,25=144,28=140.096,29=148.127,30=140.096,31=136.399,32=150.281,34=142.021,35=144,38=136.399,39=157.135,40=144,43=146.035,46=140.096,48=152.498,49=127.956,50=146.035,51=140.096,52=148.127,53=140.096,54=144,56=148.127,58=142.021,59=144,63=146.035,66=140.096,67=146.035,68=144,69=142.021,71=146.035,72=144,74=146.035,78=144,79=142.021,80=140.096,81=142.021,83=146.035,84=142.021,85=144,88=146.035,89=144,90=142.021,91=146.035,92=138.223,93=144,94=146.035,95=144,99=148.127,101=144,105=142.021,106=144,107=146.035,108=148.127,109=146.035,111=142.021,112=138.223,113=144,115=142.021,116=144,117=148.127,118=146.035,119=144,121=146.035,122=140.096,123=142.021,124=144,125=142.021,126=148.127,128=142.021,129=144,132=152.498,133=146.035,134=144,138=146.035,139=152.498,140=144,141=142.021,142=140.096,145=134.622,146=140.096,148=138.223,149=140.096,150=144,151=140.096,154=142.021,155=136.399,156=144,158=142.021,160=140.096,161=138.223,162=142.021,163=140.096,164=146.035,165=140.096,166=146.035,167=142.021,168=140.096,169=136.399,170=150.281,171=138.223,172=144,173=140.096,174=146.035,175=144,177=138.223,178=142.021,183=136.399,184=142.021,186=144,187=142.021,190=140.096,191=142.021,193=136.399,194=144,195=142.021,196=140.096,198=146.035,199=144,200=142.021,201=140.096,203=144,205=138.223,207=140.096,208=142.021,209=140.096,211=142.021,212=144,214=146.035,216=140.096,218=142.021,219=136.399,220=142.021,221=144,222=136.399,223=144,225=140.096,226=144,227=140.096,228=144,229=140.096,232=144,233=140.096,235=148.127,237=146.035,239=144,240=136.399,241=138.223,242=144,243=140.096,244=146.035,245=140.096,246=148.127,247=140.096,248=144,249=142.021,250=144,251=140.096,252=142.021,253=140.096,254=142.021,256=138.223,257=136.399,258=138.223,259=142.021,260=140.096,261=138.223,262=136.399,263=138.223,264=140.096,266=144,268=140.096,270=142.021,272=140.096,273=138.223,274=134.622,275=152.498,276=144,278=138.223,280=136.399,281=144,283=140.096,285=136.399,286=144,288=140.096,291=142.021,292=144,293=140.096,295=142.021,296=144,297=142.021,298=144,299=140.096,300=148.127,301=146.035,302=144,303=140.096,304=144,305=138.223,306=148.127,307=138.223,308=146.035,309=140.096,310=144,312=138.223,313=142.021,314=140.096,315=142.021,316=146.035,317=144,318=138.223,319=140.096,320=138.223,321=140.096,322=146.035,323=138.223,324=144,325=138.223,326=142.021,327=136.399,328=144,330=140.096,331=142.021,332=148.127,333=140.096,334=138.223,335=140.096,337=136.399,338=144,339=140.096,340=138.223,341=142.021,342=138.223,343=134.622,344=146.035,346=140.096,347=136.399,348=144,350=142.021,351=140.096,352=142.021,353=134.622,354=140.096,355=132.891,356=145.01,357=159.561,358=28.0954,359=72;
#STOPS:;
#BGCHANGES:-0.5=letitsnow_video.mov=1.000=1=0=0=StretchNoLoop==CrossFade==,
99999=-nosongbg-=1.000=0=0=0 // don't automatically add -songbackground-;

//---------------dance-single - ----------------
#NOTES:
     dance-single:
     :
     Beginner:
     4:
     0.000,0.000,0.000,0.000,0.000:
0000
0000
0000
0000
,
0000
0000
0000
0000
,
0000
0000
0000
0000
,
0000
0000
0000
0000
0000
0000
0000
0000
0000
0000
0000
0002
0000
0000
0000
0000
,
0003
0000
0000
0000
,
2000
0000
0000
0000
0000
0000
0000
0000
0000
0000
0000
3000
0000
0000
0000
0002
,
0000
0000
0000
0000
0003
0000
0000
2000
,
0000
0000
0000
0000
0000
0000
0000
3000
0000
0000
0000
0000
0000
0000
0000
0001
,
0000
0000
0000
0000
0000
0000
0000
0200
,
0000
0000
0000
0000
0000
0000
0000
0000
0300
0000
0000
0000
0000
0000
0000
0001
,
0000
0000
0000
0000
0000
0000
0000
1000
0000
0000
0000
0000
0000
0000
0000
1001
,
0000
0000
0000
0000
,
0001
0000
0000
0000
0000
0000
0000
0000
0001
0000
0000
0000
0000
0000
0000
0002
,
0000
0000
0000
0000
0000
0000
0000
0000
0003
0000
0000
0000
0000
0000
0000
0010
,
0000
0000
0000
0000
0000
0000
0000
0010
0000
0000
0000
0000
0000
0000
0000
0000
,
0020
0000
0030
0000
,
0100
0000
0000
0000
0000
0000
0000
0100
0000
0000
0000
0000
0000
0000
0000
0200
,
0000
0000
0000
0000
0000
0000
0300
0000
0000
0000
0000
0000
0000
0000
0000
1000
,
0000
0000
0000
0000
0000
0000
0000
0001
0000
0000
0000
0000
0000
0000
0000
1001
,
0000
0000
0000
0000
,
1000
0000
0000
0000
0000
0000
0000
1000
0000
0000
0000
0000
0000
0000
0000
2000
,
0000
3000
0000
0000
0000
0000
0000
0000
,
0100
0000
0000
0000
0000
0000
0000
0100
0000
0000
0000
0000
0000
0000
0000
0200
,
0000
0000
0000
0300
0000
0000
0000
0000
0000
0000
0000
0000
0010
0000
0000
0000
,
0000
0000
0000
0000
0000
0000
0010
0000
0000
0000
0000
0000
0000
0000
0000
0020
,
0000
0000
0000
0030
0000
0000
0000
0000
0000
0000
0000
0000
0000
0000
0000
0000
,
0000
0001
0000
0000
0000
0000
0000
0000
0000
0001
0000
0000
0000
0000
0000
0000
,
0002
0000
0000
0000
0000
0000
0000
0003
0000
0000
0000
0000
0000
0000
0000
0000
,
0010
0000
0000
0000
0000
0000
0000
0000
0000
0000
0000
0100
0000
0000
0000
0000
,
2000
0000
0000
0000
0000
0000
0000
3000
0000
0000
0000
0000
0000
0000
0000
0000
,
0002
0000
0000
0003
0000
0000
0010
0000
,
0100
0000
0000
0000
,
1000
0000
0000
0000
0000
0000
0000
0000
0002
0000
0000
0000
0000
0000
0000
0020
,
0000
0000
0000
0000
0000
0000
0000
0033
0000
0000
0000
0000
0000
0000
0000
1001
,
0000
0000
0000
0000
0000
0000
0000
1001
0000
0000
0000
0000
0000
0000
0000
1001
,
0000
0000
0000
0000
,
0000
0001
0000
0010
,
0000
0002
0000
0003
,
0100
0000
0000
0000
0002
0000
0000
0003
,
0010
0000
0100
0000
,
1000
0000
0020
0030
,
2000
0000
0000
0000
3000
0000
0000
0000
0200
0000
0000
0300
0000
0000
0000
0000
,
1000
0000
1001
0000
,
1001
0000
0000
0000
0000
0000
0000
2002
0000
0000
0000
3003
0000
0000
0000
0000
,
0000
0000
0002
0000
,
0000
0003
1000
0000
0001
0000
0000
0000
,
0000
0000
1000
0000
,
0002
0000
0000
0003
0000
0000
0000
0000
1000
0000
0000
0000
0000
0000
0000
0000
,
0001
0000
0010
0000
,
0001
0000
0100
0000
,
0001
0000
0000
0000
,
1001
0000
0000
0000
0000
0000
0000
1001
0000
0000
0000
0000
0000
0000
0000
0000
,
0000
1000
0000
0010
,
0000
1000
0000
0100
,
0000
1000
0000
0001
,
0002
0000
0000
0000
0003
0000
0000
2000
0000
0000
0000
0000
0000
0000
3000
0000
,
0001
0000
0010
0000
,
0002
0000
0003
0000
,
1000
0000
0000
0000
0000
0000
0000
0000
0020
0000
0000
0000
0030
0000
0000
1000
,
0000
0000
0000
0000
0000
0000
0000
0000
0000
0000
0000
0000
0000
0000
0000
0001
,
0000
0000
0000
0000
0010
0000
0000
0001
,
0000
0000
0000
0000
0000
0000
0000
0000
0000
0000
0000
0000
0000
0000
0000
0110
,
0000
0000
0000
0000
0000
0000
0000
0110
0000
0000
0000
0000
0000
0000
0000
0110
,
0000
0000
0000
0000
,
1000
0000
0100
0000
,
2000
0000
0000
0000
0000
0000
0000
0000
0000
0000
0000
3000
0001
0000
0000
0000
,
0000
0000
0000
0000
0000
0000
0000
0010
0000
0000
0000
0000
0000
0000
0000
0000
,
0001
0000
0000
0000
,
1000
0000
0000
0000
0000
0000
0000
0100
0000
0000
0000
0000
0000
0000
0000
1000
,
0000
0000
0000
0000
,
0110
0000
0000
0000
0000
0000
0000
0110
0000
0000
0000
0000
0000
0000
0000
0110
,
0000
0000
0000
0000
0000
0000
0000
0000
0000
0000
0000
0000
0000
0000
0000
0001
,
0000
0000
0000
0000
0010
0000
0000
0000
0000
0000
0100
0000
0000
0000
0000
1001
,
0000
0000
0000
1000
,
1000
0000
0000
0000
1000
0000
0000
0000
1000
0000
0000
0000
0000
0000
0000
2000
,
0000
0000
0000
3000
0000
0000
0000
0000
0000
0000
0000
0001
0000
0000
0000
0001
,
0000
0000
0000
0001
0000
0000
0000
0001
0000
0000
0000
0000
0001
0000
0000
0002
,
0000
0000
0000
0000
0003
0000
0000
0000
0000
0000
0000
0000
0000
0000
0000
0010
,
0000
0000
0000
0000
0100
0000
0000
0010
0000
0000
0000
0000
0000
0000
0000
0200
,
0000
0000
0000
0300
0000
0000
0000
0000
,
1000
0010
1000
0010
,
0100
0000
0000
0000
,
0002
0000
0000
0000
0000
0000
0000
0013
0000
0000
0000
0000
0000
0000
0002
0000
,
0000
0000
0000
0000
0000
0000
0000
0003
0000
0000
0000
0000
0000
0000
0000
1000
,
0000
0000
0000
0000
0000
0000
0000
0000
0010
0000
0000
1000
0000
0000
0000
0010
,
0000
0000
0000
0000
0000
0000
0001
1000
,
0002
0000
1003
0001
,
2000
0000
3001
2000
,
0020
0000
0000
0000
,
0000
0000
0000
3030
,
0000
0000
0000
0000
;

//---------------dance-single - ----------------
#NOTES:
     dance-single:
     :
     Easy:
     8:
     0.000,0.000,0.000,0.000,0.000:
0000
0000
0000
0000
,
0000
0000
0000
0000
,
0000
0000
0000
0000
,
0000
0000
0000
0000
0000
0000
0000
0000
0000
0000
0000
0002
0000
0000
0000
0000
,
1003
0100
0010
0001
,
2000
0000
0000
0001
0000
0000
0000
0000
0000
0000
0000
3001
0000
0000
0000
0002
,
0000
0000
0000
0000
0000
0000
0000
0000
0103
0000
0000
0010
0000
0000
2000
0000
,
0000
0000
0000
0010
0000
0000
0000
3000
0000
0000
0000
0000
0000
0000
0000
0100
,
0000
0000
0001
0000
0000
0010
0000
0000
0100
0000
0000
0000
1000
0000
0200
0000
,
0000
0000
0000
0000
0000
0000
0000
0000
0300
0000
0000
1000
0100
0000
0000
1000
,
0000
0000
0000
0100
1000
0000
0000
0100
0000
0000
0000
1000
0001
0000
0000
2002
,
0000
0000
0000
0000
0000
0000
0000
0000
0000
0000
0000
3003
0000
0000
0000
0000
,
0001
0000
0000
0000
0010
0000
0000
0000
0001
0000
0000
0000
0100
0000
0000
0002
,
0000
0000
0000
0000
0000
0000
0000
0000
0003
0000
0000
0000
1000
0000
0000
0010
,
0000
0000
0000
1000
0000
0000
0000
0100
0000
0000
0000
0000
0000
0000
0000
0000
,
2020
0000
3030
0000
,
1000
0000
0000
0000
0000
0010
0000
0100
0000
0000
0000
0010
0000
0000
0000
0200
,
0000
0000
0000
0000
0000
0000
0300
0000
0000
0000
0000
0001
0100
0000
0000
0001
,
0000
0000
0000
0100
0001
0000
0000
0100
0000
0000
0000
0001
1000
0000
0000
1001
,
0000
0000
0000
1000
,
0200
0000
0000
0000
0000
0000
0000
0320
0000
0000
0000
0000
0000
0000
0000
0200
,
0000
0330
0000
0000
0000
0000
1000
0000
,
0100
0000
0000
0000
0000
0000
0000
0010
0000
0000
0000
0100
0000
0000
0000
1000
,
0000
0000
0000
0000
0000
0000
0000
0000
0000
0000
0000
0000
0001
0000
0000
0100
,
0000
0000
0000
0010
0000
0000
0100
0000
0000
0000
0000
0000
0002
0000
0000
0023
,
0000
0000
0000
0030
0000
0000
0000
0000
0000
0000
0000
0000
0000
0000
0000
0000
,
0000
0001
0000
0000
0000
0100
0000
0000
0000
0001
0000
0000
0010
0000
0000
0000
,
0002
0000
0000
0000
0000
0000
0000
0003
0000
0000
0000
0000
0000
0000
0000
0000
,
0020
0000
0000
0000
0000
0000
0130
0000
0000
0000
0000
0100
0000
1000
0000
0200
,
0000
2000
0000
0000
0000
0000
0000
0000
3300
0000
0000
0000
0010
0000
0000
0000
,
0200
0000
0000
0000
0000
0000
0000
0300
0010
0000
0000
0000
0100
0000
0001
0000
,
0200
0002
0000
0000
0000
0000
0000
0303
,
1000
0000
0000
0000
1000
0000
0000
0000
0001
0000
0000
0000
0001
0000
0000
0002
,
0000
0000
0000
0000
0000
0000
0003
0000
0000
0000
0000
1000
0100
0000
0000
0100
,
0000
0000
0000
0100
0010
0000
0000
0010
0000
0000
0000
0010
0001
0000
0000
0002
,
0000
0000
0000
0000
0000
0000
0000
0000
0000
0000
0000
0003
0000
0000
0000
0000
,
0000
0001
0010
0001
,
0100
0002
0000
0003
,
0100
0000
0000
0000
0020
0000
0000
0000
2000
0000
0000
0000
0000
0030
0000
0000
,
3100
1000
0100
0010
,
0001
0200
0002
0003
,
2000
3000
0000
0000
0002
0000
0003
0000
,
1300
0000
1100
0000
,
0110
0000
0000
0000
0000
0000
0000
2002
0000
0000
0000
3003
0000
0000
0000
0000
,
0000
0000
0000
0000
2002
0000
0000
3000
,
0020
0003
0130
0000
0110
0000
0000
0000
,
0000
1000
0010
1000
,
0002
0000
0000
0003
1000
0000
0001
0000
0000
0000
0000
0000
0000
0000
0000
0000
,
0100
0001
0010
0001
,
0100
0010
0100
0001
,
0010
0000
0000
0000
MMMM
0000
0000
0000
0000
0000
0000
1000
0000
0000
0000
0001
,
1000
0000
0000
0000
0001
1000
0000
0002
0000
0000
0000
0000
0000
0000
0010
0000
,
0003
0001
0010
0001
,
0010
0100
1000
0100
,
1000
1000
0010
0010
,
1000
1000
1000
1000
,
0001
0001
0020
0130
,
4004
0000
3003
0000
,
2000
0000
0000
0000
0000
0000
3000
0000
0220
0000
0000
0000
0330
0000
0000
1000
,
0000
0000
0000
0000
0010
0000
0000
0000
0000
0000
0000
0000
0000
0000
0000
0100
,
0000
0000
0010
0000
0000
0100
0000
0000
0001
0000
0000
0000
0010
0000
0001
0000
,
0000
0000
0000
0000
0000
0000
0000
0000
0000
0000
0000
0010
0100
0000
0000
0110
,
0000
0000
0000
0100
0010
0000
0000
0110
0000
0000
0000
0010
0100
0000
0000
0110
,
0000
0000
0000
0000
,
1000
0100
0010
0001
,
2000
0000
0000
0001
0000
0000
0000
0000
0000
0000
0000
3000
0001
0000
0000
0010
,
0000
0000
0001
0000
0000
0000
0000
0022
0000
0000
0000
0000
0000
0000
0033
0000
,
2200
0000
0000
3300
,
1000
0000
0000
0000
0010
0000
0000
0100
0000
0000
0001
0000
0000
0000
0200
0000
,
0000
0000
0000
0000
0000
0000
0000
0300
0000
0000
0000
0000
0001
0100
0000
0000
,
0101
0000
0000
0001
1000
0000
0000
1001
0000
0000
0000
1000
0010
0000
0000
1020
,
0000
0000
0000
0000
0000
0000
0000
1030
0000
0000
0000
0000
0000
0000
0000
0001
,
0000
0000
0010
0000
0100
0000
0000
1000
0000
0000
0100
0000
1000
0000
0000
0001
,
0000
0000
0000
1000
,
0100
0000
0000
0000
1000
0000
0000
0000
0100
0000
0000
0000
1000
0000
0000
0020
,
0000
0000
0000
0030
0000
0000
0000
0000
0000
0000
0000
0100
0000
0000
0000
0001
,
0000
0000
0000
0010
0000
0000
0000
0001
0000
0000
0000
0000
2000
0000
0000
0002
,
0000
0000
0000
0000
3003
0000
0000
0000
0000
0000
0000
0000
0000
0000
0000
0020
,
0000
0000
0000
0030
0100
0000
0000
0010
0000
0000
0100
0000
0000
0010
0000
0200
,
0000
0000
0000
0300
0000
0000
0000
0000
,
1001
1001
1000
1000
,
0200
0000
0300
0010
,
0002
0000
0000
0000
0000
0000
0000
0013
0000
0002
0000
0000
0000
0000
0013
0000
,
0001
0000
0000
0020
0000
0000
0000
0000
0000
0000
0000
0000
0030
0000
0000
0100
,
0000
0000
0000
1000
0000
0000
0010
0000
1000
0000
0000
0001
0000
0000
0000
0010
,
0000
0000
0000
0000
0000
0000
0001
1000
,
0002
0000
0000
0000
0000
0000
0000
0000
2003
0000
0000
0000
0200
3000
0000
0000
,
0002
0000
0000
0000
0300
0000
0000
0000
0020
0003
0000
0000
2000
0030
0000
0000
,
0002
0000
0000
0000
,
0000
0000
0000
3003
,
0000
0000
0000
0000
;

//---------------dance-single - ----------------
#NOTES:
     dance-single:
     :
     Medium:
     10:
     0.000,0.000,0.000,0.000,0.000:
0000
0000
0000
0000
,
0000
0000
0000
0000
,
0000
0000
0000
0000
,
0000
0000
0000
0000
0000
0000
0000
0000
0000
0000
0000
0002
0000
0000
0000
1003
,
0001
0100
0000
0001
0000
0000
0000
0020
0000
0000
0000
0000
0031
0000
0000
0000
,
0020
0000
0000
0100
0000
0000
0000
0000
0000
0000
0000
0031
0000
0010
0000
0020
,
0000
0000
0000
0000
0000
0000
0000
0030
0100
0000
0000
0010
0000
0000
0001
0000
,
0010
0000
0000
0000
0000
0000
0100
0000
0000
0000
0000
0000
0000
0000
1000
0000
0000
0001
0000
0000
0000
0000
1000
0000
0000
0000
0000
0000
0000
0000
0100
0000
,
0000
0000
0010
0000
0000
0100
0000
0000
1000
0000
0000
0000
0100
0000
0020
0000
,
0000
0000
0000
0000
0000
0000
0000
0000
0030
0000
0000
0100
1000
0000
0000
1100
,
0000
0000
0000
0001
0100
0000
0000
0101
0000
0000
0000
1000
0100
0000
0000
1100
,
0000
0000
0000
0010
1000
0000
0000
0010
1000
0000
0000
0010
1000
0000
0000
0010
,
1000
0000
0000
0010
1000
0000
0000
0000
0200
0000
0000
0000
0310
0000
0000
0010
,
0000
0001
0000
0010
0001
0000
0000
0010
0001
0000
0001
0000
0010
0000
0000
0100
,
0000
0000
0000
1000
0000
0000
0000
2200
0000
0000
0000
0000
3300
0000
0000
M001
,
0100
0000
0000
0201
0000
0000
0000
0000
0001
0000
0000
0000
0301
0000
0000
0001
,
1000
0000
0000
0000
0000
1000
0000
0100
0000
0000
0000
0010
0000
0000
0000
0100
,
0000
0000
0000
0000
0000
0000
0000
4000
0004
0000
0000
0000
0000
0000
0000
0000
3003
0000
0000
0000
0000
0000
0001
0000
0100
0000
0000
0000
0000
0000
0101
0000
,
0000
0000
0000
1000
0100
0000
0000
1100
0000
0000
0000
0001
1000
0000
0000
1001
,
0000
0000
0000
1000
0100
0000
0000
0100
0010
0000
0000
0010
0001
0000
0000
0001
,
0100
0000
0000
0100
0010
0000
0000
0110
0000
0000
0000
0000
0100
0000
0000
0010
,
0000
0000
0000
0010
0000
00M0
0000
0010
0000
00M0
0000
0010
1000
0000
0000
0000
,
0100
0000
0000
0000
1000
0000
0000
0010
0100
0000
0000
0010
0000
0100
0000
0001
,
0000
0000
0000
0100
0010
0000
0000
0100
0000
0000
0000
0001
0100
0000
0000
0200
,
0000
0000
0300
0010
0100
0000
0010
0000
0000
0000
0000
2000
0000
0000
0000
3200
,
0000
0000
0300
1000
0010
0000
0000
0010
0100
0000
0000
0100
0001
0000
0000
0100
,
0000
0001
0000
0000
0000
0010
0001
0000
0000
0010
0000
0000
0100
0000
0010
0000
,
1002
0000
0000
0000
0000
0000
1000
0000
0000
1000
0000
0000
0000
0000
4003
0000
0000
0000
0000
0000
0000
0000
0000
0000
3000
0000
0000
0000
0000
0000
0010
0000
,
0200
0000
0000
0000
0000
0000
0310
0000
0000
0000
0000
1000
0000
1000
0000
2000
,
0000
0002
0000
0000
0000
0000
0000
0000
3003
0000
0000
0000
0010
0000
0010
0000
,
0020
0000
0000
0000
0000
0000
0000
0030
0100
0000
0000
0000
0100
0000
1000
0000
,
0100
0000
0010
0000
0000
0000
0000
0100
0010
0000
0000
0210
0000
0000
0300
0010
,
0100
0000
0000
0000
0010
0000
0001
0000
0100
0000
0000
0000
0010
0000
0000
0020
,
0000
0000
0000
0000
0000
0000
0000
1030
0000
M000
0000
1000
0100
0000
0000
1100
,
0000
0000
0000
0100
0010
0000
0000
0110
0000
0000
0000
0010
0001
0000
0000
0012
,
0000
0000
0000
0000
0000
0000
0100
0000
0000
0000
0000
0000
0000
0000
0010
0000
0000
0000
0000
0000
0000
0000
0013
0000
0000
0001
0000
0000
0000
0000
0001
0000
,
0000
0100
0000
0000
0000
0000
0000
0000
0001
0000
0000
0000
0000
0000
0001
0000
0010
0000
0000
0000
0000
0000
0010
0000
0100
0000
0000
0000
0000
0000
0100
0000
,
0010
0000
0000
0000
0002
0000
0200
0000
0000
0000
0000
0000
0303
0000
0000
001M
,
1000
0000
0000
1000
0010
0000
0000
0010
2000
0000
3200
0000
0000
0000
0000
0000
,
1300
0000
0000
0000
1000
0000
0000
0100
0010
0000
0000
0010
0100
0000
0000
0000
,
0110
0000
0200
0000
0002
0003
0001
0000
,
2000
0000
0000
0000
3000
0000
0000
0000
1000
0000
0000
0000
0000
0001
0000
0000
0000
0000
0000
0000
0000
0000
0000
0000
0001
0000
0000
0000
0000
0000
1000
0000
,
0300
0000
0000
0000
1000
0000
0000
0010
1000
0000
0000
0000
0001
0000
0000
0010
,
0001
0000
0000
0000
0000
0000
0100
0000
0000
0001
0000
0000
0000
0000
0101
0000
0000
0000
0000
0000
0010
0000
1000
0000
0000
0000
0000
0000
1010
0000
0000
0000
,
0000
0000
0000
2000
3200
0000
0000
0320
0032
0000
0000
0000
0000
0000
0000
0000
,
0023
0000
0000
0000
0130
0000
0000
0010
0100
0000
0000
0000
0010
0000
0000
0000
,
0001
0000
0000
0100
0001
0000
0000
0001
0010
0000
0000
0010
0001
0000
0000
0100
,
0002
0000
0000
0003
0100
0000
0001
0000
0000
0000
0000
0000
0000
0000
0000
1000
,
0010
0000
0000
0010
1000
0000
0000
2010
0000
0000
0000
0000
3001
0000
0000
0010
,
0001
0000
0000
0000
0001
0000
0000
0020
0000
0000
0000
0031
0010
0000
0000
0011
,
0000
0000
0000
0000
0000
0000
0000
0000
0000
0000
0000
1000
0000
0000
0000
0001
,
1000
0000
0000
0000
0000
0000
0000
0000
0001
0000
1000
0000
0000
0000
0002
0000
0000
0000
0000
0000
0010
0000
0000
0010
0000
0000
0000
0000
0010
0000
0000
0000
,
0003
0000
0000
0100
0000
0000
0000
0000
0010
0000
0000
0001
0000
0000
0000
0100
,
0001
0000
0000
0010
0000
0000
0000
0400
0000
0000
0000
0000
0000
0300
0000
1000
,
0000
0000
0000
0002
0000
0003
000M
0010
0100
0000
0000
0100
0001
0000
0000
0000
,
1000
0000
0000
0001
0000
000M
0000
0002
0000
0000
0000
0000
0003
0000
0000
0100
,
0010
0000
0000
0010
1000
0000
0000
0000
1001
0000
0000
0000
1000
0000
0000
0002
,
0000
0000
0000
1000
0000
0000
0000
1000
0003
0000
0000
1000
0001
0000
0000
0000
,
0120
0000
0000
0000
0130
0000
0000
0000
2200
0000
0000
0000
0300
0000
0000
3001
,
0010
0000
0000
0000
0011
0000
0000
0001
0010
0000
0000
0001
0010
0000
0000
0001
,
0000
0000
0100
0000
0000
0010
0000
0000
1000
0000
0000
0000
0010
0000
0200
0000
,
0001
0000
0000
0000
0301
0000
0000
0000
0001
0000
0000
0010
0100
0000
0000
0110
,
0000
0000
0000
0100
0010
0000
0000
0110
0000
0000
0000
0010
0100
0000
0000
0110
,
0000
0000
0000
1000
0010
0000
0000
1000
0010
0000
0000
1000
0010
0000
0000
0010
,
1000
0000
0000
1000
0010
0000
0000
0000
0020
0000
0000
0000
0130
0000
0000
0000
,
0102
0000
0000
0100
0000
0000
0000
0100
0003
0000
0000
0100
0001
0000
0000
0010
,
0000
0000
0100
0000
0000
1000
0000
2020
0000
0000
0000
0000
0000
0030
3000
0010
,
1000
0000
0000
0010
1000
0000
0000
0010
1000
0000
0000
0010
0000
0000
0000
1000
,
0010
0000
0000
0000
1000
0000
0000
0100
0000
0000
0010
0000
0000
0000
0200
0000
,
0000
0000
0000
0040
0000
0000
0000
0330
0000
0000
0000
0001
0100
0001
0000
0000
,
0101
0000
0000
0010
0100
0000
0000
0110
0000
0000
0000
1000
0001
0000
0000
2002
,
0000
3003
0000
0001
1000
0000
0000
2002
0000
0000
3003
0000
0000
0000
0000
0001
,
0000
0000
0010
0000
0100
0000
1000
0001
0000
0000
1000
0000
0000
1010
0000
0110
,
0000
0000
0000
0010
0100
0000
0000
0010
0100
0000
0000
0100
0010
0000
0000
0000
,
0110
0000
0000
0200
0000
0000
0000
0301
1000
0000
0000
1000
0100
0000
0000
0200
,
0000
0000
0300
0010
0001
0000
0000
0010
0001
0000
0000
1000
0000
0010
0000
0100
,
0000
0000
0010
0000
0000
0100
0000
0001
0000
0000
0000
0000
0101
0000
0000
1100
,
0000
0000
0000
0100
1000
0000
0000
0100
1000
0000
0000
0100
1000
0000
0000
0020
,
0000
0000
0000
1030
0100
0000
0000
0110
0000
0000
0001
0000
0000
0010
0000
0100
,
0000
0000
0000
0010
0100
0000
0000
1002
0000
0000
0000
0000
1003
0000
0000
0100
,
1000
1000
1100
0101
,
0001
0000
0000
0200
0000
0000
0000
0000
0000
0000
0000
0000
0310
0000
0010
0000
,
0002
0000
0003
0000
0000
0000
0000
0010
0000
2000
0000
3000
0000
0000
0001
0000
,
0100
0000
0000
0010
0000
0000
0000
0100
0010
0000
0000
0110
0000
0000
0000
0000
,
1000
0000
0000
0100
0000
0000
0010
0000
0001
0000
0000
0000
0011
0000
0000
0000
,
1010
0000
0010
0000
0110
0000
0010
0010
,
0200
0000
0000
0000
0000
0000
0000
0000
2000
0000
0300
0000
0020
3000
0000
0000
,
0002
0000
0000
0000
0000
0030
0000
0000
0200
0000
0003
0000
2000
0000
0300
0000
,
0001
0001
0001
0001
,
0001
0000
0000
0000
0000
0000
0000
0000
0000
0000
0000
0001
0000
0000
0000
0000
0000
0000
0000
0000
0000
0000
0002
0000
0000
0000
0000
0000
0000
0000
0000
0000
0000
0000
0000
0000
3003
0000
0000
0000
0000
0000
0000
0000
0000
0000
0000
0000
,
0000
0000
0000
0000
;

//---------------dance-single - ----------------
#NOTES:
     dance-single:
     :
     Challenge:
     12:
     0.000,0.000,0.000,0.000,0.000:
0000
0000
0000
0000
,
0000
0000
0000
0000
,
0000
0000
0000
0000
,
0000
0000
0000
0000
0000
0000
0000
0000
0000
0000
0000
0002
0000
0000
0000
1003
,
0001
0100
0000
0001
0000
0000
0000
0020
0000
0000
0000
0000
0031
0000
0000
0000
,
0020
0000
0000
0100
0000
0000
0000
0000
0000
0000
0000
0031
0000
0010
0000
0002
,
0000
0000
0023
0000
0000
0000
0000
0030
0100
0000
0000
0010
0000
0000
0001
0000
,
0010
0000
0000
0000
0000
0000
0100
0000
0000
0000
0000
0000
0000
0000
1000
0000
0000
0001
0000
0000
0000
0000
1000
0000
0000
0000
0000
0000
0000
0000
0100
0000
,
0000
0000
0010
0000
0000
0100
0000
0000
1000
0000
0000
0000
0100
0000
0020
0000
,
0000
0000
0000
0000
0000
0000
0000
0000
0030
0000
0000
0100
1000
0000
0000
1100
,
0000
0000
0000
0001
0100
0000
0000
0101
0000
0000
0000
1000
0100
0000
0000
1100
,
0000
0000
0000
0010
1000
0000
0000
0010
1000
0000
0000
0010
1000
0000
0000
0010
,
1000
0000
0000
1000
0010
0000
0000
0000
0200
0000
0000
0000
0310
0000
0000
1000
,
0000
0100
0000
0010
0001
0000
0000
1000
0001
0000
0001
0000
0010
0000
0000
0100
,
0000
0000
0000
1000
0000
0000
0000
2200
0000
0000
0000
0000
3300
0000
0000
M001
,
0100
0000
0000
0201
0000
0000
0000
0000
0001
0000
0000
0000
0301
0000
0000
0001
,
1000
0000
0000
0000
0000
1000
0000
0100
0000
0000
0000
0010
0000
0000
0000
0200
,
0000
0000
0000
0000
0000
0000
0000
4000
0000
0000
0000
0000
0000
0000
0000
0000
3300
0000
0000
0000
0000
0000
0001
0000
0100
0000
0000
0000
0000
0000
0101
0000
,
0000
0000
0000
1000
0100
0000
0000
1100
0000
0000
0000
0001
1000
0000
0000
1001
,
0000
0000
0000
1000
0100
0000
0000
0100
0010
0000
0000
0010
0001
0000
0000
0001
,
0100
0000
0000
0100
0010
0000
0000
0110
0000
0000
0000
0000
0100
0000
0000
0010
,
0000
0000
0000
0010
0000
00M0
0000
0010
0000
00M0
0000
0010
1000
0000
0000
0000
,
0100
0000
0000
0000
1000
0000
0000
0010
0100
0000
0000
0010
0000
0100
0000
0001
,
0000
0000
0000
0100
0010
0000
0000
0100
0000
0000
0000
0001
0100
0000
0000
0200
,
0000
0000
0300
0010
0100
0000
0020
0000
0000
0000
0000
2030
0000
0000
0000
3200
,
0000
0000
0300
1000
0010
0000
0000
0010
0100
0000
0000
0100
0001
0000
0000
0100
,
0000
0001
0000
0000
0000
0010
0001
0000
0000
0010
0000
0000
0100
0000
0010
0000
,
1002
0000
0000
0000
0000
0000
1000
0000
0000
1000
0000
0000
0000
0000
4003
0000
0000
0000
0000
0000
0000
0000
0000
0000
3000
0000
0000
0000
0000
0000
0010
0000
,
0200
0000
0000
0000
0000
0000
0310
0000
0000
0000
0000
1000
0000
1000
0000
1000
,
0000
0002
0000
0000
0000
0000
0000
0000
0003
0000
0000
0000
0010
0000
0010
0000
,
0020
0000
0000
0000
0000
0000
0000
0030
0100
0000
0000
0000
0100
0000
1000
0000
,
0100
0000
0010
0000
0000
0000
0000
0100
0010
0000
0000
0210
0000
0000
0300
0010
,
0100
0000
0000
0000
0010
0000
0001
0000
0100
0000
0000
0000
0010
0000
0000
0020
,
0000
0000
0000
0000
0000
0000
0000
1030
0000
M000
0000
1000
0100
0000
0000
1100
,
0000
0000
0000
0100
0010
0000
0000
0110
0000
0000
0000
0010
0001
0000
0000
0012
,
0000
0000
0000
0000
0000
0000
0100
0000
0000
0000
0000
0000
0000
0000
0010
0000
0000
0000
0000
0000
0000
0000
0013
0000
0000
0001
0000
0000
0000
0000
0001
0000
,
0000
0100
0000
0000
0000
0000
0000
0000
0001
0000
0000
0000
0000
0000
0001
0000
0010
0000
0000
0000
0000
0000
0010
0000
0100
0000
0000
0000
0000
0000
0100
0000
,
0010
0000
0000
0000
0002
0000
0200
0000
0000
0000
0000
0000
0303
0000
0000
001M
,
1000
0000
0000
1000
0010
0000
0000
0010
2000
0000
3200
0000
0000
0000
0000
0000
,
1300
0000
0000
0000
1000
0000
0000
0100
0010
0000
0000
0010
0100
0000
0000
0000
,
0110
0200
0001
0001
,
2000
0000
0000
0000
3000
0000
0000
0000
1000
0000
0000
0000
0000
0001
0000
0000
0000
0000
0000
0000
0000
0000
0000
0000
0001
0000
0000
0000
0000
0000
1000
0000
,
0300
0000
0000
0000
1000
0000
0000
0010
1000
0000
0000
0000
0001
0000
0000
0010
,
0001
0000
0000
0000
0000
0000
0100
0000
0000
0001
0000
0000
0000
0000
0101
0000
0000
0000
0000
0000
0010
0000
1000
0000
0000
0000
0000
0000
1010
0000
0000
0000
,
0000
0000
0000
2000
3200
0000
0000
2300
3002
0000
0000
0000
0000
0000
0000
0000
,
0020
0000
0003
0000
0130
0000
0000
0010
0100
0000
0000
0000
0010
0000
0000
0000
,
0001
0000
0000
0100
0001
0000
0000
0001
0010
0000
0000
0010
0001
0000
0000
0100
,
0002
0000
0000
0003
0100
0000
0002
0000
0000
0000
0000
0000
0003
0000
0000
1000
,
0010
0000
0000
0010
1000
0000
0000
2010
0000
0000
0000
0000
3001
0000
0000
0010
,
0001
0000
0000
0000
0001
0000
0000
0020
0000
0000
0000
0031
0010
0000
0000
0011
,
0000
0000
MMMM
0000
0000
0000
0000
0000
0000
0000
0000
1000
0000
0000
0000
0001
,
1000
0000
0000
0000
0000
0000
0000
0000
0001
0000
1000
0000
0000
0000
0002
0000
0000
0000
0000
0000
0010
0000
0000
0010
0000
0000
0000
0000
0010
0000
0000
0000
,
0003
0000
0000
0100
0010
0000
0000
0010
1000
0000
0000
1000
0100
0000
0000
0100
,
0010
0000
0000
0010
0100
0000
0000
0100
0010
0000
0000
0010
0001
0000
0000
0001
,
1000
0000
0000
1000
0010
0000
0000
0010
0100
0000
0000
0100
0001
0000
0000
0001
,
0100
0000
0000
0100
0010
0000
0000
0010
1000
0000
0000
1000
0010
0000
0000
001M
,
0100
0000
0000
0100
0001
0000
0000
0001
0010
0000
0000
0010
0100
0000
0000
0100
,
0010
0000
0000
0010
0100
0000
0000
1000
0100
0000
0000
010M
0010
0000
0000
0010
,
0001
0000
0000
0001
1000
0000
0000
1000
0001
0000
0000
0001
0100
0000
0000
0100
,
0010
0000
0000
0010
0100
0000
0000
0001
0100
0000
0000
0010
0100
0000
0000
010M
,
0010
0000
0000
0010
1000
0200
0000
1300
0100
0000
0000
0100
0010
0000
0001
0010
,
0001
0000
0000
0100
0001
0000
0000
1000
0001
0000
0000
M001
0100
0000
0000
0101
,
0000
0000
0000
0100
0010
0000
0000
0110
0000
0000
0000
0010
1000
0000
0000
1010
,
0000
0000
0000
0001
0010
0000
0000
0001
0010
0000
0000
0001
0010
0000
0000
M010
,
0100
0000
0000
0100
1000
0000
0000
1000
0010
0000
0000
0010
0100
0000
0000
0100
,
0010
0000
0000
0010
0100
0000
0000
0001
0100
0000
0000
M100
0010
0000
0000
0010
,
1000
0000
0000
1000
0001
1000
0000
0001
1000
0000
0000
1000
0100
0000
0000
0100
,
0010
0000
0000
0010
0100
0000
0000
1000
0100
0000
0000
0010
0100
0000
0000
M100
,
0010
0000
0000
0010
0001
0000
0000
0001
0100
0000
0000
0100
0010
0000
0000
0010
,
1000
0000
0000
0100
1000
0000
0000
0001
1000
0000
0000
100M
0100
1000
0000
0000
,
1100
0000
0000
0100
0010
0000
0000
0110
0000
0000
0000
0010
0001
0000
0000
0011
,
0000
0000
0000
1000
0001
0000
0000
1001
0000
0000
0000
0001
0100
0000
0000
M100
,
0002
0003
0010
0000
0100
0000
1000
0100
0000
0000
1000
0000
0000
1100
0000
0101
,
0000
0000
0000
0010
0100
0000
0000
0001
0100
0000
0000
M100
0001
0000
0000
0001
,
0100
0000
0000
0100
0010
0000
0000
0010
0100
0000
0000
0100
0001
0000
0000
0001
,
0010
0000
0000
0001
0010
0000
0000
0100
0010
0000
0000
001M
0100
0020
0030
0100
,
1000
0000
0000
0000
0000
0010
0000
0000
0000
0000
0100
0000
0000
0000
0000
0000
0101
0000
0000
0000
0000
0000
0000
0000
1100
0000
0000
0000
0000
0000
0101
0000
,
0000
0000
0000
0100
0001
0000
0000
0010
0001
0000
0000
1000
0001
0000
0000
0001
,
0100
0000
0000
0000
0000
0000
0100
0000
0010
0000
0000
0000
0000
0000
0010
0000
1000
0000
0000
0000
0000
0100
0000
0000
0000
0000
0010
0000
0000
0000
0001
0000
,
1000
0000
0000
0010
1000
0000
0000
0100
1000
0000
0000
0001
1000
0000
0000
1000
,
0100
0000
0000
010M
1000
0000
0000
0000
1100
0000
0000
0000
0110
0000
0000
0010
,
0001
0000
0000
0001
0010
0000
0000
0100
0010
0000
0000
001M
0100
0000
0000
0100
,
1000
0000
0000
1000
0100
0000
0000
0100
0010
0000
0000
0010
0100
0000
0000
0100
,
1000
0000
0000
1000
0010
0000
0000
1000
0010
0000
0000
0100
0010
0000
0000
M010
,
0100
0000
0000
0000
0000
0000
0100
0000
0001
0000
0000
0000
0000
0010
0000
0000
0000
0000
0100
0000
0000
0000
0000
0000
1100
0000
0000
0000
0000
0000
0101
0000
,
0000
0000
0000
1000
0100
0000
0000
0010
0100
0000
0000
0100
0010
0000
0001
0000
,
0022
0000
0000
0000
0000
0000
0000
0000
0000
0000
0000
0000
0030
0000
0000
0000
0100
0000
0000
0000
0000
0000
0000
0000
0010
0000
0000
0000
0000
0003
0000
0000
,
2020
0000
0000
0000
0000
0000
0000
0000
0000
0000
0000
0000
0030
0000
0000
0000
0100
0000
0000
0000
0000
0000
0000
0000
0010
0000
0000
3000
0000
0000
0000
0000
,
2001
0001
0001
0001
,
0001
0000
0000
0000
0000
0000
0000
0000
0000
0000
0000
0001
0000
0000
0000
0000
0000
0000
0000
0000
0000
0000
0004
0000
0000
0000
0000
0000
0000
0000
0000
0000
0000
0000
0000
0000
3003
0000
0000
0000
0000
0000
0000
0000
0000
0000
0000
0000
,
0000
0000
0000
0000
;

//---------------dance-single - ----------------
#NOTES:
     dance-single:
     :
     Edit:
     14:
     0.000,0.000,0.000,0.000,0.000:
0000
0000
0000
0000
,
0000
0000
0000
0000
,
0000
0000
0000
0000
,
0000
0000
0000
0000
0000
0000
0000
0000
0000
0000
0000
0002
0000
0000
0000
1003
,
0001
0100
0000
0001
0000
0000
0000
0020
0000
0000
0000
0000
0031
0000
0000
0000
,
0020
0000
0000
0100
0000
0000
0000
0000
0000
0000
0000
0031
0000
0010
0000
0002
,
0000
0000
0023
0000
0000
0000
0000
0030
0100
0000
0000
0010
0000
0000
0001
0000
,
0010
0000
0000
0000
0000
0000
0100
0000
0000
0000
0000
0000
0000
0000
1000
0000
0000
0001
0000
0000
0000
0000
1000
0000
0000
0000
0000
0000
0000
0000
0100
0000
,
0000
0000
0001
0000
0000
0100
0000
0000
1000
0000
0000
0000
0100
0000
0020
0000
,
0000
0000
0000
0000
0000
0000
0000
0000
0030
0000
0000
0100
1000
0000
0000
1100
,
0000
0000
0000
0001
0100
0000
0000
0101
0000
0000
0000
1000
0100
0000
0000
1100
,
0000
0000
0000
0010
1000
0000
0000
0010
1000
0000
0000
0010
1000
0000
0000
0010
,
1000
0000
0000
1000
0010
0000
0000
0000
0200
0000
0302
0000
0013
0000
0000
0001
,
0000
0100
0000
0001
0010
0000
0000
0001
0010
0000
0001
0100
0010
0000
0000
0100
,
0000
0000
0000
1000
0000
0000
0000
2200
0000
0000
0000
0000
3300
0000
0000
M001
,
0100
0000
0000
0001
0100
0000
0000
0001
0100
0000
0000
0001
0100
0000
0000
010M
,
1000
0000
0000
0000
0000
1000
0000
0100
0000
0000
0000
0010
0000
0000
0000
0200
,
0000
0000
0000
0000
0000
0000
0000
4000
0000
0000
0000
0000
0000
0000
0000
0000
3300
0000
0000
0000
0000
0000
0001
0000
0100
0000
0000
0000
0000
0000
0101
0000
,
0000
0000
0000
1000
0100
0000
0000
1100
0000
0000
0000
0001
1000
0000
0000
1001
,
0000
0000
0000
1000
0100
0000
0000
0100
0010
0000
0000
0010
0001
0000
0000
0001
,
0100
0000
0000
0100
0010
0000
0000
0110
0000
0000
0000
0000
0100
0000
0000
0010
,
0000
0000
0000
0010
0000
00M0
0000
0010
0000
00M0
0000
0010
1000
0000
0000
0000
,
0100
0000
0000
0000
1000
0000
0000
0010
0100
0000
0000
0010
0000
0100
0000
1000
,
0000
0000
0000
0100
0010
0000
0000
0100
0000
0000
0000
0001
0100
0000
0000
0200
,
0000
0000
0300
0010
0100
0000
0020
0000
0000
0000
0000
2030
0000
0000
0000
3200
,
0000
0000
0300
1000
0010
0000
0000
0010
0100
0000
0000
0100
0001
0000
0000
0100
,
0001
0100
0000
0000
0000
0010
0001
0000
0000
0010
0000
0000
1000
0000
0010
0000
,
1002
0000
0000
0000
0000
0000
1000
0000
0000
1000
0000
0000
0000
0000
4003
0000
0000
0000
0000
0000
0000
0000
0000
0000
3000
0000
0000
0000
0000
0000
0010
0000
,
0200
0000
0000
0000
0000
0000
0310
0000
0000
0000
0000
1000
0000
1000
0000
1000
,
0000
0002
0000
0000
0000
0000
0000
0000
0003
0000
0000
0000
0010
0000
0010
0000
,
0020
0000
0000
0000
0000
0000
0000
0030
0100
0000
0000
0000
0100
0000
1000
0000
,
0100
0000
0001
0000
0000
0000
0000
0100
0010
0000
0000
0210
0000
0000
0300
0010
,
1000
0000
0000
0000
0010
0000
0001
0000
0100
0000
0000
0000
0010
0000
0000
0020
,
0000
0000
0000
0000
0000
0000
0000
1030
0000
M000
0000
1000
0100
0000
0000
1100
,
0000
0000
0000
0100
0010
0000
0000
0110
0000
0000
0000
0010
0001
0000
0000
0012
,
0000
0000
0000
0000
0000
0000
0100
0000
0000
0000
0000
0000
0000
0000
0010
0000
0000
0000
0000
0000
0000
0000
0013
0000
0000
0001
0000
0000
0000
0000
0001
0000
,
0000
0100
0000
0000
0000
0000
0000
0000
0001
0000
0000
0000
0000
0000
0001
0000
0010
0000
0000
0000
0000
0000
0010
0000
0100
0000
0000
0000
0000
0000
0100
0000
,
0010
0000
0000
0000
0002
0000
0200
0000
0000
0000
0000
0000
0303
0000
0000
001M
,
1000
0000
0000
1000
0010
0000
0000
0010
2000
0000
3200
0000
0000
0000
0000
0000
,
1300
0000
0000
0000
1000
0000
0000
0100
0010
0000
0000
0010
0100
0000
0000
0000
,
0110
0000
0000
0010
0200
0000
0000
0001
0001
0000
0000
0000
0001
0000
0000
1000
,
2000
0000
0000
0000
3000
0000
0000
0000
1000
0000
0000
0000
0000
0001
0000
0000
0000
0000
0000
0000
0000
0000
0001
0000
0001
0000
0000
0000
0000
0000
1000
0000
,
0300
0000
0000
0000
1000
0000
0000
0010
1010
0000
0000
0000
0010
0000
0000
0100
,
0110
0000
0000
0000
0000
0000
0100
0000
0000
0001
0000
0000
0000
0000
0101
0000
0000
MMMM
0000
0000
0010
0000
1000
0000
0000
0000
0000
0000
1010
0000
0000
0000
,
0000
0000
0000
2000
3200
0000
0000
2300
3002
0000
0000
0000
0000
0000
0000
0000
,
0020
0000
0003
0000
0130
0000
0000
0010
0100
0000
0000
0000
0100
0000
0000
0000
,
0100
0000
0000
01M0
0001
0000
0000
0001
0010
0000
0000
0010
0001
0000
0000
0100
,
0002
0000
0000
0003
1001
0000
2002
0000
0000
0000
0000
0000
3003
0000
0000
1000
,
0010
0000
0000
0010
1000
0000
0000
2010
0000
0000
0000
0000
3001
0000
0000
0010
,
0001
0000
0000
0000
0001
0000
0000
0020
0000
0000
0000
0031
0010
0000
0000
0011
,
0000
0000
MMMM
0000
0000
0000
0000
0000
0000
0000
0000
1000
0000
0000
0000
0001
,
1000
0000
0000
0000
0000
0000
0000
0000
0001
0000
1000
0000
0000
0000
0002
0000
0000
0000
0000
0000
0100
0000
0000
0100
0000
0000
0000
0000
0100
0000
0000
0000
,
0003
0000
0000
0100
0010
0000
0000
0010
1000
0000
0000
1000
0100
0000
0000
0100
,
0001
0000
0000
0001
1000
0000
0000
1000
0010
0000
0000
0010
0001
0000
0000
0001
,
1000
0000
0000
1000
0100
0000
0000
0100
0010
0000
0000
0010
0001
0000
0000
0001
,
0100
0000
0000
0100
1000
0000
0000
1000
0001
0000
0000
0001
0010
0000
0000
001M
,
0100
0000
0000
0100
1000
0000
0000
1000
0010
0000
0000
0010
0100
0000
0000
0100
,
0001
0000
0000
0001
0010
0000
0000
0001
0010
0000
0000
001M
1000
0000
0000
1000
,
0100
0000
0000
0100
0010
0000
0000
0010
0001
0000
0000
0001
0100
0000
0000
0100
,
0001
0000
0000
0001
0010
0000
0000
0100
0010
0000
0000
0100
0010
0000
0000
0M10
,
1000
0000
0000
1000
0010
0200
0000
0310
0100
0000
0000
0100
0010
0000
2000
3010
,
1000
0000
0000
0001
1000
0000
0000
0010
1000
0000
0000
10M0
0100
0000
0000
1100
,
0000
0000
0000
0100
0010
0000
0000
0110
0000
0000
0000
0001
0100
0000
0000
0101
,
0000
0000
0000
0001
0010
0000
0000
0001
0010
0000
0000
0001
0010
0000
0000
001M
,
0100
0000
0000
0100
0001
0000
0000
0001
0010
0000
0000
0010
0100
0000
0000
0100
,
1000
0000
0000
1000
0010
0000
0000
1000
0010
0000
0000
M010
0001
0000
0000
0001
,
0100
0000
0000
0100
0010
1000
0000
0010
1000
0000
0000
1000
0100
0000
0000
0100
,
1000
0000
0000
1000
0010
0000
0000
0100
0010
0000
0000
0100
0010
0000
0000
0M10
,
0001
0000
0000
0001
0010
0000
0000
0010
0100
0000
0000
0100
0010
0000
0000
0010
,
0001
0000
0000
1000
0001
0000
0000
0010
0001
0000
0000
M001
0100
0002
0003
0101
,
0000
0000
0000
0100
0010
0000
0000
0110
0000
0000
0000
1000
0100
0000
0000
1100
,
0000
0000
0000
0001
1000
0000
0000
1001
0000
0000
0000
1000
0100
0000
0000
M100
,
0002
0003
0010
0000
0100
0000
1000
0100
0000
0000
1000
0000
0000
1100
0000
0101
,
0000
0000
0000
0010
0100
0000
0000
0001
0100
0000
0000
01M0
1000
0000
0000
1000
,
0100
0000
0000
0100
0010
0000
0000
0010
0100
0000
0000
0100
1000
0000
0000
2000
,
0001
0000
3000
0001
0010
0000
0000
0100
0010
0000
0000
0M10
1000
0020
0030
1000
,
0100
0000
0000
0000
0000
0010
0000
0000
0000
0000
0001
0000
0000
0000
0000
0000
0011
0000
0000
0000
0000
0000
0000
0000
0110
0000
0000
0000
0000
0000
1100
0000
,
0000
0000
0000
0100
1000
0000
0000
0010
1000
0000
0000
0001
1000
0000
0000
100M
,
0100
0000
0000
0000
0000
0000
0100
0000
0010
0000
0000
0000
0000
0000
0010
0000
1000
0000
0000
0000
0000
0100
0000
0000
0000
0000
0010
0000
0000
0000
0001
0000
,
0100
0000
0000
1000
0100
0000
0000
0010
0100
0000
0000
0001
0100
0000
0000
010M
,
2000
3000
0000
1000
0010
0000
0000
0000
1010
0000
0000
0000
0101
0000
0000
0001
,
0010
0000
0000
0010
0100
0000
0000
1000
0100
0000
0000
01M0
0001
0000
0000
0001
,
0100
0000
0000
0100
0010
0000
0000
0010
0100
0000
0000
0100
0001
0000
0000
0002
,
1000
0000
0003
1000
0010
0000
0000
0100
0010
0000
0000
1000
0010
0000
0000
M010
,
0001
0000
0000
0001
1000
0000
0010
0000
1010
0000
0000
0000
0110
0000
0000
0101
,
0000
0000
0000
0100
0001
0000
0000
0010
0001
0000
0000
1000
0001
0000
0100
0000
,
20MM
0000
00MM
0000
0000
0000
0000
0000
0020
0000
0000
3000
0002
0000
0000
0030
,
0200
0000
0000
0000
0000
0000
0000
0003
2000
0000
0000
0300
0002
0000
0000
3003
,
2001
0001
0001
0001
,
0001
0000
0000
0000
0000
0000
0000
0000
0000
0000
0000
0001
0000
0000
0000
0000
0000
0000
0000
0000
0000
0000
0004
0000
0000
0000
0000
0000
0000
0000
0000
0000
0000
0000
0000
0000
3003
0000
0000
0000
0000
0000
0000
0000
0000
0000
0000
0000
,
0000
0000
0000
0000
;
