#TITLE:Lady Marmalade;
#SUBTITLE:Voulez vous coucher avec moi, ce soir;
#ARTIST:Christina Aguilera, Lil' Kim, Mya, Pink, Missy Elliott;
#CREDIT:Vndt;
#MUSIC:LadyMarmalade_audio.ogg;
#SELECTABLE:YES;
#BACKGROUND:ladymarmalade_bg.png;
#BANNER:ladymarmalade_bg.png;
#CDTITLE:Moulin Rouge!;
#OFFSET:-0.01;
#SAMPLESTART:33.289;
#SAMPLELENGTH:17.459;
#BPMS:0=109.984,1=109.98,12=109.984,13=109.98,24=109.984,25=109.98,40=109.984,41=109.98,50=109.984,51=109.98,58=109.984,59=109.98,66=109.984,67=109.98,74=109.984,75=109.98,82=109.984,83=109.98,89=109.925,257=103.744,259=98.3241,261=74.2633,262=74.2612,263=85.781,264=85.7782,266=98.3241;
#STOPS:;
#BGCHANGES:0=ladymarmalade_video.mov=1.000=0=0=0=StretchNoLoop==CrossFade==,
99999.000=-nosongbg-=1.000=0=0=0=StretchNoLoop====

//---------------dance-single - ----------------
#NOTES:
     dance-single:
     :
     Beginner:
     4:
     0.000,0.000,0.000,0.000,0.000:
0000
0000
0000
0000
,
0000
0000
0000
0000
,
0000
0000
0000
0000
,
0000
0000
0001
0000
,
0010
0000
0001
0000
,
0010
0000
0001
0000
,
0100
0000
0001
0000
,
1000
0000
0010
0000
,
1000
0000
0010
0000
,
1000
0000
0000
0020
0000
0000
0030
0200
,
0000
0000
0300
0020
0000
0000
0000
0030
,
0000
0000
1000
0000
0000
0200
0000
0300
,
0000
0020
0000
0000
0030
0000
0000
0000
,
0000
0001
0000
0000
0000
0100
0000
0000
,
0000
0010
0000
0000
0000
0000
0000
0000
0000
0000
0100
0000
0000
0000
0000
0000
,
0000
0001
0001
1000
,
0000
0001
0000
1000
0000
0000
0000
0000
,
0000
1000
1000
0001
,
0000
2002
0000
0000
3003
0000
0000
0000
,
0000
0010
0010
0100
,
0000
0010
0000
0100
0000
0000
0000
0000
,
0000
0100
0000
0010
,
0000
0220
0000
0000
0000
0000
0000
0000
,
0000
0330
0000
0000
0000
0000
0000
0000
,
0000
0000
0001
1000
0001
0000
0000
1000
,
0001
1000
0000
0000
0010
1000
0000
0000
,
0000
0000
1000
0001
1000
0000
0000
0001
,
1000
0001
0000
0010
0000
0010
0000
0010
,
0000
0001
0000
0010
,
0000
0100
0000
1000
,
0000
0010
0000
0100
,
0000
0000
0001
0000
0000
0000
0001
0010
,
0001
0100
0000
0010
,
0000
0100
0000
0001
,
0000
1000
0000
0010
,
0000
0000
0100
0001
0100
0000
0001
0000
,
0100
0002
0000
0100
,
0000
2003
0000
0100
,
0000
3001
0000
0100
,
0000
0010
0000
1000
,
0000
0001
1000
0001
,
0000
1000
0001
2000
,
3000
1000
0010
0200
,
0000
0020
0000
0000
0000
0000
0000
0000
,
0000
0000
0000
0000
0000
0330
0000
0000
,
0000
0000
0002
0000
0000
0200
0000
0000
,
0000
0000
0000
0000
0000
0303
0000
0000
,
0000
1100
0000
0000
0000
0101
0000
0000
,
0000
2000
0000
0000
0000
0400
0000
0000
,
0000
0000
3300
0000
0000
1000
0000
0000
,
0000
0010
0000
0100
0000
0000
0000
0010
,
0000
0000
0100
0000
0000
0001
0000
0010
,
0000
0002
0000
0003
0000
0010
0000
0000
,
0001
0000
0000
0001
0000
1000
0000
0001
,
0000
0010
0100
0000
,
0000
2200
0000
3300
0000
0220
0000
0330
,
0000
0022
0000
0000
0030
0040
0000
0000
,
0000
0000
0033
0000
0001
0000
0001
0010
,
0000
0001
0000
0010
0000
0000
0000
0000
,
0000
0000
0100
1000
0100
1000
0100
1000
,
0000
0200
0000
0000
0320
0000
0000
0000
,
0000
0030
0001
0100
0001
0100
0001
0100
,
0000
0001
0000
0100
0000
0000
0000
0000
,
0000
0010
1000
0200
,
0000
0020
0000
0000
0000
0000
0000
0000
,
0000
0000
0000
0000
,
0000
0330
0220
0000
,
0330
0000
0000
0000
;

//---------------dance-single - ----------------
#NOTES:
     dance-single:
     :
     Easy:
     7:
     0.000,0.000,0.000,0.000,0.000:
0000
0000
0000
0000
,
0000
0000
0000
0000
,
0000
0000
0000
0000
,
0000
0000
0001
0010
,
0010
0000
0001
0010
,
0010
0000
0001
0100
,
0100
0001
0001
1000
,
1000
0010
0010
1000
,
1000
0010
0010
1000
,
1000
0000
0001
0010
0000
0001
0000
0100
,
0000
0010
0000
0100
0000
0010
0000
0000
,
0000
0000
1000
0010
0000
0100
0000
0010
,
0000
0100
0000
0000
0000
0000
0000
0000
,
0000
0001
0000
0010
0000
0100
0010
0000
,
0000
0010
0000
0001
0000
0010
0000
0001
0000
0000
0200
0000
0000
0000
0000
0000
,
0300
0000
0001
0010
0001
0010
0001
0010
,
0000
0001
0000
1000
0000
0000
0000
0000
,
0000
0000
1000
0010
1000
0010
1000
0010
,
0000
2002
0000
0000
3003
0000
0000
0000
,
0000
0000
0010
0100
0010
0100
0010
0100
,
0000
0010
0000
0100
0000
0000
0000
0000
,
0000
0000
0100
0010
0100
0010
0100
0000
,
0100
0210
0000
0000
0000
0010
0010
0000
,
0000
0310
0010
0000
0000
0100
0010
0000
,
0110
0000
0001
0010
0001
0010
0100
1000
,
0100
1000
0000
0000
0010
1000
0000
0000
,
0000
0000
1000
0010
1000
0010
0100
0001
,
0100
0001
0000
0010
0000
0010
0000
0010
,
0000
0001
0010
0100
,
1000
0100
1000
0010
,
1000
0010
0100
0001
,
0010
0000
0000
0000
0000
0001
0000
0010
0000
0001
0000
0000
0001
0000
0010
0000
,
0001
0100
0010
1000
,
0100
0010
0100
1000
,
0100
0000
1000
0100
1000
0000
0001
0100
,
0001
0000
0100
0001
0100
0000
0010
1000
,
0010
0000
1000
0000
0100
1000
0100
0000
,
1000
0100
0000
0010
0001
0010
0001
0000
,
0010
0001
0010
0000
0100
0000
1000
0000
,
0010
0100
0010
1000
,
1001
0000
0001
1000
0001
1000
0001
1000
,
0000
0000
1000
0001
1000
0001
1000
0002
,
0000
0000
0003
0000
1000
0000
0100
0000
0010
0000
0001
0000
0100
0000
0000
0010
,
0000
0200
0000
0000
0000
0001
0001
0000
,
0000
0010
0010
0000
0000
0301
0001
0000
,
0101
0000
0001
0100
0000
0200
0000
0000
,
0000
0020
0000
0000
0000
0330
0000
0000
,
0000
1100
0000
0000
0000
0101
0000
0000
,
0000
2000
0000
0000
0000
0100
0100
0100
,
0100
0100
3100
0000
1000
0100
0000
1000
,
0010
0100
0010
0100
0000
0000
0000
0010
,
00M0
0000
0001
0010
0001
0010
0000
0100
,
1000
0200
0000
0300
0000
0010
0010
00M0
,
1000
0000
0000
1001
0000
0110
0000
1001
,
0000
0000
0010
0000
0100
0010
0000
0000
,
0000
2100
0000
3100
0000
0210
0000
0310
,
0000
0021
0000
0001
0000
0001
0001
0001
,
0001
0001
0031
0010
0001
0010
0001
0001
,
0000
0000
0000
0010
0000
0000
0000
0000
0010
0000
0000
0000
0000
0000
0000
0100
0000
0000
0100
0000
0000
0000
0000
0000
,
0100
0000
0100
1000
0100
1000
0100
1000
,
0000
0200
0000
0000
0310
0100
0010
0000
,
0010
0000
0001
0100
0001
0100
0001
0100
,
0000
0000
0000
0001
0000
0000
0000
0000
0001
0000
0000
0000
4000
0000
0000
0000
0000
0000
0000
0000
0000
3000
0000
0000
,
0000
0000
0010
0100
0001
1000
0010
0000
,
0100
0020
0000
0000
0000
0100
0100
0000
,
0000
0100
0100
0000
0000
0100
0100
0000
,
0000
0200
0030
0000
0040
0000
0000
0000
,
0330
0000
0000
0000
;

//---------------dance-single - ----------------
#NOTES:
     dance-single:
     :
     Medium:
     9:
     0.000,0.000,0.000,0.000,0.000:
0000
0000
0000
0000
,
0000
0000
0000
0000
,
0000
0000
0000
0000
,
0000
0000
0000
0001
0010
0001
0010
0000
,
0001
0000
0000
0000
0010
0000
0000
0000
0000
0000
0000
0000
0100
0000
0000
0000
1000
0000
0000
0100
0000
0000
0000
0000
1000
0000
0000
0000
0000
0000
0000
0000
,
0100
1000
1001
0000
0001
1000
0110
0000
,
0100
0010
1001
0000
1000
0001
0110
0000
,
0100
0010
1001
0000
0001
0100
1100
0000
,
1000
0100
0101
0000
0001
0100
1100
0000
,
1000
0100
0010
0001
0010
0002
0000
0103
,
0010
0200
0000
0310
1000
0020
2030
3000
,
0000
0000
1000
0010
0100
0002
0000
0013
,
0001
0020
0032
0000
0003
0000
0001
0000
,
0000
0000
0010
0001
0000
0000
0010
0001
0000
0000
1000
0000
0100
0000
0000
0000
,
0000
0000
0100
0000
1000
0000
0100
1000
0000
0000
0200
0000
0000
0000
0000
0000
,
0300
0000
1000
0010
1000
0010
1010
0011
,
0000
0101
0000
1100
2000
0000
3020
0000
,
0230
0000
0301
0010
0001
0010
0011
1010
,
0000
2100
0001
0000
3100
0000
1000
0010
,
1000
0000
0001
0100
0010
0100
0001
0100
,
0000
0000
0000
0000
0110
0000
0000
0000
0000
0000
0000
1001
0000
0000
0000
0000
2000
0000
0000
0000
0000
0000
0000
0000
3200
0000
0000
0000
0000
0000
0000
0000
,
0300
0000
1000
0010
0100
0001
1000
0000
,
0010
2000
0000
0000
0000
0010
0010
0000
,
0000
0100
0100
0000
0000
0010
3010
0000
,
0110
0000
0001
0100
0001
0101
1010
1000
,
0010
1000
0000
0000
1000
0010
0100
0100
,
0010
0010
1000
0100
1000
1100
0011
0001
,
0010
0002
0000
0010
00M0
0010
00M0
2003
,
0000
0000
0000
3000
0001
0000
0000
0000
0000
0000
0001
0000
0000
0000
0000
0000
0001
0000
0000
0000
0100
0000
0000
0000
0002
0000
0000
0000
0000
0000
0000
0000
,
0103
0000
0000
0000
0001
0000
0000
0000
0010
0000
0000
0000
M01M
0000
0000
0000
1000
0000
0000
0010
0000
0000
0000
0000
1000
0000
0000
0000
0010
0000
1000
0000
,
0000
0000
0000
1000
0010
0000
0100
0000
0001
0000
0001
0000
0010
0000
0001
0000
,
0011
0001
0010
0100
1000
0000
0001
0010
,
0100
0000
2200
0000
3300
1000
1000
0100
,
0100
0000
0010
0000
0001
0000
0100
0000
0010
0000
1000
0000
0010
0000
1000
0010
,
1000
1000
0010
0100
0001
0100
0001
0010
,
0001
0000
0000
0000
0010
0000
0000
0000
0100
0000
0000
0000
1000
0000
0000
0000
0100
0000
0000
0000
0010
0000
0001
0000
0010
0000
0000
0100
0000
0000
0000
0000
,
0010
0000
1100
0000
1000
0100
0101
0000
,
0001
0000
0100
0000
0000
0000
0010
1000
0010
0000
1000
0000
1010
0000
0000
0000
,
1000
0010
0100
0010
0100
0001
0100
0010
,
1000
0000
0000
0010
0000
0000
0100
0000
0010
0000
1000
0000
1001
0000
0000
0000
,
0110
0000
0001
0100
0001
0100
0001
0100
,
0000
0000
M10M
1000
0100
1000
0100
2000
,
0000
0000
3100
0000
1000
0000
0100
0000
0010
0000
0001
0000
0000
0100
0000
0010
,
0000
0200
0000
0000
0000
0001
0001
0000
,
0000
0010
0010
0000
0000
0301
0001
0001
,
0000
0100
0000
0000
0001
0000
0100
0000
0000
0000
0200
0000
0000
0000
0000
0000
,
0000
0020
0000
0000
0000
0330
0000
0000
,
0000
2200
0000
3300
0000
0202
0000
0303
,
0000
2000
0000
0100
0100
0100
0100
0100
,
0100
3100
1100
1000
0010
0200
0000
0310
,
1000
0100
0010
0200
2300
0000
3000
0010
,
00M0
0000
0001
0010
0001
0020
0000
0130
,
1000
0200
2300
3000
0000
0010
0010
00M0
,
0002
0000
0000
1003
0000
0000
1001
0000
0000
0000
0110
0000
0000
0000
2002
0000
,
0000
0000
3003
0000
0020
0000
0000
0130
0010
0100
0020
0000
0000
0000
0000
0000
,
0030
2100
0100
3100
0100
0210
0010
0310
,
0010
0021
0001
0001
0001
0001
0001
0001
,
0001
0001
0031
0010
0001
0010
0011
1010
,
0000
0000
0000
1010
0000
0000
0000
0000
0021
0000
0000
0000
0000
0000
0000
0130
0000
0000
0100
0000
0000
1000
0000
0000
,
0100
0010
0100
1000
0100
1000
1100
0101
,
0000
0210
0000
0000
0320
0230
0320
2030
,
3020
0000
0130
0001
0100
0001
0101
1100
,
0000
0000
0000
0101
0000
0000
0000
0000
1100
0000
0000
0000
4000
0000
0000
0000
0000
0000
000M
0000
0000
3000
0000
0000
,
020M
0300
001M
0100
200M
0000
0002
0000
,
0000
0020
0000
0000
0003
3002
2000
0000
,
0003
3002
2000
0000
0003
3002
2000
0000
,
3003
0000
2002
0000
0000
0000
0000
0030
00M0
0000
0000
0000
0000
0000
0000
0000
,
3003
0000
0000
0000
;

//---------------dance-single - ----------------
#NOTES:
     dance-single:
     :
     Hard:
     12:
     0.000,0.000,0.000,0.000,0.000:
0000
0000
0000
0000
,
0000
0000
0000
0000
,
0000
0000
0000
0000
,
0000
0000
0000
0001
0100
0001
0110
0000
,
0001
0000
0000
0000
0010
0000
0000
0000
0000
0000
0000
0000
0100
0000
1000
0000
0100
0000
0000
1000
0000
0000
0000
0000
0110
0000
0000
0000
0000
0000
0000
0000
,
1000
0010
0101
0000
0001
0100
1010
0000
,
1000
0010
0101
0000
0001
0100
1010
0000
,
1000
0000
0010
1000
1001
0000
0001
0000
0010
0000
0100
0000
1100
0000
1000
0000
,
0010
0100
0101
0001
0100
0010
1010
1000
,
0100
1000
0010
0100
0001
0000
0010
0000
0001
0000
0020
0000
0000
0000
0130
0000
,
0010
0000
0200
0000
0000
0000
0310
0000
0001
0000
0200
0320
2030
3020
1030
0000
,
010M
001M
1000
0010
0100
0002
0000
0103
,
0001
0000
2000
3020
0000
0230
0302
0000
0103
0000
0000
0000
0001
0000
1000
0000
,
0100
0000
0010
0001
1000
0000
0010
1000
0001
0000
1000
0000
0100
0000
0000
0000
,
1000
0100
0010
0100
1000
0100
0010
0001
0010
0000
0210
0000
0000
0000
0010
0000
,
0310
0001
0010
0001
1000
0000
0010
0000
1000
0000
0010
0000
1010
0000
0011
0000
,
0000
0000
0001
0100
0000
0000
0010
1000
0020
0000
1000
0000
2030
0000
0100
0000
,
3200
0000
0310
0001
0010
0000
0001
0000
0010
0000
0001
0000
0011
0000
1010
0000
,
0000
0000
2000
3200
1000
0000
0000
0000
2300
0000
3020
0000
0230
0300
0200
0300
,
0020
0000
1030
0010
0100
0000
0010
0000
0100
0000
0010
0000
0100
0000
0010
0000
,
0000
0000
0000
0000
0110
0000
0000
0000
0000
0000
0000
0001
0000
0000
0010
0000
0002
0000
0000
0000
0203
0000
0302
0000
0023
0000
0030
0000
0010
0000
0000
0000
,
0100
0000
1000
0100
1000
0000
0010
0000
0100
0000
0001
0000
2000
3020
0230
0302
,
2003
0001
0000
0000
0000
0010
0100
0000
,
000M
0000
3100
0000
0100
0000
1000
0000
0010
0000
0100
0000
0010
1000
0000
0000
,
0001
0100
0010
1000
0001
0000
0100
0000
0001
0000
1100
0000
0011
0000
0010
0000
,
0001
0020
0000
0030
0100
1000
0100
1000
,
0010
0010
1000
0100
1000
0101
1010
1000
,
0010
2000
3002
0100
0M00
0100
0M00
0203
,
0000
0000
0301
0100
0000
0010
0000
1000
0010
0100
0001
1000
0100
0020
0000
0130
,
0100
0000
0000
0000
1000
0000
0010
0000
0100
0000
0010
0000
0100
0000
0000
0000
0001
0000
0000
0011
0000
0000
0000
0000
1000
0000
0010
0000
0100
0000
0001
0000
,
0000
0000
2000
0000
0010
3000
1000
0000
0010
0000
0100
0000
0010
0000
1000
0000
0100
0000
0010
0000
0001
0000
0010
0000
0001
0000
0100
0000
0001
0000
0011
0000
,
0000
0000
0010
0100
1000
1100
0000
0110
0000
0011
0000
0000
0001
0010
0100
1001
,
0000
0110
0000
0000
2100
0000
0100
0100
3000
0000
1000
0100
1000
0000
0100
1000
,
0100
0000
0010
0001
0000
0011
0000
0001
0010
0100
0010
0000
0110
0000
1000
0010
,
1000
0000
0001
0000
0010
0000
0100
0000
0010
0000
0100
1000
0010
0000
0010
1000
,
0001
0000
0000
0000
0010
0000
0000
0000
1001
0000
0000
0000
0110
0000
0000
0000
1001
0000
0000
0000
0001
0000
0100
0000
0010
0000
0000
1000
0000
0000
0000
0000
,
0010
1000
1100
0000
0001
0100
0101
0000
,
0001
0000
0100
0000
0010
0000
0010
1000
0010
0000
0110
0000
1001
0000
0000
0000
,
1000
0000
0010
0000
1000
0010
0100
0000
0100
0000
0001
0000
0100
0001
0010
0100
,
1000
0000
0000
0000
0000
0000
0010
0000
0000
0000
0000
0000
0100
0000
0000
0001
0100
0000
0010
0000
0100
0000
0001
0000
0000
0000
0001
0000
1000
0000
0000
0000
,
0110
0001
0100
0010
1010
0000
0011
0000
1010
0000
0011
0000
0110
0000
0110
0000
,
0000
0000
0001
0100
0101
0000
1100
0000
0101
0000
1100
0000
0201
0000
0320
2030
,
3200
2300
3100
0000
1000
0000
0010
0000
0100
0000
0001
0000
0000
0100
0000
0020
,
0130
0200
0000
0000
0000
0001
0001
0000
,
0000
0000
0010
0000
0010
0000
0000
0000
0000
0000
0301
0100
0010
0000
1000
0100
,
0000
0010
0100
0010
0100
0000
0200
0000
0320
0000
0230
0000
0000
0000
0000
0000
,
0000
0000
0040
0000
0000
0000
0000
0000
0000
0000
0330
0000
0002
0023
0230
0300
,
0000
2200
0000
3300
0000
0202
0000
0303
,
0000
2001
0000
0001
0001
0100
0100
0100
,
3100
1000
0100
0010
0001
0000
1000
0000
0010
0000
0200
0000
0000
0000
0310
0000
,
1000
0000
0100
0000
0010
0000
0002
0203
0000
0320
2030
0000
3000
0000
0010
0000
,
00M0
0000
0001
0100
0001
0000
0010
0000
0001
0000
0020
0000
0000
0000
0130
0000
,
1000
0000
0200
2300
3002
2003
3010
0000
0000
0000
0010
0000
0010
0000
00M0
0000
,
0002
0000
1003
0001
0010
0000
1001
0000
0001
0000
0110
0000
0100
0000
2002
0000
,
0000
0000
0003
0000
3020
0000
0000
0130
0010
0100
0020
0000
1000
0000
1000
0000
,
1030
0010
0100
0001
0100
0000
0102
0000
0103
0000
0210
0000
0310
0000
0210
0000
,
0310
1020
0000
1000
1000
1000
1000
1000
,
1000
1030
1010
0011
1010
0011
1001
1001
,
0000
0000
0000
0000
0000
0000
1010
0000
0000
0000
0000
0000
0000
0000
0000
0000
0120
0000
0000
0000
0000
0000
0000
0000
0000
0000
0000
0000
0000
0000
0130
0000
0000
0000
0000
0000
0100
0000
0000
0000
0000
0000
0001
0000
0000
0010
0000
0000
,
M100
0000
0010
0001
M100
0000
0011
0000
1010
0000
0011
0000
1001
0000
1001
0000
,
0000
0000
0200
0320
0000
2030
3200
0000
0320
0000
0230
0000
0320
0000
0032
0000
,
0023
0000
0031
1000
1100
0000
0101
0000
1100
0000
0101
0000
0110
0000
0110
0000
,
0000
0000
0000
0000
0000
0000
1001
0000
0000
0000
0000
0000
0000
0000
0000
0000
1001
0000
0000
0000
0000
0000
0000
0000
2000
0000
0000
3200
0000
0000
0310
0000
0000
0000
0000
0000
0020
0000
0000
0230
0000
0000
1300
0000
0000
0000
0000
0000
,
0200
0000
1300
0010
1000
0000
0100
0000
1000
0000
0001
0000
0002
0203
0320
2030
,
3002
0023
0000
0000
0000
0001
0100
0000
,
0000
0100
0001
0000
0000
0001
0100
0100
,
0100
0030
0220
0000
0000
0000
0000
0330
4000
0004
0000
0000
0000
0000
0000
3003
,
0000
1001
0000
0000
0000
0000
0000
0000
0000
0000
0000
0000
0000
0000
0000
0000
;

//---------------dance-single - ----------------
#NOTES:
     dance-single:
     :
     Challenge:
     13:
     0.000,0.000,0.000,0.000,0.000:
0000
0000
0000
0000
,
0000
0000
0000
0000
,
0000
0000
0000
0000
,
0000
0000
0000
0001
0100
0001
0110
0000
,
0001
0000
0000
0000
0010
0000
0000
0000
0000
0000
0000
0000
0100
0000
1000
0000
0100
0000
0000
1000
0000
0000
0000
0000
0110
0000
0000
0000
0000
0000
0000
0000
,
1000
0010
0101
0000
0001
0100
1010
0000
,
1000
0010
0101
0000
0001
0100
1010
0000
,
1000
0000
0010
1000
1001
0000
0001
0000
0010
0000
0100
0000
1100
0000
1000
0000
,
0010
0100
0101
0001
0100
0010
1010
1000
,
0100
1000
0010
0100
0001
0000
0010
0000
0001
0000
0020
0000
0000
0000
0130
0000
,
0010
0000
0200
0000
0000
0000
0310
0000
0001
0000
0200
0320
2030
3020
1030
0000
,
010M
001M
1000
0010
0001
2000
0000
3100
,
0001
0000
2000
3020
0000
0230
2300
0000
3100
0000
0000
0000
0100
0000
1000
0000
,
0100
0000
0010
0001
1000
0000
0010
1000
0001
0000
1000
0000
0100
0000
0000
0000
,
1000
0100
0010
0100
1000
0100
0010
0001
0010
0000
0210
0000
0000
0000
0010
0000
,
0310
0001
0010
0001
1000
0000
0010
0000
1000
0000
0010
0000
1010
0000
0011
0000
,
0000
0000
0001
0100
0000
0000
010M
1000
0020
0000
1000
0000
2030
0000
0100
0000
,
3200
0000
0310
0001
0010
0000
0001
0000
0010
0000
0001
0000
0011
0000
1010
0000
,
0000
0000
2000
3200
1000
0000
0000
0000
2300
0000
3020
0000
0230
0300
0200
0300
,
0020
0000
1030
0010
0100
0000
0010
0000
0100
0000
0010
0000
0100
0000
0010
0000
,
0000
0000
0110
0000
0000
0000
0001
0010
0002
0000
0203
0302
0023
0030
0010
0000
,
0100
0000
1000
0100
1000
0000
0010
0000
0100
0000
0001
0000
2000
3020
0230
0302
,
2003
0001
0000
0000
0000
0010
0100
0000
,
000M
0000
3100
0000
010M
0000
1000
0000
001M
0000
0100
0000
001M
2000
0000
0000
,
0002
0000
0020
3000
1003
0000
0001
0000
1000
0000
0001
0000
1000
0000
0001
0000
,
2000
0002
0000
3003
0001
1030
0100
0002
,
2000
0000
0200
0003
3001
0000
1000
0000
0001
0000
1000
0000
0001
0000
1000
0000
,
0001
2300
3002
0100
0M00
0100
0M00
0203
,
0000
0000
0301
0100
0000
0010
0000
0001
0010
0100
1000
0001
0100
0020
0000
0130
,
0100
0000
0000
0000
0001
0000
0010
0000
0100
0000
0010
0000
0100
0000
0000
0000
1000
0000
0000
1010
0000
0000
0000
0000
1000
0000
0010
0000
0100
0000
0001
0000
,
0000
0000
2000
0000
0010
3000
1000
0000
0010
0000
0100
0000
0010
0000
1000
0000
0100
0000
0010
0000
0001
0000
0010
0000
0001
0000
0100
0000
0001
0000
0011
0000
,
0000
0000
0010
0100
1000
1100
0000
0110
0000
0011
0000
0000
0001
0010
0100
1001
,
0000
0110
0000
0000
2100
0000
0100
0100
3000
0000
1000
0100
1000
0000
0100
1000
,
0100
0000
0010
0001
0000
0011
0000
0001
0010
0100
0010
0000
0110
0000
1000
0010
,
1000
0000
0001
0000
0010
0000
0100
0000
0010
0000
0100
1000
0010
0000
0010
1000
,
0001
0000
0000
0000
0010
0000
0000
0000
1001
0000
0000
0000
0110
0000
0000
0000
1001
0000
0000
0000
0001
0000
0100
0000
0010
0000
0000
1000
0000
0000
0000
0000
,
0010
1000
1100
0000
0001
0100
0101
0000
,
0001
0000
0100
0000
0010
0000
0010
1000
0010
0000
0110
0000
1001
0000
0000
0000
,
1000
0000
0010
0000
1000
0010
0100
0000
0100
0000
0001
0000
0100
0001
0010
0100
,
1000
0000
0000
0000
0000
0000
0010
0000
0000
0000
0000
0000
0100
0000
0000
0001
0100
0000
0010
0000
0100
0000
0001
0000
0000
0000
0001
0000
1000
0000
0000
0000
,
0110
0001
0100
0010
1010
0000
0011
0000
1010
0000
0011
0000
0110
0000
0110
0000
,
0000
0000
0001
0100
0101
0000
1100
0000
0101
0000
1100
0000
0201
0000
0320
2030
,
3200
2300
3100
0000
1000
0000
0100
0000
0010
0000
0001
0000
0000
0100
0000
0020
,
0130
0200
0000
0000
0000
0001
0001
0000
,
0000
0000
0010
0000
0010
0000
0000
0000
0000
0000
0301
0100
0010
0000
1000
0100
,
0000
0010
0100
0010
0100
0000
0200
0000
0320
0000
0230
0000
0000
0000
0000
0000
,
0000
0000
0040
0000
0000
0000
0000
0000
0000
0000
0330
0000
0002
0023
0230
0300
,
0000
2200
0000
3300
MM00
0202
0000
0303
,
0M0M
2001
0000
0001
0001
0100
0100
0100
,
3100
1000
0100
0010
0001
0000
1000
0000
0010
0000
0200
0000
0000
0000
0310
0000
,
1000
0000
0100
0000
0010
0000
0002
0203
0000
0320
2030
0000
3000
0000
0010
0000
,
00M0
0000
0001
0100
0001
0000
0010
0000
0001
0000
0020
0000
0000
0000
0130
0000
,
1000
0000
0200
2300
3002
2003
3010
0000
0000
0000
0010
0000
0010
0000
00M0
0000
,
0002
0000
1003
0001
0010
0000
1001
0000
0001
0000
0110
0000
0100
0000
2002
0000
,
0000
0000
0003
0000
3020
0000
0000
0130
0010
0100
0020
0000
1000
0000
1000
0000
,
1030
0010
0100
0001
0100
0000
0102
0000
0103
0000
0210
0000
0310
0000
0210
0000
,
0310
1040
0000
1000
1000
1000
1000
1000
,
1000
1030
1010
1010
1000
0100
1001
1001
,
0000
0000
0000
0000
0000
0000
1010
0000
0000
0000
0000
0000
0000
0000
0000
0000
0120
0000
0000
0000
0000
0000
0000
0000
0000
0000
0000
0000
0000
0000
0130
0000
0000
0000
0000
0000
0100
0000
0000
0000
0000
0000
0001
0000
0000
0010
0000
0000
,
M100
0000
0010
0001
M100
0000
0001
0000
0100
0000
1000
0000
0100
0000
0001
0000
,
0000
0000
0200
0320
0000
2030
3200
0000
0320
0000
0230
0000
0320
0000
0032
0000
,
0023
0000
0031
1000
1100
0000
0101
0000
1100
0000
0101
0000
1001
0000
0110
0000
,
0000
0000
0000
0000
0000
0000
0110
0000
0000
0000
0000
0000
0000
0000
0000
0000
1001
0000
0000
0000
0000
0000
0000
0000
2000
0000
0000
3200
0000
0000
0310
0000
0000
0000
0000
0000
002M
0000
0000
0230
0000
0000
1300
0000
0000
0000
0000
0000
,
020M
0000
1300
0010
100M
0000
0100
0000
100M
0000
0001
0000
0002
0000
1000
0000
,
2000
0020
0000
0000
0003
3002
2000
0000
,
0003
3002
2000
0000
0003
3002
2000
0000
,
3003
0000
0004
4000
0000
0000
0000
0030
00M0
0000
0000
0000
0000
0000
0000
0000
,
3003
0000
0000
0000
;

//---------------dance-single - ----------------
#NOTES:
     dance-single:
     :
     Edit:
     9:
     0.000,0.000,0.000,0.000,0.000:
0000
0000
0000
0000
,
0000
0000
0000
0000
,
0000
0000
0000
0000
,
0000
0000
0000
0001
0010
0001
0010
0000
,
0001
0000
0000
0000
0010
0000
0000
0000
0000
0000
0000
0000
0100
0000
0000
0000
1000
0000
0000
0100
0000
0000
0000
0000
1000
0000
0000
0000
0000
0000
0000
0000
,
0100
1000
1001
0000
0001
1000
0110
0000
,
0100
0010
1001
0000
1000
0001
0110
0000
,
0100
0010
1001
0000
0001
0100
1100
0000
,
1000
0100
0101
0000
0001
0100
1100
0000
,
1000
0100
0010
0001
0010
0002
0000
0103
,
0010
0200
0000
0310
1000
0020
2030
3000
,
0000
0000
1000
0010
0100
0002
0000
0013
,
0001
0020
0032
0000
0003
0000
0001
0000
,
0000
0000
0010
0001
0000
0000
0010
0001
0000
0000
1000
0000
0100
0000
0000
0000
,
0000
0000
0100
0000
1000
0000
0100
1000
0000
0000
0200
0000
0000
0000
0000
0000
,
0300
0000
1000
0010
1000
0010
1010
0011
,
0000
0101
0000
1100
2000
0000
3020
0000
,
0230
0000
0301
0010
0001
0010
0011
1010
,
0000
2100
0001
0000
3100
0000
1000
0010
,
1000
0000
0001
0100
0010
0100
0001
0100
,
0000
0000
0000
0000
0110
0000
0000
0000
0000
0000
0000
1001
0000
0000
0000
0000
2000
0000
0000
0000
0000
0000
0000
0000
3200
0000
0000
0000
0000
0000
0000
0000
,
0300
0000
1000
0010
0100
0001
1000
0000
,
0010
2000
0000
0000
0000
0010
0010
0000
,
0000
0100
0100
0000
0000
0010
3010
0000
,
0110
0000
0001
0100
0001
0101
1010
1000
,
0010
1000
0000
0000
1000
0010
0100
0100
,
0010
0010
1000
0100
1000
1100
0011
0001
,
0010
0002
0000
0010
00M0
0010
00M0
2003
,
0000
0000
0000
3000
0001
0000
0000
0000
0000
0000
0001
0000
0000
0000
0000
0000
0001
0000
0000
0000
0100
0000
0000
0000
0002
0000
0000
0000
0000
0000
0000
0000
,
0103
0000
0000
0000
0001
0000
0000
0000
0010
0000
0000
0000
M01M
0000
0000
0000
1000
0000
0000
0010
0000
0000
0000
0000
1000
0000
0000
0000
0010
0000
1000
0000
,
0000
0000
0000
1000
0010
0000
0100
0000
0001
0000
0001
0000
0010
0000
0001
0000
,
0011
0001
0010
0100
1000
0000
0001
0010
,
0100
0000
2200
0000
3300
1000
1000
0100
,
0100
0000
0010
0000
0001
0000
0100
0000
0010
0000
1000
0000
0010
0000
1000
0010
,
1000
1000
0010
0100
0001
0100
0001
0010
,
0001
0000
0000
0000
0010
0000
0000
0000
0100
0000
0000
0000
1000
0000
0000
0000
0100
0000
0000
0000
0010
0000
0001
0000
0010
0000
0000
0100
0000
0000
0000
0000
,
0010
0000
1100
0000
1000
0100
0101
0000
,
0001
0000
0100
0000
0000
0000
0010
1000
0010
0000
1000
0000
1010
0000
0000
0000
,
1000
0010
0100
0010
0100
0001
0100
0010
,
1000
0000
0000
0010
0000
0000
0100
0000
0010
0000
1000
0000
1001
0000
0000
0000
,
0110
0000
0001
0100
0001
0100
0001
0100
,
0000
0000
M10M
1000
0100
1000
0100
2000
,
0000
0000
3100
0000
1000
0000
0100
0000
0010
0000
0001
0000
0000
0100
0000
0010
,
0000
0200
0000
0000
0000
0001
0001
0000
,
0000
0010
0010
0000
0000
0301
0001
0001
,
0000
0100
0000
0000
0001
0000
0100
0000
0000
0000
0200
0000
0000
0000
0000
0000
,
0000
0020
0000
0000
0000
0330
0000
0000
,
0000
2200
0000
3300
0000
0202
0000
0303
,
0000
2000
0000
0100
0100
0100
0100
0100
,
0100
3100
1100
1000
0010
0200
0000
0310
,
1000
0100
0010
0200
2300
0000
3000
0010
,
00M0
0000
0001
0010
0001
0020
0000
0130
,
1000
0200
2300
3000
0000
0010
0010
00M0
,
0002
0000
0000
1003
0000
0000
1001
0000
0000
0000
0110
0000
0000
0000
2002
0000
,
0000
0000
3003
0000
0020
0000
0000
0130
0010
0100
0020
0000
0000
0000
0000
0000
,
0030
2100
0100
3100
0100
0210
0010
0310
,
0010
0021
0001
0001
0001
0001
0001
0001
,
0001
0001
0031
0010
0001
0010
0011
1010
,
0000
0000
0000
1010
0000
0000
0000
0000
0021
0000
0000
0000
0000
0000
0000
0130
0000
0000
0100
0000
0000
1000
0000
0000
,
0100
0010
0100
1000
0100
1000
1100
0101
,
0000
0210
0000
0000
0320
0230
0320
2030
,
3020
0000
0130
0001
0100
0001
0101
1100
,
0000
0000
0000
0101
0000
0000
0000
0000
1100
0000
0000
0000
4000
0000
0000
0000
0000
0000
000M
0000
0000
3000
0000
0000
,
020M
0300
001M
0100
200M
0000
0002
0000
,
0000
0020
0000
0000
0000
0000
0000
0000
,
0000
0000
0000
0000
,
0000
0000
0000
0000
0000
0000
0000
0030
00M0
0000
0000
0000
0000
0000
0000
0000
,
3003
0000
0000
0000
;
