#TITLE:Kung Fu Yu;
#SUBTITLE:;
#ARTIST:BBOSS;
#CREDIT:;
#MUSIC:KungFuYu_audio.mp3;
#SELECTABLE:YES;
#BACKGROUND:KungFuYu_bg.png;
#BANNER:KungFuYu_bg.png;
#CDTITLE:;
#OFFSET:-0.323;
#SAMPLESTART:120.802;
#SAMPLELENGTH:28.736;
#BPMS:0=84.041,2=84.0385,3=84.041,5=84.0385,6=84.041,7=84.0385,8=84.041,10=84.0385,11=84.041,12=84.0385,13=84.041,14=84.0385,15=84.041,17=84.0385,18=84.041,20=84.0385,21=84.041,22=84.0385,23=84.041,25=84.0385,26=84.041,28=84.0385,29=84.041,30=84.0385,31=84.041,33=84.0385,34=84.041,36=84.0385,37=84.041,38=84.0385,39=84.041,41=84.0385,42=84.041,44=84.0385,45=84.041,46=84.0385,47=84.041,49=84.0385,50=84.041,52=84.0385,53=84.041,54=84.0385,55=84.041,57=84.0385,58=84.041,60=84.0385,61=84.041,62=84.0385,63=84.041,64=84.0385,65=84.041,66=84.0385,67=84.041,68=84.0385,69=84.041,70=84.0385,71=84.041,72=84.0385,73=84.041,74=84.0385,75=84.041,76=84.0385,77=84.041,78=84.0385,79=84.041,80=84.0385,81=84.041,82=84.0385,83=84.041,84=84.0385,85=84.041,86=84.0385,87=84.041,88=84.0385,89=84.041,90=84.0385,91=84.041,92=84.0385,93=84.041,94=84.0385,95=84.041,96=84.0385,97=84.041,97=84.0385,98=84.041,99=84.0385,100=84.041,101=84.0385,102=84.041,103=84.0385,104=84.041,105=84.0385,106=84.041,107=84.0385,108=84.041,109=84.0385,110=84.041,111=84.0385,112=84.041,113=84.0385,114=84.041,115=84.0385,116=84.041,117=84.0385,118=84.041,119=84.0385,120=84.041,121=84.0385,122=84.041,123=84.0385,124=84.041,125=84.0385,126=84.041,127=84.0385,128=84.041,129=84.0385,130=84.041,131=84.0385,132=84.041,133=84.0385,134=84.041,135=84.0385,136=84.041,137=84.0385,138=84.041,139=84.0385,140=84.041,141=84.0385,142=84.041,143=84.0385,144=84.041,145=84.0385,146=84.041,147=84.0385,148=84.041,149=84.0385,150=84.041,151=84.0385,152=84.041,153=84.0385,154=84.041,155=84.0385,156=84.041,157=84.0385,158=84.041,159=84.0385,160=84.041,161=84.0385,162=84.041,163=84.0385,164=84.041,165=84.0385,166=84.041,167=84.0385,168=84.041,169=84.0385,170=84.041,171=84.0385,172=84.041,173=84.0385,174=84.041,175=84.0385,176=84.041,177=84.0385,178=84.041,179=84.0385,180=84.041,181=84.0385,182=84.041,183=84.0385,184=84.041,185=84.0385,186=84.041,187=84.0385,188=84.041,189=84.0385,190=84.041,191=84.0385,192=84.041,193=84.0385,194=84.041,195=84.0385,196=84.041,197=84.0385,198=84.041,199=84.0385,200=84.041,201=84.0385,202=84.041,203=84.0385;
#STOPS:97=4.99762;

//---------------dance-single - ----------------
#NOTES:
     dance-single:
     :
     Hard:
     13:
     0.000,0.000,0.000,0.000,0.000:
0000
0000
0000
0000
0000
0000
0000
0000
0000
0000
0000
0000
0000
0000
0000
0002
,
0000
0000
0000
0000
,
0000
0000
0000
0000
,
0000
0000
0003
0000
,
0000
0000
0000
0000
1000
0001
0000
0000
0000
0000
0001
1000
0000
0000
0000
0000
,
0001
1000
0001
1000
0001
1000
0001
1000
0001
0000
0001
0000
0000
0000
0000
0000
0000
0000
0000
0000
1000
0000
1000
0000
0000
0000
0000
0000
0000
0000
0000
0000
,
0000
0000
0000
0000
2000
0001
0000
0001
3000
0000
1000
1000
0000
0000
0000
0000
,
0000
0000
0000
0000
1001
1001
0000
0000
0000
0000
0001
0001
0000
1001
0001
0001
,
0001
0001
0001
0001
100M
0000
1001
0000
M002
0000
1003
0000
1001
0000
0001
0001
,
0001
1000
0000
0000
1001
0000
M00M
0000
0000
0000
0001
1000
0001
1000
0001
1000
,
0001
0000
0000
0000
1000
0000
0000
0000
0001
0000
0000
0000
0000
0000
0000
0000
0000
0000
0000
0000
1000
0000
0000
0000
0000
0000
0000
0000
0001
0000
0000
0000
0000
0000
0000
0000
1000
0000
0000
0000
1000
0000
0000
0000
0000
0000
0000
0000
0000
1000
0000
0000
0000
0000
0000
1000
0000
0000
0000
0000
0000
0000
0000
0000
,
0001
1000
100M
0000
M001
0001
1000
0001
1001
1000
1000
0001
1000
0000
1000
1000
,
0001
0000
0001
0001
0000
0000
1001
0000
1000
0001
0000
0000
0000
0000
1001
0001
,
1000
0000
0000
0000
1000
0000
1000
0000
0000
0000
0000
0000
1001
0000
1000
0000
0001
0000
0000
0000
0000
0002
0000
0000
0000
0000
1000
0000
0003
0000
0000
1000
,
0001
0000
1001
0000
0000
0000
1001
1001
0000
1000
2001
0000
3001
0001
1000
0001
,
M00M
0000
0000
0000
M00M
0000
0000
0000
0000
0000
1000
0000
1000
0000
1000
0000
0002
0000
0000
0000
1003
0000
0000
M001
0000
0000
100M
0000
0000
0000
1000
0000
,
0001
0000
0000
0000
2000
0000
0000
0000
3000
0000
0000
0000
0001
0000
0001
0000
0000
100M
0000
0000
1000
0000
1000
0000
0000
1000
0000
0000
0001
1000
0000
0000
,
2002
3003
0000
1000
0001
0001
0000
0001
0000
0001
0000
1001
100M
1000
0000
M001
,
0000
0000
0000
0000
0001
0000
0000
0001
0000
0000
0000
0000
1000
0000
1000
0000
0000
1001
0000
0000
1000
0000
1000
0000
0001
0000
0000
0000
1001
0000
0000
0000
,
1001
0000
0000
0000
0000
0000
0000
0000
100M
0000
0000
0000
0000
0000
M001
0000
100M
0000
0000
M001
0000
100M
0000
0000
0001
0000
0001
0000
1000
0000
1000
0000
,
2002
0000
0003
0000
3002
0000
0000
0000
0000
0000
0000
0000
2003
0000
0000
3000
,
2002
0000
0000
3003
2002
0000
0000
0000
3003
0000
0000
0000
0000
0000
0000
0000
,
0000
0000
0000
0000
2000
0000
0000
0000
0000
0000
0000
0000
3002
0000
0000
0003
,
2002
0000
0000
3003
2002
0000
0000
3003
0000
0000
0000
0000
1000
1000
1000
0000
,
0001
0001
0001
0000
0000
0000
0000
0000
0001
1000
0000
0000
0000
0000
1000
0001
,
0000
0000
0000
0000
0000
0000
0000
0000
0001
1000
0000
0000
0000
0000
1000
0002
,
0000
0000
1000
0000
1000
0000
1000
0000
1000
0000
1000
0000
1000
0000
1003
0000
1000
0000
0001
0000
0000
MMMM
0000
0000
1001
0000
0000
0000
0000
0000
1000
0000
,
0000
0000
0001
0000
M002
0000
0000
0000
1003
0000
0000
0000
0000
0000
0000
0000
1000
0000
0000
200M
0000
0000
0000
0000
3001
0000
0000
0000
0000
0000
0001
0000
,
1000
0001
1000
0001
1001
0000
0000
1000
0001
1000
1001
0000
0001
0001
0001
1000
,
0000
0000
1000
0000
0000
0000
0000
1000
0000
0000
0000
0000
0000
0000
0000
0000
1001
0000
0000
0000
0000
0000
0000
0000
1001
0000
0000
0000
0000
0000
0000
0000
1000
0000
0000
0000
0001
0000
0000
0000
1000
0000
0000
0000
0002
0000
0000
0000
M003
0000
0000
0000
0000
0000
0000
0000
1000
0000
0000
0000
1000
0000
0000
0000
,
0001
0001
1000
1001
0000
1001
0000
0000
1000
1000
1000
1000
1001
0000
1001
0000
,
0000
0000
0000
1001
0000
M001
0000
0000
0001
0001
0001
0001
1000
1000
1000
0000
,
0000
0000
0000
1001
0000
100M
0000
1000
1000
1000
1000
1000
0001
0001
0001
0000
,
0000
0000
0000
1001
M00M
1001
0000
1000
0001
1000
1000
0001
1000
0001
0001
1000
,
1000
0000
0000
0001
0000
0000
1000
0000
0000
0002
0000
0000
0000
0000
0000
M003
0000
0000
0000
0000
0000
0000
0000
0000
1000
0000
0000
1000
0000
0000
1000
0000
0000
0000
0000
0000
0001
0000
0000
0000
0001
0000
0001
0000
0000
0000
0000
0000
,
1000
0000
0000
1000
0000
0000
1001
0000
0000
0000
1001
0000
0000
0000
0001
0000
1000
0000
0001
0000
0001
0000
0001
0000
0001
0000
0000
0000
1000
0000
0001
0000
,
1000
1000
0000
1001
M00M
1001
0000
0000
1000
0000
1000
1000
1000
0000
0001
0002
,
0003
0001
0000
0001
1001
M00M
1001
0000
100M
0000
1001
0000
M001
0000
1001
1000
,
1000
0000
0000
0000
0000
0000
0000
0000
1000
0000
0000
0000
0000
0000
0000
0000
0001
0000
0000
0000
0000
0000
0000
0000
M00M
0000
0000
0000
0000
0000
1001
0000
0000
0000
0000
0000
0000
0000
0000
0000
0000
0000
0000
0000
0000
0000
0000
0000
0000
0000
0000
0000
0000
0000
0000
0000
0000
0000
0000
0000
1000
0000
0000
0000
0000
0000
1000
0000
0000
0000
0000
0000
1000
0000
0000
0000
0000
0000
0001
0000
0000
0000
0000
0000
1000
0000
0000
0000
0000
0000
0000
0000
0000
0001
0000
0000
,
0000
0000
0001
0000
0000
0000
0001
0000
0000
0000
1000
0000
0001
0000
0000
0000
0000
0000
1000
0000
0001
0000
0001
0000
1000
0000
0001
0000
0000
0000
1000
0001
,
1000
1000
0000
1001
M00M
1001
0000
0000
100M
000M
100M
0000
M001
M000
M001
0000
,
1000
0002
0000
M003
0000
0001
0000
0000
1000
0000
1000
M00M
0001
0000
0001
1000
,
1000
0000
0001
0000
1001
0000
100M
0000
4000
0000
0000
0000
0000
0000
0000
3000
,
M004
0000
0000
0003
400M
0000
0000
3000
M002
0000
1000
0003
1000
1000
0000
0001
,
0001
0000
1000
1000
0000
0001
1001
0000
0004
0000
0000
0000
0000
0000
0000
0003
,
400M
0000
0000
3000
M004
0000
0000
0003
200M
0000
0001
3001
0001
1000
0001
0000
,
0000
1000
1000
0001
0001
1000
0001
0000
0004
0000
0000
0000
0000
0000
0000
0003
,
400M
0000
0000
3000
M004
0000
0000
0003
200M
0000
0001
3000
0001
0001
1000
1000
,
0000
1000
0000
0001
0001
0000
0001
0001
4000
0000
0000
0000
0000
0000
0000
3000
,
M004
0000
0000
0003
400M
0000
0000
3000
M002
0000
0000
0003
1000
0001
1000
100M
,
1001
1001
1001
M001
1001
1001
1001
0000
0000
0000
0000
0000
0000
0000
0000
0000
,
0000
0000
0000
0000
;
