#TITLE:Juice;
#SUBTITLE:;
#ARTIST:Lizzo;
#CREDIT:Vndt;
#GENRE:Funk;
#MUSIC:Juice_audio.ogg;
#SELECTABLE:YES;
#BACKGROUND:juice_bg.png;
#BANNER:juice_bn.png;
#JACKET:juice_jk.png;
#CDTITLE:Cuz I Love You;
#OFFSET:-0.137982;
#SAMPLESTART:49.638;
#SAMPLELENGTH:16.000;
#BPMS:0=120;
#STOPS:195.5=1.5;
#BGCHANGES:-0.28=juice_video.mov=1.000=1=0=0=StretchNoLoop==CrossFade==,
260.50=juice_bg.jpg=1.000=1=0=1===CrossFade==,
99999=-nosongbg-=1.000=0=0=0 // don't automatically add -songbackground-

//---------------dance-single - ----------------
#NOTES:
     dance-single:
     :
     Beginner:
     3:
     0.000,0.000,0.000,0.000,0.000:
0000
0000
0000
0000
,
0000
0000
0000
0000
,
0000
0000
0000
0000
,
0000
0000
0000
0000
,
0000
0000
0000
1000
,
0000
0000
0000
1000
,
0000
0010
0000
0100
,
0000
0000
0000
0100
,
0000
0001
0000
0110
,
0110
0010
0000
1000
,
0000
1001
0000
0001
,
1000
0010
0000
1000
,
0001
0100
0000
0001
,
0010
0100
0000
0010
,
0100
1000
0000
1000
,
0010
0100
0000
0010
,
0100
0001
0000
1001
,
0000
0001
0000
0001
,
0000
0001
0000
1001
,
0000
0100
0000
0010
,
0000
0100
0000
1001
,
0000
1000
0000
1000
,
0000
1000
0000
1001
,
0000
0010
0000
0100
,
0010
0100
0000
0110
,
0000
1000
0000
0100
,
0100
0100
0000
0010
,
0010
0010
0000
0100
,
0100
0100
0000
0110
,
0000
0001
0000
0010
,
0010
0010
0000
0100
,
0100
0100
0000
0010
,
0010
0010
0100
0000
,
1000
0000
0100
0000
,
1000
0000
0100
1000
,
1000
1000
0000
0001
,
0001
0001
0001
0000
,
0100
0000
0001
0000
,
0100
0000
0001
0100
,
0100
0100
0000
0010
,
0010
0010
0020
0030
,
1000
0000
0000
0000
2000
0000
0000
3000
,
0000
0000
0100
0000
0100
0100
0100
0000
,
0000
0100
0000
0000
0010
0010
0010
0000
,
0000
0010
0000
0000
0000
0000
0000
0000
,
0001
0000
0000
0000
0002
0000
0000
0003
,
0000
0100
0100
0100
,
0000
0100
0000
0000
0010
0000
0010
0000
,
0000
0040
0000
0000
0030
0000
0110
0000
,
2000
0100
3100
0000
,
0002
0100
0103
0000
,
2000
0100
3100
0000
,
0000
0001
0020
0031
,
0100
0001
0010
0000
,
0002
0100
2003
0100
,
3002
0000
0100
0000
1003
0000
1000
1000
,
0000
0000
0000
0000
0000
0000
0100
0100
,
0000
0000
0100
0100
0000
0000
0010
0010
,
0000
0000
1001
0000
,
0000
0000
0000
0000
1001
0000
0001
0001
,
0000
0000
0000
0000
0000
0000
0010
0010
,
0000
0000
0010
0010
0000
0000
0100
0100
,
0000
0000
0110
0000
,
0010
0100
0010
0220
,
0000
0330
0000
0000
0000
0000
0000
0000
,
0000
0000
0000
0000
;

//---------------dance-single - ----------------
#NOTES:
     dance-single:
     :
     Easy:
     5:
     0.000,0.000,0.000,0.000,0.000:
0000
0000
0000
0000
,
0000
0000
0000
0000
,
0000
0000
0000
0000
,
0000
0000
0000
0000
,
0000
0000
0000
1000
,
0100
1000
0100
0010
,
0001
0010
0001
0100
,
0010
0100
0010
0100
,
0001
0100
0001
0101
,
0101
0001
0020
0031
,
1000
0000
1001
0000
1000
1000
0001
0000
,
0010
0100
1000
1000
,
0010
0000
0100
0000
0001
0001
0001
0000
,
0010
0100
1000
0010
,
0100
0000
0001
0000
1000
1000
1000
0000
,
0010
0100
0001
0010
,
0100
1000
0000
1001
,
1000
0100
0001
0100
,
1000
0200
0310
0110
,
0001
0100
1000
0100
,
0001
0100
0010
0110
,
1000
0100
1000
0010
,
1000
0100
1000
1001
,
0001
0000
0010
0000
0001
0000
0100
0001
,
0100
0001
0100
0000
0000
0000
0110
0000
,
1000
0000
1000
0000
1000
0000
0100
0010
,
0100
0010
0100
0000
0010
0000
0010
0100
,
0010
0100
0010
0000
0001
0000
0100
0010
,
0100
0010
0100
0000
0010
0000
0110
0000
,
0001
0000
0001
0000
0001
0000
0100
0010
,
0100
0010
0100
0000
0010
0000
0010
0100
,
0010
0100
0010
0000
1000
0000
0100
0010
,
0100
0010
0100
0000
0010
0010
0000
0000
,
0001
0001
0000
0000
0100
0100
0000
0000
,
0001
0001
0000
0000
0010
0010
0001
0000
,
0001
0001
0010
0001
,
0001
0000
0001
0000
0010
0100
0000
0000
,
0010
0100
0000
0000
1000
0001
0000
0000
,
1000
0001
0000
0000
1000
0001
0100
0000
,
0100
0100
0001
0010
,
0010
0010
2002
3003
,
1000
0000
0100
0000
2000
0000
0000
3000
,
0100
0000
0100
0000
0100
0100
0100
0000
,
0000
MMMM
0000
0000
0010
0010
0010
0000
,
0000
0010
0000
0000
0000
0000
0000
0000
,
0001
0000
0001
0000
0002
0000
0000
0003
,
0100
0000
0100
0000
0100
0100
0100
0000
,
0000
MMMM
0000
0000
0010
0010
0010
0000
,
0000
0400
0000
0000
0300
0000
0110
0000
,
2000
0000
0100
0100
3100
0000
0000
0000
,
0002
0000
0100
0100
0103
0000
0000
0000
,
2000
0000
0100
0100
3100
0000
0000
0000
,
0000
0000
0001
0001
0020
0000
0031
0000
,
0100
0000
0001
0001
0010
0000
0000
0000
,
0002
0100
0100
0000
2003
0000
0100
0000
,
3002
0000
0100
0100
0103
0000
0001
0001
,
0000
0000
0000
1000
1000
0000
0100
0100
,
0000
0000
0100
0100
0000
0000
0010
0010
,
0001
0010
0001
0010
0001
0000
1000
0100
,
1000
0100
1000
0100
1000
0000
0001
0001
,
0000
0000
1000
1000
0000
0000
0010
0010
,
0000
0000
0010
0010
0000
0000
0100
0100
,
0100
0010
0100
0010
0100
0000
0010
0100
,
0010
0100
0010
0100
0010
0000
0220
0000
,
0000
0330
0000
0000
0000
0000
0000
0000
,
0000
0000
0000
0000
;

//---------------dance-single - ----------------
#NOTES:
     dance-single:
     :
     Medium:
     8:
     0.000,0.000,0.000,0.000,0.000:
0000
0000
0000
0000
,
0000
0000
0000
0000
,
0000
0000
0000
0000
,
0000
0000
0000
0000
,
0000
0000
0000
1000
,
0100
1000
1000
0000
0100
0000
0010
0000
,
0001
0001
0010
0000
0001
0000
0100
0000
,
0010
0010
0100
0000
0010
0000
0100
0000
,
0001
0000
0001
0000
0100
0000
0000
0000
0001
0000
0100
0000
0001
0100
0000
0000
,
0001
0100
0000
0000
0001
0000
0000
0000
0020
0000
0000
0000
0031
0000
0010
0000
,
0100
1000
1001
0001
0100
0010
0001
0000
,
0010
0000
0100
0000
0001
0010
0100
0010
,
0100
0000
1000
0000
0100
0000
1000
0000
0100
0000
0010
0000
0001
0010
0000
0000
,
0010
0100
0000
0000
0100
1000
0000
0000
1000
0000
1000
0000
0100
0000
1000
0000
,
0010
0000
1000
0000
0100
0000
1000
0000
1000
0000
1000
0000
0001
0010
0000
0000
,
0010
0100
0000
0000
0100
0000
1000
0002
0000
0000
1003
0000
0001
0000
0010
0000
,
0001
0000
0100
0000
0001
0000
1000
0000
0001
1000
0000
0000
1001
0000
0000
0000
,
1000
0100
0000
0000
1000
0100
0000
0000
0010
0100
0000
0000
0010
0100
0000
0000
,
1000
0100
0000
0000
0200
0000
0000
0000
0310
0100
0000
0000
0110
0000
0000
0000
,
0001
0100
0000
0000
0001
0100
0000
0000
0010
0100
0000
0000
0010
0100
0000
0000
,
0001
0100
0000
0000
0200
0000
0000
0000
0310
0100
0000
0000
0110
0000
0000
0000
,
1000
0001
0000
0000
0001
1000
0000
0000
1000
0001
0000
0000
0001
2000
0000
0000
,
3001
2000
0000
0000
3200
0000
0000
0000
1300
0100
0000
0000
1100
0000
0000
0000
,
0001
0100
1000
0100
0001
0100
1000
0100
,
0010
1000
1010
0000
0000
0000
0110
0000
,
1000
0100
2000
0000
3100
0010
0001
0100
,
0001
0010
0001
0000
1000
0010
1000
0100
,
1000
0010
1000
0000
1000
1000
0100
0010
,
0100
0000
1000
0000
0100
0000
0000
0000
0020
0000
0000
0130
0010
0000
0000
0000
,
0001
0100
0002
0000
0103
0010
1000
0100
,
1000
0010
1000
0000
0001
0010
0001
0100
,
0001
0010
0001
0000
0001
0001
0100
0010
,
0100
0001
0100
0000
0001
0101
0000
0000
,
1000
1100
0000
0000
0100
0110
0000
0000
,
0010
0011
0000
0000
0010
0010
0001
0010
,
0100
1000
1001
0000
0001
0100
0001
0100
,
0010
1000
1001
0000
1000
1100
0000
0000
,
0001
0101
0000
0000
0100
0110
0000
0000
,
0010
1010
0000
0000
0010
0010
1000
0010
,
0100
0001
1001
0000
1000
0100
1000
0100
,
0010
0001
1001
0002
4000
0000
3003
0000
,
1000
0100
1000
0001
2000
0000
0000
3000
,
0100
0100
0010
0010
0100
1000
0100
0000
,
0000
MMMM
0000
0000
0001
0010
0001
0000
,
0000
0000
0011
0000
0000
0001
0000
0100
0010
0000
0100
0000
0000
0000
0000
0000
,
0001
0100
0001
1000
0002
0000
0000
0003
,
0100
0100
0010
0010
0100
0100
0100
0000
,
0000
MMMM
0000
0000
0010
0010
0010
0000
,
0000
0000
1000
0100
1000
0100
1000
0100
0000
0000
0000
0000
1100
0000
0000
0000
,
2000
0100
0100
0001
3001
0000
0001
0010
,
0002
0100
0100
1000
1003
0000
1000
0010
,
2000
0000
0100
0000
0100
0000
0001
0000
3001
0000
0000
0000
0002
0000
0000
0103
,
0000
0000
0001
0001
0020
0000
0031
1000
,
0100
0010
0001
0001
0010
0000
0001
0010
,
0002
0100
0100
1000
2003
0100
0100
0001
,
3002
0100
0100
1000
1003
0000
0110
1001
,
0000
0000
0000
1000
0100
0000
1100
1100
,
0000
0000
0101
0101
0000
0000
0011
0011
,
0001
0010
0001
0010
0001
0000
1000
1000
,
0100
0100
1000
0100
1000
0000
0101
1100
,
0000
0000
1000
0010
0000
0000
1010
0011
,
0000
0000
0101
1100
0000
0000
0101
1100
,
0100
1000
0100
0010
0100
0000
0010
0001
,
0100
0000
0010
0000
1000
0000
0100
0000
0010
0000
0000
0000
0220
0000
0000
0330
,
0MM0
0000
0000
0000
,
0000
0000
0000
0000
;

//---------------dance-single - ----------------
#NOTES:
     dance-single:
     :
     Hard:
     13:
     0.000,0.000,0.000,0.000,0.000:
0000
0000
0000
0000
,
0000
0000
0000
0000
,
0000
0000
0000
0000
,
0000
0000
0000
0000
,
0000
0000
0000
0000
0000
0000
0000
0000
0000
0000
0000
0000
1000
0000
1000
0100
,
0010
0000
0001
0000
0001
0000
0100
0000
0010
0000
1000
0000
0010
0000
1000
0100
,
0010
0000
0001
0000
0010
0000
0001
0100
0010
0000
1000
0000
0100
0000
1000
0100
,
0010
0000
0100
0000
1000
0000
0010
0000
1000
0000
0001
0000
0100
0000
0001
0100
,
0010
0000
0100
0000
0001
0000
0000
0010
0100
0000
0110
0000
0100
1000
0000
0000
,
1000
0001
0000
0000
0001
0000
0000
0001
0020
0000
0031
0000
0001
0000
0010
0100
,
0010
0000
0110
0000
1001
0000
0002
0000
0010
0000
1003
0000
0001
0010
0000
0000
,
001M
1000
0000
0000
0200
0000
0000
1300
0001
0000
0010
0000
1000
0000
0010
0000
,
0001
0000
0100
0000
1000
0000
0200
0000
1000
0000
0301
0000
0001
0100
0000
0000
,
010M
1000
0000
0000
0010
1000
0000
0000
0100
0000
1000
0100
1000
0000
0001
0100
,
0001
0000
0110
0000
1001
0000
2000
0000
0010
0000
3100
0000
1000
0010
0000
0000
,
M010
0001
0000
0000
0100
0000
0100
0001
0000
0000
1000
0000
0001
0000
0010
0100
,
1000
0000
0100
0000
0001
0000
0100
0000
1000
0002
0000
0000
0013
0000
0000
0000
,
0010
0100
0000
0000
1000
0010
0000
0000
0100
0010
0000
0000
1000
0100
0000
0000
,
0001
0100
0000
0000
1200
0000
0000
0000
0310
0100
0000
0000
0110
0000
0000
0000
,
0100
0010
0000
0000
0001
0100
0000
0000
0010
0100
0000
0000
0001
0010
0000
0000
,
1000
0010
0000
0000
0021
0000
0000
0000
0130
0010
0000
0000
0110
0000
0000
0000
,
1000
0001
0000
0000
0001
0100
0000
0000
010M
1000
0000
0000
1000
0001
0000
0000
,
0001
1000
0000
0000
0201
0000
0000
0000
1300
0100
0000
0000
1100
0000
0000
0000
,
1000
0100
0001
0010
0001
0100
0010
1000
,
0400
0010
1000
0000
1300
0010
0110
0000
,
1000
0100
2000
0100
3100
0010
0001
0100
,
0001
0010
0001
0001
1000
0010
1000
0100
,
1000
0010
1000
0001
1000
1000
0100
0010
,
0100
0000
1000
0000
0100
0000
1000
0000
0020
0000
0000
0130
0010
0000
0100
0000
,
0001
0100
0002
0100
0103
0010
1000
0100
,
1000
0010
1000
1000
0001
0010
0001
0100
,
0001
0000
0010
0000
0001
0000
1000
0000
0001
0000
0001
0010
0100
0000
0010
0000
,
0100
0000
1000
0000
0100
0000
0000
0010
0001
0000
0101
0000
0100
0000
0000
0000
,
1M00
1100
0100
0000
0100
0110
0010
0000
,
0010
0011
0001
0000
0010
0011
0001
0010
,
0100
0000
1000
0000
1001
0000
1000
0001
0100
0000
0001
0000
0100
0000
0001
0000
,
0010
0000
1000
0000
0010
0001
1000
0000
1000
0000
1100
0000
0100
0000
0000
0000
,
0M01
0101
0100
0000
0100
0110
0010
0000
,
0010
1010
1000
0000
0010
0010
1000
0010
,
0100
0000
0001
0000
1001
0000
0001
0010
0100
0000
1000
0000
0100
0000
1000
0000
,
0010
0000
0001
0000
0011
0010
0100
0001
0010
0000
0100
0000
1000
0000
0000
1000
,
0010
0100
0001
0000
1100
0000
0011
0000
2100
0000
0000
0000
0000
0000
3000
0100
,
1000
0010
0100
0000
0010
0000
0100
0000
0001
0000
0101
0000
1010
0000
0000
0000
,
0000
MMMM
0000
0000
0001
1010
0101
0000
,
0000
0000
MMMM
0000
0000
0001
0000
0100
0010
0000
0100
0000
0000
0000
0000
0001
,
1000
0010
0100
0000
0001
0000
0101
0000
1020
0000
0000
0000
0000
0000
0000
0000
,
0130
0001
0010
0100
0010
0000
0100
0000
0010
0000
0100
0000
1001
0000
0000
0000
,
0000
0000
MMMM
0000
0000
0000
0000
0000
1000
0000
0010
0000
1000
0000
0000
0001
,
0010
0100
1000
0010
0100
0000
0001
0100
1000
0000
0100
0000
0101
0000
0000
0000
,
2001
0100
0100
0001
3001
0000
0001
0010
,
1002
0000
0100
0000
0100
0000
1000
0000
1003
0000
0010
0001
0010
0000
1000
0000
,
2010
0000
0100
0000
0100
0000
0001
0000
3001
0010
0100
1000
0002
0000
0000
0103
,
0001
0000
1001
0001
0020
0000
0031
1000
,
0100
0010
0001
0001
0010
0000
0001
0010
,
0002
0000
0100
0000
0100
0000
1000
0003
1001
0000
1000
0010
0100
0000
0001
0000
,
1002
0100
0100
1000
1003
0000
0110
1001
,
0001
0000
0100
0000
0001
0000
0010
0100
0010
0001
0010
0100
1100
0000
1100
0000
,
0100
0000
0101
0101
0100
0000
0011
0011
,
0001
0000
0010
0000
0001
0000
0010
0000
0001
0000
0001
0010
0100
0000
1000
0000
,
0100
1000
1000
0100
1000
0000
0101
1100
,
1000
0000
0100
0000
1000
0000
0010
0100
0010
1000
0010
0100
0101
0000
0101
0000
,
0100
0000
0000
0000
0101
0000
1100
0000
1000
0001
0000
0000
0101
0000
1100
0000
,
0100
0000
1000
0000
0100
0000
0010
0000
0100
0000
0010
0100
0010
0000
0001
0000
,
0100
0000
0010
0000
1000
0100
1000
0010
1000
0000
0001
1000
0002
2000
0000
0000
,
0010
0000
3003
0000
,
0000
0000
0000
0000
;

//---------------dance-single - ----------------
#NOTES:
     dance-single:
     :
     Edit:
     12:
     0.000,0.000,0.000,0.000,0.000:
0000
0000
0000
0000
,
0000
0000
0000
0000
,
0000
0000
0000
0000
,
0000
0000
0000
0000
,
0000
0000
0000
0000
0000
0000
0000
0000
0000
0000
0000
0000
1000
0000
1000
0100
,
0010
0000
0001
0000
0001
0000
0100
0000
0010
0000
1000
0000
0010
0000
1000
0100
,
0010
0000
0001
0000
0010
0000
0001
0100
0010
0000
1000
0000
0100
0000
1000
0100
,
0010
0000
0100
0000
1000
0000
0010
0000
1000
0000
0001
0000
0100
0000
0001
0100
,
0010
0000
0100
0000
0001
0000
0000
0010
0100
0000
0110
0000
0100
1000
0000
0000
,
1000
0001
0000
0000
0001
0000
0000
0001
0020
0000
0031
0000
0001
0000
0010
0100
,
0010
0000
0110
0000
1001
0000
0002
0000
0010
0000
1003
0000
0001
0010
0000
0000
,
0010
0100
0000
0000
0200
0000
0000
1300
0001
0000
0010
0000
0100
0000
0010
0000
,
0001
0000
0100
0000
0001
0000
0200
0000
0010
0000
0301
0000
0001
0100
0000
0000
,
0100
0010
0000
0000
0010
1000
0000
0000
0100
0000
1000
0100
1000
0000
0001
0100
,
0001
0000
0110
0000
1001
0000
2000
0000
0010
0000
3100
0000
1000
0010
0000
0000
,
0010
0100
0000
0000
0100
0000
0100
0001
0000
0000
1000
0000
0001
0000
0010
0100
,
1000
0000
0100
0000
0010
0000
0100
0000
1000
0002
0000
0000
0013
0000
0000
0000
,
0010
0100
0000
0000
1000
0010
0000
0000
0100
0010
0000
0000
1000
0100
0000
0000
,
0100
0010
0000
0000
1200
0000
0000
0000
0310
0100
0000
0000
0110
0000
0000
0000
,
0100
0010
0000
0000
1000
0100
0000
0000
0010
0100
0000
0000
0100
0010
0000
0000
,
0001
0010
0000
0000
0021
0000
0000
0000
0130
0010
0000
0000
0110
0000
0000
0000
,
1000
0001
0000
0000
0001
0100
0000
0000
0100
0010
0000
0000
0010
1000
0000
0000
,
0001
1000
0000
0000
0201
0000
0000
0000
0301
0100
0000
0000
1100
0000
0000
0000
,
1000
0100
0010
0001
0001
0100
0010
1000
,
0200
0010
1000
0000
1300
0010
0110
0000
,
1000
0100
2000
0100
3100
0010
0001
0100
,
0001
0010
0001
0001
1000
0010
1000
0100
,
1000
0010
1000
0001
1000
1000
0100
0010
,
0100
0000
1000
0000
0100
0000
1000
0000
0020
0000
0000
0130
0010
0000
0100
0000
,
0001
0100
0002
0100
0103
0010
1000
0100
,
1000
0010
1000
1000
0001
0010
0001
0100
,
0001
0000
0010
0000
0001
0000
1000
0000
0001
0000
0001
0010
0100
0000
0010
0000
,
0100
0000
1000
0000
0100
0000
0000
0010
0001
0000
0101
0000
0100
0000
0000
0000
,
0010
0110
0100
0000
0100
0110
0010
0000
,
0010
1010
1000
0000
0001
0011
0010
0010
,
0100
0000
1000
0000
1001
0000
1000
0001
0100
0000
0001
0000
0100
0000
0001
0000
,
0010
0000
0100
0000
0010
0001
1000
0000
1000
0000
1100
0000
0100
0000
0000
0000
,
0100
0110
0010
0000
0010
0110
0100
0000
,
0100
1100
1000
0000
0010
1010
1000
0010
,
0100
0000
0001
0000
1001
0000
0001
0010
0100
0000
1000
0000
0100
0000
1000
0000
,
0010
0000
0100
0000
1010
0010
0100
0001
0010
0000
0100
0000
1000
0000
0000
1000
,
0010
0100
0001
0000
1100
0000
0011
0000
2100
0000
0000
0000
0000
0000
3000
0100
,
1000
0010
0100
0000
0010
0000
0100
0000
0001
0000
0101
0000
1010
0000
0000
0000
,
0000
MMMM
0000
0000
0001
1010
0101
0000
,
0000
0000
MMMM
0000
0000
0001
0000
0100
0010
0000
0100
0000
0000
0000
0000
0001
,
1000
0010
0100
0000
0001
0000
0101
0000
1020
0000
0000
0000
0000
0000
0000
0000
,
0130
0001
0010
0100
0010
0000
0100
0000
0010
0000
0100
0000
1001
0000
0000
0000
,
0000
0000
MMMM
0000
0000
0000
0000
0000
1000
0000
0010
0000
1000
0000
0000
0001
,
0010
0100
1000
0010
0100
0000
0001
0100
0010
0000
0100
0000
0101
0000
0000
0000
,
2001
0100
0100
0001
3001
0000
0001
0010
,
1002
0000
0100
0000
0100
0000
1000
0000
1003
0000
0010
1000
0010
0000
1000
0000
,
2010
0000
0100
0000
0100
0000
0001
0000
3001
0010
0100
1000
0002
0000
0000
0103
,
0001
0000
1001
0001
0020
0000
0031
1000
,
0100
0010
0001
0001
0010
0000
0001
0010
,
0002
0000
0100
0000
0100
0000
1000
0003
1001
0000
1000
0010
0100
0000
0001
0000
,
1002
0100
0100
1000
1003
0000
0110
1001
,
0001
0000
0100
0000
0001
0000
0010
0100
0010
0001
0010
0100
1100
0000
1100
0000
,
0100
0000
0101
0101
0100
0000
0011
0011
,
0001
0000
0010
0000
0001
0000
0010
0000
0001
0000
0001
0010
0100
0000
1000
0000
,
0100
1000
1000
0100
1000
0000
0101
1100
,
1000
0000
0100
0000
1000
0000
0010
0100
0010
1000
0010
0100
0101
0000
0101
0000
,
0100
0000
0000
0000
0101
0000
1100
0000
1000
0001
0000
0000
0101
0000
1100
0000
,
0100
0000
1000
0000
0100
0000
0010
0000
0100
0000
0010
0100
0010
0000
0001
0000
,
0100
0000
0010
0000
1000
0100
1000
0010
1000
0000
0001
1000
0001
2000
0000
0000
,
0100
0000
3000
0000
,
0000
0000
0000
0000
;
