#TITLE:Jenny;
#SUBTITLE:;
#ARTIST:The Click Five;
#CREDIT:;
#MUSIC:Jenny_audio.ogg;
#SELECTABLE:YES;
#BACKGROUND:jenny-bg.png;
#BANNER:jenny-bg.png;
#CDTITLE:;
#OFFSET:-0.387;
#SAMPLESTART:0.000;
#SAMPLELENGTH:0.000;
#BPMS:0=96,225=93.1617,226=84.9909,227=72.2239;
#STOPS:;

//---------------dance-single - ----------------
#NOTES:
     dance-single:
     :
     Beginner:
     1:
     0.000,0.000,0.000,0.000,0.000:
0000
0000
0000
0000
,
0000
0000
0000
0000
,
0001
0000
0000
0000
,
1000
0000
0000
0000
,
0010
0000
0000
0000
,
0010
0000
0000
0000
,
0100
0000
0000
0000
,
0100
0000
0000
0000
,
0010
0000
0000
0000
,
0100
0000
0000
0000
,
0010
0000
0000
0000
,
0100
0000
0000
0000
,
0001
0000
1000
0000
,
0001
0000
1000
0000
,
0100
0000
0000
0000
,
0100
0000
0000
0000
,
0010
0000
0000
0000
,
0010
0000
0000
0000
,
1000
0000
1000
0000
,
0001
0000
0001
0000
,
1000
0000
0000
0000
,
0010
0000
0000
0000
,
0100
0000
0000
0000
,
0001
0000
0001
0000
,
0001
0000
0001
0000
,
1000
0000
0000
0000
,
0100
0000
0000
0000
,
0010
0000
0000
0000
,
0001
0000
1000
1000
,
1000
0000
0000
0000
,
0001
0000
0000
0000
,
1000
0000
0000
0000
,
0010
0000
0000
0000
,
0100
0000
0000
0000
,
0001
0000
0000
0000
,
0100
0000
0000
0000
,
0010
0000
0000
0000
,
1000
0000
0000
0000
,
0001
0000
0001
0000
,
0001
0000
1000
0000
,
0001
0000
0100
0000
,
0010
0000
0010
0000
,
0100
0000
0001
0000
,
1000
0000
0001
0001
,
0001
0000
0000
0000
,
1000
1000
1000
0000
,
0000
0000
0001
0010
,
0001
0000
1000
0010
,
1000
0000
0001
0010
,
0001
0000
1000
0010
,
1000
0000
0001
1000
,
0001
0000
2000
0000
0000
3000
0000
0000
,
1000
0001
1000
0002
,
0000
0003
0000
0000
0000
0000
0000
0000
,
0020
0000
0000
0030
,
0000
0000
0000
0000
,
0020
0000
0030
0000
,
0020
0000
0000
0000
,
0030
0000
0000
0000
;

//---------------dance-single - ----------------
#NOTES:
     dance-single:
     :
     Easy:
     4:
     0.000,0.000,0.000,0.000,0.000:
0000
0000
0000
0000
,
0000
0000
0000
0000
,
0001
0010
0100
1000
,
0001
0010
0100
1000
,
1001
0001
1000
0001
,
1000
0001
1000
0001
,
0110
0010
0100
0010
,
0100
0010
0100
0010
,
0110
1000
0100
0010
,
0000
0100
0010
0001
,
0000
0010
0001
1000
,
0000
0001
1000
0100
,
2000
0000
0000
0000
3002
0003
0000
0000
,
0001
0000
0100
0001
0000
0100
0000
0010
,
0100
0001
0100
0010
,
0000
0100
0010
1000
,
0000
0010
1000
0001
,
0000
1000
0001
0100
,
0002
0000
0000
0000
2003
3000
0000
0000
,
1000
0000
0100
1000
0000
0100
0000
0010
,
0100
1000
0100
0010
,
0002
1000
1000
1003
,
1000
0001
0100
0010
,
2000
0001
0001
3001
,
0001
0000
MMMM
0000
,
0011
0000
1000
0100
,
1100
0000
0001
0100
,
0101
0000
1000
0010
,
1010
0000
0110
0110
,
0110
0000
0020
0000
0000
0030
0000
0000
,
0001
1000
1001
0200
,
0000
0300
0000
0000
0001
0000
0001
0002
,
0000
0100
0100
0100
,
0100
0003
0000
0000
1000
0000
1000
2000
,
0000
0100
0100
0100
,
0100
3000
0000
0000
0001
0000
0001
0002
,
0000
0010
0010
0010
,
0010
0003
0000
0000
0000
0000
1000
2000
,
0001
0001
0001
0001
,
3001
0000
1000
0000
,
1001
0000
0100
0000
,
0110
0000
0010
0000
,
0110
0000
0001
0000
,
1001
0000
MMMM
MMMM
,
MMMM
0000
1000
0002
0000
0000
0003
0000
,
1000
0000
0010
0000
1000
0000
0010
0020
,
0000
0030
0110
1000
,
0020
0030
0110
0001
,
0020
0030
0110
1000
,
0200
0300
0110
0001
,
0200
0300
1001
1001
,
1001
0000
1000
0002
0000
0003
0000
0000
,
1000
0000
0010
0000
0100
0000
0001
0200
,
0000
0300
0000
0000
0000
0000
0000
0000
,
0020
0100
0100
0130
,
0000
0000
0000
0000
,
0200
0010
0310
0000
,
0220
0000
0000
0000
,
0330
0000
0000
0000
;

//---------------dance-single - ----------------
#NOTES:
     dance-single:
     :
     Medium:
     6:
     0.000,0.000,0.000,0.000,0.000:
0000
0000
0000
0000
,
0000
0000
0000
0000
,
0001
0010
0100
1000
,
0001
0000
0010
0000
0100
0000
1000
0001
,
1001
0001
1000
0001
,
1000
0001
1000
0001
,
0110
0010
0100
0010
,
0100
0000
0010
0000
0100
0000
0010
0100
,
0110
0000
1000
0001
0100
0001
0010
0000
,
0000
0000
0100
1000
0010
1000
0001
0000
,
0000
0000
0010
0100
1000
0100
0010
0000
,
0000
0000
0001
0010
0100
0010
0001
0000
,
2000
0000
0000
0000
3002
0003
0000
0000
,
0001
0000
0100
0001
0000
0100
0000
0010
,
0110
0000
0001
1000
0100
1000
0010
0000
,
0000
0000
0100
0001
0010
0001
1000
0000
,
0000
0000
0010
0100
0001
0100
0010
0000
,
0000
0000
1000
0010
0100
0010
1000
0000
,
0002
0000
0000
0000
2003
3000
0000
0000
,
1000
0000
0100
1000
0000
0100
0000
0010
,
0110
1000
0100
0010
,
0002
1000
1000
1003
,
1000
0001
0100
0010
,
2000
0001
0001
0001
0001
0001
0001
0001
,
3001
0000
MMMM
0000
,
0011
0001
1000
0100
,
1100
1000
0001
0100
,
0101
0001
1000
0010
,
1010
1000
1010
0011
,
1010
0000
0020
0000
0000
0030
0000
0000
,
1000
0000
0001
1000
0001
0000
0200
0000
,
0000
0300
0000
0100
0001
0000
0100
0002
,
0100
0100
0100
0100
,
0100
0003
0000
0001
1000
0000
0001
2000
,
0100
0100
0100
0100
,
0100
3000
0000
1000
0001
0000
1000
0002
,
0010
0010
0010
0010
,
0010
0003
0000
0000
0000
0000
1000
0001
,
0010
0100
0010
0100
0010
0100
0010
0100
,
0020
0000
0000
0030
0001
0000
0000
0000
,
1001
0000
0100
0000
,
0110
0000
0010
0000
,
0110
0000
0001
0000
,
1001
0000
1100
1100
,
1100
0000
1000
0002
0000
0000
0013
0000
,
0001
1000
0010
1000
0010
0000
1000
0020
,
0000
0000
0030
0000
1000
0100
0010
0001
,
0020
0000
0030
0000
0001
0010
0100
1000
,
0020
0000
0030
0000
1000
0010
0100
0001
,
0200
0000
0300
0000
0001
0100
0010
1000
,
0200
0300
0101
0101
,
0101
0000
1001
2002
0000
3003
0000
0000
,
1000
0010
0100
0001
0020
0000
0031
0022
,
0000
0033
0000
0000
0000
0000
0000
0000
,
0020
0100
0100
0130
,
0000
0000
0000
0001
1000
0000
0001
0200
,
0010
0000
0010
0000
0310
0000
0110
0200
,
0020
0000
0000
0000
,
0330
0000
0000
0000
;

//---------------dance-single - ----------------
#NOTES:
     dance-single:
     :
     Hard:
     8:
     0.000,0.000,0.000,0.000,0.000:
0000
0000
0000
0000
,
0000
0000
0000
0000
,
0001
0010
0001
0010
0001
0100
0001
0100
,
0001
0010
0001
0010
0001
0100
0001
0100
,
1001
1000
0001
1000
0000
0001
1000
0001
,
0000
1000
0001
1000
0000
0001
1000
0001
,
0110
0010
0100
0010
0000
0100
0010
0100
,
0000
0010
0100
0010
0000
0100
0010
0100
,
0110
0001
1000
0001
0100
0001
0020
0030
,
0000
0001
0100
0001
0010
0001
2000
3000
,
0000
0100
0010
0100
1000
0100
0010
0000
,
0000
0100
0010
0100
1000
0100
0020
0000
,
0032
0000
1000
0003
0002
0003
1000
0000
,
0001
0000
0100
0001
0000
0100
0000
1001
,
0110
1000
0001
1000
0100
1000
0020
0030
,
0000
1000
0100
1000
0010
1000
0002
0003
,
0000
0100
0010
0100
0001
0100
0010
0000
,
0000
0100
0010
0100
0001
0100
0020
0000
,
2030
0000
0001
3000
2000
3000
0001
0000
,
1000
0000
0100
1000
0000
0100
0000
0010
,
0110
1000
0100
0010
,
1002
1000
1000
1003
,
1000
0001
0100
0010
,
2000
0001
0001
0001
0001
0001
0001
0001
,
3001
0000
0001
0000
0001
0000
0001
0000
MMMM
0000
0000
0000
0000
0010
0000
0022
,
0000
0000
0033
0000
0000
0000
0000
0000
1000
0000
0100
1000
0000
0100
0000
2200
,
0000
0000
0000
3300
0000
0000
0000
0000
0001
0000
0100
0001
0000
0100
0000
0202
,
0000
0000
0000
0303
0000
0000
0000
0000
1000
0010
0000
1000
0000
0010
0000
2020
,
0000
0000
0000
3030
0000
0000
0010
0000
1010
0000
0000
0000
0011
0000
0000
0000
,
1010
0000
0020
2000
0000
3030
0000
0000
,
0001
0000
0010
0001
0000
0010
0000
0021
0000
0000
0000
0030
0002
0000
0200
0000
,
0000
0303
0000
0100
0001
0000
0100
0002
,
0000
0000
0100
0100
0100
0000
0100
0100
,
0100
0003
0000
0001
1000
0000
0001
2000
,
0000
0000
0100
0100
0100
0000
0100
0100
,
0100
3000
0000
1000
0001
0000
1000
0002
,
0000
0000
0010
0010
0010
0000
0010
0010
,
0010
0003
0000
0000
0000
0000
1000
0001
,
0010
0100
0010
0100
0010
0100
0010
0100
,
0020
0000
0000
0030
0001
0000
1000
0000
,
1001
0000
0100
0010
,
0110
0000
0010
0100
,
0110
0000
0001
1000
,
1001
0000
1000
0100
1000
0100
1000
0100
1000
0000
0001
1000
0001
0000
1000
0001
,
1000
0000
1000
0002
0000
0000
0013
0000
,
0001
0000
0010
0001
0000
0010
0000
0021
0000
0000
0000
0030
0002
0000
0200
0000
,
0000
0000
0303
0000
0000
0000
0000
0000
0001
0000
0100
0001
0000
0100
0000
0202
,
0000
0000
0000
0303
0000
0000
0000
0000
1000
0000
0010
1000
0000
0010
0000
2020
,
0000
0000
0000
3030
0000
0000
0000
0000
0001
0000
0010
0001
0000
0010
0000
0022
,
0000
0000
0000
0033
0000
0000
0000
0000
1000
0100
0000
1000
0000
0100
0000
2200
,
0000
0000
0000
3300
0000
0000
0100
0000
1100
0000
0000
0000
0101
0000
0000
0000
,
1100
0000
1001
2002
0000
3003
0000
0000
,
1000
0000
0100
1000
0000
0100
0000
1200
0000
0000
0000
0300
2000
0000
0020
0000
,
0000
3030
0000
1000
0100
0000
1000
0020
,
0100
0100
0100
0130
,
0000
0000
0000
0001
1000
0000
0001
0200
,
0010
0000
0010
0000
0310
0000
0110
0200
,
0020
0000
0000
0000
,
0330
0000
0000
0000
;

//---------------dance-single - ----------------
#NOTES:
     dance-single:
     :
     Challenge:
     11:
     0.000,0.000,0.000,0.000,0.000:
0000
0000
0000
0000
,
0000
0000
0000
0000
,
0001
0010
0001
0010
0001
0100
0001
0100
,
0001
0000
0010
0000
0001
0000
0010
0000
0001
0000
0100
0000
0001
1000
0100
1000
,
1001
1000
0001
1000
1001
0001
1000
0001
,
1001
1000
0001
1000
1001
0001
1000
0001
,
0110
0010
0100
0010
0110
0100
0010
0100
,
0110
0000
0010
0000
0100
0000
0010
0000
0110
0000
0100
0000
0010
0100
0010
0100
,
0110
0001
1000
0001
0201
0301
0020
0030
,
0000
0001
0100
0001
0021
0031
2000
3000
,
0000
0100
0010
0100
2100
3100
0010
0000
,
0000
0100
0010
0100
2100
3100
0020
0000
,
2230
0000
0000
3300
0022
0033
1000
0000
,
0001
0000
0100
0001
0000
0100
0110
1001
,
0110
1000
0001
1000
1200
1300
0020
0030
,
0000
0000
1000
0000
0100
0000
1000
0000
1020
0000
1030
0000
0002
0003
1001
0000
,
0110
0100
0010
0100
0102
0103
0010
0000
,
0000
0000
0100
0000
0010
0000
0100
0000
0102
0000
0103
0000
0020
0000
0000
0030
,
0202
0000
0000
0000
0000
0000
0000
0303
2020
0000
3030
0000
0001
0000
0000
0000
,
1000
0000
0000
0000
0100
0000
1000
0000
0000
0000
0100
0000
1000
0100
0010
0001
,
0110
0000
0000
0000
1000
0000
0010
0100
0000
0000
0001
0100
0000
0000
0001
2000
,
0001
0001
0001
3001
,
0110
0000
0000
0000
0001
0000
0010
0100
0000
0000
1000
0100
0000
0000
1000
0002
,
1000
0000
1000
0000
1000
0000
1000
0000
1000
0000
1000
0000
1003
0010
1000
0200
,
1000
0000
1000
0000
1000
0000
1300
0000
MMMM
0000
0000
0000
0000
0010
0000
0022
,
0000
0000
0033
0000
1000
0000
0000
0000
1000
0000
0100
1000
0000
0100
0000
2200
,
0000
0000
0000
3300
0001
0000
0000
0100
0001
0000
0100
0001
0000
0100
0000
0202
,
0000
0000
0000
0303
1000
0000
0000
0010
1000
0010
0000
1000
0000
0010
0000
2020
,
0000
0000
0000
3030
0000
0000
0010
0000
1010
0000
0000
0000
0011
0000
0000
0000
,
1010
0000
0000
0000
0020
0000
2000
0000
0000
0000
3030
0000
0000
0000
0000
0010
,
0001
0000
0010
0001
0000
0010
0000
0021
0000
0000
0000
0030
0002
0000
0200
0000
,
0000
0303
0000
0100
0001
0000
0100
0002
,
0100
0000
0100
0100
0100
0000
0100
0100
,
0100
0003
0000
0001
1000
0000
0001
2000
,
0100
0000
0100
0100
0100
0000
0100
0100
,
0100
3000
0000
1000
0001
0000
1000
0002
,
0010
0000
0010
0010
0010
0000
0010
0010
,
0010
0003
0000
0000
0000
0000
1000
0001
,
0010
0100
0010
0100
0010
0100
0010
0100
,
0040
0000
0000
0000
0000
0000
0030
0000
0001
0000
0100
0010
0000
1000
0000
0010
,
1000
0000
0001
0000
0100
0000
0001
0000
1000
0000
0100
0010
0000
0001
0000
0010
,
0001
0000
1000
0000
0100
0000
1000
0001
1000
0000
0010
0100
0000
0001
0000
0100
,
0001
0000
1000
0000
0010
0000
1000
0001
1000
0100
0000
0010
0000
0001
0000
0010
,
0001
0000
1000
0100
0010
0001
0010
0100
1001
0000
0001
1000
1001
0000
1000
0001
,
1001
0000
0001
0000
1000
0000
0002
0000
0100
0000
0000
0000
0013
0000
0000
0010
,
0001
0000
0010
0001
0000
0010
0000
0021
0000
0000
0000
0030
0002
0000
0200
0000
,
0000
0000
0303
0000
0000
0000
0000
0000
0001
0000
0100
0001
0000
0100
0000
0002
,
0100
0000
0100
0003
1000
0000
0000
0000
1000
0000
0010
1000
0000
0010
0000
2000
,
0010
0000
0010
3000
0001
0000
0000
0010
0001
0000
0010
0001
0000
0010
0000
0002
,
0010
0000
0010
0003
1000
0000
0000
0100
1000
0100
0000
1000
0000
0100
0000
1000
,
0000
0001
0100
0010
1000
0001
0100
0010
0110
0000
1000
0100
1100
0000
0010
1000
,
1010
0000
0000
0000
1001
0000
2002
0000
0000
0000
3003
0000
0000
0000
0000
1000
,
0100
0000
2000
0200
0000
0020
0000
0002
0000
0000
0000
0000
0000
0000
0033
0000
,
0000
3300
0000
1000
0100
0000
1000
0020
,
0100
0100
0100
0130
,
0100
0000
0100
0001
1000
0000
0001
0200
,
0010
0010
0001
0001
0310
0010
0110
0200
,
0020
0000
0000
0000
,
0330
0000
0000
0000
;
