#TITLE:Intergalactic;
#SUBTITLE:;
#ARTIST:Beastie Boys;
#CREDIT:Vndt;
#MUSIC:Intergalactic_audio.ogg;
#SELECTABLE:YES;
#BACKGROUND:Intergalactic_bg.png;
#BANNER:Intergalactic_bn.png;
#CDTITLE:Hello, Nasty;
#OFFSET:-0.00199546;
#SAMPLESTART:88.345;
#SAMPLELENGTH:11.184;
#BPMS:0=105.95,20=105.946,21=105.95,36=105.946,37=105.95;
#STOPS:;

//---------------dance-single - ----------------
#NOTES:
     dance-single:
     :
     Easy:
     4:
     0.000,0.000,0.000,0.000,0.000:
0000
0000
0000
0000
,
0000
0000
0000
0000
,
0000
0000
0000
0000
,
0000
0000
1000
1000
,
0100
0000
0010
0110
,
0000
0001
1000
1001
,
0000
0001
0010
0011
,
0000
1000
0010
1010
,
1010
0000
1000
1000
0000
0010
0010
0000
,
0100
0100
0010
0110
,
0000
0001
1000
1001
,
0000
1000
0100
1100
,
0000
0001
0010
0011
,
0000
1000
1001
1001
,
0000
1010
0000
0011
,
0000
0000
0000
0110
,
0000
0000
0001
0000
1000
1000
1000
0000
,
0000
0000
1000
0000
0001
0001
0001
0000
,
0000
0000
0100
0000
0010
0010
0010
0000
,
0000
0000
1000
0000
0100
0100
0100
0000
,
1000
0000
0010
0000
,
0010
0000
1000
0000
,
0001
0000
0010
0000
,
0010
0000
0001
0000
,
0020
0000
0000
0030
0002
0000
0013
0000
,
0002
0000
0000
0003
0200
0000
0301
0000
,
1000
0001
1000
1001
,
0020
0000
0000
0000
0000
0000
0000
0000
0000
0000
0000
0030
0110
0000
0000
0000
,
0000
0100
0100
0110
,
0000
1000
0001
1001
,
0000
0001
0010
0100
,
2000
0000
0000
0020
0000
0000
3030
0000
,
1000
0000
0010
0000
0100
0000
0001
0001
,
0000
0000
0010
0000
0100
0000
1000
1000
,
0000
0000
0001
0000
1000
0000
0010
0010
,
0000
0000
1000
0000
0001
0000
0010
0010
,
0000
0001
0010
0011
,
0000
1000
0010
1010
,
0000
0100
0000
0110
,
0020
0000
0000
0000
0000
0000
0000
0000
0000
0000
0000
0030
0110
0000
0000
0000
,
0001
0000
0010
0000
,
0010
0000
0001
0000
,
1000
0000
0010
0000
,
0010
0000
1000
0000
,
0200
0300
0000
0000
0000
0000
0100
0000
,
1000
1000
1000
1001
,
0002
0003
0000
0000
0000
0000
1002
0003
,
2000
3000
0000
0000
0000
0000
2001
3000
,
0002
0003
0000
0000
0000
0000
1001
0000
,
0000
0000
1000
0000
0010
0000
0010
0010
,
0000
0000
0100
0000
0001
0000
0001
0001
,
0000
0000
0010
0000
0100
0000
0100
0100
,
0000
0000
0000
0000
0000
0220
0000
0000
,
0000
0000
0000
0330
,
0000
0000
0100
0000
1000
1000
1000
0000
,
0000
0000
0001
0000
0010
0010
0010
0000
,
0000
0000
0001
0000
1000
1000
1000
0000
,
0000
0000
0100
0000
0010
0010
0010
0000
,
0000
0000
0010
0000
0001
0001
0001
0000
,
0000
0000
1000
0000
0010
0010
0010
0000
,
0000
0000
1000
0000
0001
0001
0001
0000
,
0000
0000
0100
0000
0010
0010
0010
0000
,
1000
0000
0100
0000
,
0100
0000
1000
0000
,
0001
0000
0100
0000
,
0100
0000
0001
1000
,
0002
0000
0000
0000
,
0000
0000
0003
0000
,
0010
0010
0000
0000
0100
0100
0000
0000
,
0010
0010
0000
0000
0100
0100
0000
0000
,
1000
1000
0000
0000
0001
0001
0000
0000
,
1000
1000
0000
0000
0001
0001
0000
0000
,
2002
0000
0000
0000
,
0000
0M00
00M0
3003
0M00
0000
00M0
0000
,
0M00
0M00
0000
0MM0
0000
0000
0000
0000
;

//---------------dance-single - ----------------
#NOTES:
     dance-single:
     :
     Medium:
     10:
     0.000,0.000,0.000,0.000,0.000:
0000
0000
0000
0000
,
0000
0000
0000
0000
,
0000
0000
0000
0000
,
0000
0000
1000
0001
,
0100
0000
0001
1000
0010
0100
0110
0000
,
1000
0010
0100
0001
0010
0100
0110
0001
,
0010
0001
0010
0100
0010
0100
0110
0000
,
1000
0010
0100
0010
0100
0001
0101
0000
,
1100
0000
1000
1010
0000
0001
0010
0000
,
0100
0010
0001
0100
0001
0010
0011
0000
,
0001
0010
0001
1000
0001
0100
0101
0000
,
0100
0010
1000
0010
0100
0001
0101
0000
,
1000
0010
1000
0100
1000
0001
1001
0000
,
1000
0010
0100
0001
0101
1000
1001
0000
,
0001
1000
1010
0000
1000
0100
1100
1100
,
0100
0000
0000
0010
0000
0000
0100
0000
0100
0000
0010
0000
0110
0000
0000
0000
,
0001
0001
0001
0001
1000
0010
1010
0000
,
1000
1000
1000
1000
0001
0010
0011
0000
,
1000
0010
1000
0001
0010
0100
0110
0000
,
0001
0010
0001
1000
0100
1100
1100
0000
,
0001
0000
0010
0000
0010
0100
1000
0010
,
0010
1000
0100
0010
0010
0000
0001
0000
,
1000
0000
0010
0000
0010
0100
0001
0010
,
0010
0001
0100
0010
0010
0000
1000
0000
,
0010
0010
0010
0010
0010
0010
0110
0000
,
0100
0100
0100
0100
0100
0100
0110
0000
,
0001
0100
0001
1000
0010
1000
0011
0000
,
1000
0000
0000
0000
0001
0000
0000
1000
0000
0000
0001
0000
1001
0000
0000
0000
,
1000
0100
0100
0100
0100
0110
0110
0000
,
0001
0100
0001
1000
0010
0100
1001
0000
,
0001
0010
0001
1000
0010
0100
0001
1000
,
1000
0001
0001
1000
0010
0000
0010
0000
,
1000
0010
0100
0010
1000
0100
1000
0011
,
1000
0100
0010
0100
1000
0010
1000
0101
,
0000
1000
0100
0010
0001
1000
0100
0011
,
0000
0001
1000
0010
0100
0100
1001
0000
,
1000
0100
1000
0100
0010
0001
1100
0000
,
0001
0100
0001
0100
0010
1000
0010
0101
,
1000
0000
0010
0100
0001
0100
1010
0000
,
0020
0000
0000
0000
0000
0000
0000
0000
0000
0000
0000
0030
0110
0000
0000
0000
,
1000
0000
0010
0000
0010
0100
0001
0010
,
0010
0001
0100
0010
0010
0000
1000
0000
,
0001
0000
0010
0000
0010
0100
1000
0010
,
0010
1000
0100
0010
0010
0000
0001
0001
,
0200
0000
0300
0001
0000
0000
0020
0000
0030
0000
0100
0000
1000
0000
0000
0000
,
0200
0300
1000
1000
1000
1001
1001
0000
,
0002
0000
0003
0100
0000
0000
0020
0000
0030
0000
1000
0000
1001
0000
0000
0000
,
2000
0000
3000
0100
0000
0000
0020
0000
0030
0000
0001
0000
1001
0000
0000
0000
,
0002
0000
0003
0010
0000
0000
0200
0000
0300
0000
1000
0000
1001
0000
0000
0000
,
1000
0100
1000
0001
0010
0100
1000
1010
,
0001
0100
0001
1000
0010
0100
0001
0011
,
0001
1000
0010
0100
0100
0010
0010
0110
,
0100
0000
0000
0001
0000
0000
0000
0000
1000
0000
0020
0000
0000
0000
0000
0000
,
0000
0000
0000
0200
0000
0000
0330
0000
,
0100
0000
0010
0000
0100
0000
0020
0000
0130
0000
0001
0000
0101
0000
0000
0001
,
0000
0000
1000
0000
0100
0000
0010
0000
0100
0000
1000
0000
1100
0000
0000
1000
,
0000
0100
0000
0000
0010
0000
0100
0000
1000
0000
0001
0000
1001
0000
0000
0001
,
0000
0000
0100
0000
0010
0000
0100
0000
0001
0000
0101
0000
1001
0000
0000
1000
,
0000
1000
0001
0001
1000
0100
1100
0000
,
0100
0010
0001
1000
0001
0010
0011
0000
,
0010
0000
0100
0000
1000
0000
0001
0000
1000
0000
0000
1000
0000
0000
0000
0000
,
1100
1010
0001
0101
,
0001
0000
0100
0000
0100
0010
1000
0100
,
0100
1000
0010
0100
0100
0000
0001
0000
,
1000
0000
0100
0000
0100
0010
0001
0100
,
0100
0001
0010
0100
0100
0000
1000
0000
,
0002
0000
0000
0000
,
0000
0000
0000
0000
0003
0010
0001
0000
,
1000
0010
1000
0000
0001
0010
0001
0000
,
0001
0100
0001
0000
1000
0100
1000
0000
,
0010
0100
0010
0000
1000
0001
1000
0000
,
0100
0010
0100
0000
1000
0001
1000
0000
,
2002
0000
0000
0000
,
0000
0M00
00M0
3003
0M00
0000
00M0
0000
,
0M00
0M00
0000
0MM0
0000
0000
0000
0000
;

//---------------dance-single - ----------------
#NOTES:
     dance-single:
     :
     Hard:
     13:
     0.000,0.000,0.000,0.000,0.000:
0000
0000
0000
0000
,
0000
0000
0000
0000
,
0000
0000
0000
0000
,
0000
0000
1000
0001
,
0100
0000
0001
1000
0010
0100
0110
0000
,
1000
0000
0010
0100
0010
1000
0001
0010
0100
0000
1000
0000
1100
0000
0001
0000
,
0010
0100
0010
0000
0001
0000
0100
0000
0010
0000
0100
0000
0110
0000
0000
0000
,
1000
0100
0010
0000
0010
0001
0010
0000
0100
0000
1000
0000
1100
0000
0000
0000
,
0011
0000
0000
0000
1000
0000
1010
0000
0000
0000
0001
0000
0010
0000
0000
0001
,
0100
0010
0100
0001
1000
0000
0001
1000
0100
0000
0010
0000
0110
0000
0000
0000
,
0001
1000
0001
1000
0010
0100
0010
0000
1000
0000
0001
0000
1001
0000
0000
0001
,
0010
0100
0010
0001
1000
0000
0010
0100
0010
0100
0001
0000
0101
0000
0000
1000
,
0010
1000
0010
1000
0100
0000
1000
0000
0001
0000
0010
0000
0011
0000
0000
0000
,
0010
0100
0010
0100
1000
0000
0010
0000
1010
0000
0001
0000
0101
0000
0000
0000
,
0001
1000
1010
0000
1000
0100
1100
0110
,
0100
0000
0010
0001
0000
0000
0100
0010
0100
0000
0010
0000
0110
0000
0000
0000
,
0001
1000
0001
1000
0001
0010
0001
0000
1000
0000
0010
0000
1010
0000
0000
0000
,
0010
1000
0010
1000
0100
0010
0100
0000
1000
0000
0001
0000
1001
0000
0000
0000
,
1000
0000
0010
0000
1000
0000
1000
0001
0010
0000
0010
0000
0011
0000
0000
0000
,
1000
0010
1000
0010
0100
0110
1001
0000
,
0001
0000
1000
0100
0010
0000
0100
0000
1000
0000
0100
0000
1000
0000
0010
0000
,
0100
0000
0000
0000
0001
0000
0000
0000
0100
0000
0000
0000
0001
0000
0000
0000
0100
0000
0000
0010
0000
0000
0100
0000
0010
0000
0000
0000
1000
0000
0000
0000
,
0001
0000
1000
0010
0100
0000
0010
0000
0100
0000
0010
0000
1000
0000
0100
0000
,
0010
0000
0000
0000
0001
0000
0000
0000
0010
0000
0000
0000
0100
0000
0000
0000
0010
0000
0000
0100
0000
0000
0010
0000
0100
0000
0000
0000
1000
0000
0000
0000
,
0010
0010
0010
0010
0010
0010
0110
0010
,
0100
0100
0100
0100
0100
0100
0110
0100
,
0001
0010
0100
0010
0001
0000
1000
0000
0010
0000
1000
0000
0011
0000
0000
0001
,
1000
0000
1000
0001
0000
0100
0010
1000
0000
1000
0010
0000
0011
0000
0001
0100
,
0001
1000
0100
0010
0100
1000
0100
0010
0100
1000
0101
0000
1100
0000
0000
0001
,
0000
0100
0001
0000
0001
0100
0010
0100
0000
0100
0010
0000
1001
1000
0001
0010
,
0100
0000
0010
0000
0001
0000
1000
0000
0010
0000
0100
0000
0001
0000
1000
0100
,
1000
0000
1000
0001
0000
0000
1000
0100
0010
0001
0010
0000
0001
0000
0000
0000
,
1000
0000
0010
0000
0100
0000
0010
1000
0010
0000
0100
0000
0001
0000
1010
0000
,
1000
0100
0010
0100
1000
0010
1000
0101
,
0000
0000
1000
0000
0100
0010
0001
0000
0010
0000
0001
0000
1000
0000
0011
0010
,
0100
1000
0001
0000
1000
0000
0100
0000
0010
0001
0010
0001
1010
0000
1000
0000
,
1000
0001
0100
0010
0100
0000
0001
0000
0100
0000
0010
0000
1001
0000
0000
0000
,
1000
0100
1000
0001
1000
0000
0010
0100
0010
0000
0100
0000
0001
0000
1010
0010
,
0100
0010
0100
0001
0000
0001
0010
0000
0001
0000
0100
0000
1010
0000
0000
0000
,
0020
0000
0000
0000
0000
0000
0000
0000
0000
0000
0000
0030
0110
0000
0000
0000
,
1000
0000
0001
0100
0010
0000
0100
0000
0001
0000
0100
0000
0001
0000
0010
0000
,
0100
0000
0000
0000
1000
0000
0000
0000
0100
0000
0000
0000
1000
0000
0000
0000
0100
0000
0000
0010
0000
0000
0100
0000
0010
0000
0000
0000
0001
0000
0000
0000
,
1000
0000
0001
0010
0100
0000
0010
0000
0100
0000
0010
0000
0001
0000
0100
0000
,
0010
0000
0000
0000
1000
0000
0000
0000
0010
0000
0000
0000
0100
0000
0000
0000
0010
0000
0000
0100
0000
0000
0010
0000
0100
0000
0000
0000
0001
0000
0000
0000
,
0200
0000
0300
0001
0000
0000
0020
0000
0030
0000
0100
0000
1000
0001
1000
0001
,
0010
0100
1000
0010
0000
0010
1000
0000
0001
0000
0101
0000
1100
0000
0000
0000
,
1000
0010
0000
0010
0100
0000
0100
0001
0010
0000
0001
1001
0000
0000
0000
0001
,
0100
0000
0100
0010
0000
0000
0010
0000
1000
0001
0000
0101
0000
0000
0100
0010
,
0100
0001
1000
0100
0000
0100
0010
0100
1000
0000
0001
0000
0011
0000
0000
0000
,
0010
0100
1000
0001
0010
0100
1000
1010
,
0010
0000
0100
0000
0001
0000
1000
0010
0100
0000
0010
0000
0100
0000
0101
0000
,
0001
0000
1000
0000
0010
0000
0100
0010
0100
0000
0100
0001
0010
0000
0110
0000
,
0100
0000
1000
0001
0000
0001
0000
1000
0010
0100
0020
0000
0000
0000
0000
0000
,
0000
M00M
0000
0000
0000
0000
0200
0000
0000
0000
0000
0000
0330
0000
0000
1000
,
0100
1000
0001
1000
0010
0100
0020
0000
0130
0000
0001
0000
0110
0000
0000
0010
,
0000
1000
0010
0000
0100
0000
0001
0000
0010
0000
0100
0000
0011
0000
0000
0001
,
0000
0010
0000
0010
0100
1000
0100
1000
0010
0000
1000
0000
0110
0000
0000
0001
,
0000
1000
0100
0010
0100
0000
0010
0000
0001
0000
0110
0000
1001
0000
0000
1000
,
0000
0100
1000
0010
0100
0000
0001
0000
1000
0000
0100
0000
1001
0000
0000
0000
,
1000
0000
0100
0000
0010
0000
0001
0000
0010
0000
0100
0000
0011
0000
0000
0010
,
0001
0010
0100
0000
1000
0001
1000
0001
0010
0100
0000
1000
0000
0000
0100
1000
,
1001
0000
1000
0001
0101
0000
0100
0000
0010
0100
0000
0000
1010
0000
0000
0000
,
0001
0000
1000
0100
0010
0000
0100
0000
1000
0000
0100
0000
1000
0000
0010
0000
,
0100
0000
0000
0000
0001
0000
0000
0000
0100
0000
0000
0000
0001
0000
0000
0000
0100
0000
0000
0010
0000
0000
0100
0000
0010
0000
0000
0000
1000
0000
0000
0000
,
0001
0000
1000
0010
0100
0000
0010
0000
0100
0000
0010
0000
1000
0000
0100
0000
,
0010
0000
0000
0000
0001
0000
0000
0000
0010
0000
0000
0000
0100
0000
0000
0000
0010
0000
0000
0100
0000
0000
0010
0000
0100
0000
0000
0000
1000
0000
0000
0000
,
0002
0000
0000
0000
,
0000
0000
0000
0000
0003
0010
0001
0000
,
1000
0010
1000
0010
1000
0001
0000
0001
0010
0100
1000
0010
0100
0001
0000
0010
,
0001
0010
0001
0010
0001
1000
0000
1000
0010
0100
0001
0010
0100
1000
0000
0000
,
1000
0100
1000
0100
1000
0001
0000
0001
0100
0010
1000
0100
0010
0001
0000
0100
,
0001
0100
0001
0100
0001
1000
0000
1000
0100
0010
0001
0100
0010
1000
0000
0000
,
2002
0000
0000
0000
,
0000
0M00
00M0
3003
0M00
0000
00M0
0000
,
0M00
0M00
0000
0MM0
0000
0000
0000
0000
;

//---------------dance-single - ----------------
#NOTES:
     dance-single:
     :
     Challenge:
     14:
     0.000,0.000,0.000,0.000,0.000:
0000
0000
0000
0000
,
0000
0000
0000
0000
,
0000
0000
0000
0000
,
0000
0000
1000
0001
,
0100
0000
0001
1000
0010
0100
0110
0000
,
1000
0000
0010
0100
0010
1000
0001
0010
0100
0000
1000
0000
1100
0000
0001
0000
,
0010
0100
0010
0000
0001
0000
0100
0000
0010
0000
0100
0000
0110
0000
0000
0000
,
1000
0100
0010
0000
0010
0001
0010
0000
0100
0000
1000
0000
1100
0000
0000
0000
,
0011
0000
0000
0000
1000
0000
1010
0000
0000
0000
0001
0000
0010
0000
0000
0001
,
0100
0010
0100
0001
1000
0000
0001
1000
0100
0000
0010
0000
0110
0000
0000
0000
,
0001
1000
0001
1000
0010
0100
0010
0000
1000
0000
0001
0000
1001
0000
0000
0001
,
0010
0100
0010
0001
1000
0000
0010
0100
0010
0100
0001
0000
0101
0000
0000
1000
,
0010
1000
0010
1000
0100
0000
1000
0000
0001
0000
0010
0000
0011
0000
0000
0000
,
0010
0100
0010
0100
1000
0000
0010
0000
1010
0000
0001
0000
0101
0000
0000
0000
,
0001
1000
1010
0000
1000
0100
1100
0110
,
0100
0000
0010
0001
0000
0000
0100
0010
0100
0000
0010
0000
0110
0000
0000
0000
,
0001
1000
0001
1000
0001
0010
0001
0000
1000
0000
0010
0000
1010
0000
0000
0000
,
0010
1000
0010
1000
0100
0010
0100
0000
1000
0000
0001
0000
1001
0000
0000
0000
,
1000
0000
0010
0000
1000
0000
1000
0001
0010
0000
0010
0000
0011
0000
0000
0000
,
1000
0010
1000
0010
0100
0110
1001
0000
,
0001
0000
1000
0100
0010
0000
0100
0000
0001
0000
0100
0000
1000
0000
0010
0000
,
0100
0000
0000
0000
0001
0000
0000
0000
0100
0000
0000
0000
1000
0000
0000
0000
0100
0000
0000
0010
0000
0000
0100
0000
0010
0000
0000
0000
1000
0000
0000
0000
,
0001
0000
1000
0010
0100
0000
0010
0000
0001
0000
0010
0000
1000
0000
0100
0000
,
0010
0000
0000
0000
0001
0000
0000
0000
0010
0000
0000
0000
1000
0000
0000
0000
0010
0000
0000
0100
0000
0000
0010
0000
0100
0000
0000
0000
1000
0000
0000
0000
,
0010
0010
0010
0010
0010
0010
0110
0010
,
0100
0100
0100
0100
0100
0100
0110
0100
,
0001
0010
0100
0010
0001
0000
1000
0000
0010
0000
1000
0000
0011
0000
0000
0001
,
1000
0000
1000
0001
0000
0100
0010
1000
0000
1000
0010
0000
0011
0000
0001
0100
,
0001
1000
0100
0010
0100
1000
0100
0010
0100
1000
0101
0000
1100
0000
0000
0001
,
0000
0100
0001
0000
0001
0100
0010
0100
0000
0100
0010
0000
1001
1000
0001
0010
,
0100
0000
0010
0000
0001
0000
1000
0000
0010
0000
0100
0000
0001
0000
1000
0100
,
1000
0000
1000
0001
0000
0000
1000
0100
0010
0001
0010
0000
0001
0000
0000
0000
,
1000
0000
0010
0000
0100
0000
0010
1000
0010
0000
0100
0000
0001
0000
1010
0000
,
1000
0100
0010
0100
1000
0010
1000
0101
,
0000
0000
1000
0000
0100
0010
0001
0000
0010
0000
0001
0000
1000
0000
0011
0010
,
0100
1000
0001
0000
1000
0000
0100
0000
0010
0001
0010
0001
1010
0000
1000
0000
,
1000
0001
0100
0010
0100
0000
0001
0000
0100
0000
0010
0000
1001
0000
0000
0000
,
1000
0100
1000
0001
1000
0000
0010
0100
0010
0000
0100
0000
0001
0000
1010
0010
,
0100
0010
0100
0001
0000
0001
0010
0000
0001
0000
0100
0000
1010
0000
0000
0000
,
0020
0000
0000
0000
0000
0000
0000
0000
0000
0000
0000
0030
0110
0000
0000
0000
,
1000
0000
0001
0100
0010
0000
0100
0000
1000
0000
0100
0000
0001
0000
0010
0000
,
0100
0000
0000
0000
1000
0000
0000
0000
0100
0000
0000
0000
0001
0000
0000
0000
0100
0000
0000
0010
0000
0000
0100
0000
0010
0000
0000
0000
0001
0000
0000
0000
,
1000
0000
0001
0010
0100
0000
0010
0000
1000
0000
0010
0000
0001
0000
0100
0000
,
0010
0000
0000
0000
1000
0000
0000
0000
0010
0000
0000
0000
0001
0000
0000
0000
0010
0000
0000
0100
0000
0000
0010
0000
0100
0000
0000
0000
0001
0000
0000
0000
,
0200
0000
0000
0000
0300
0000
0001
0000
0000
000M
0000
0000
0020
0000
0000
0000
0030
0000
0000
0000
0100
0000
0000
0M00
1000
0000
0001
0000
1000
0000
0001
0000
,
0010
0100
1000
0010
0000
0010
1000
0000
0001
0000
0101
0000
1100
0000
0000
0000
,
1000
0010
0000
0010
0100
0000
0100
0001
0010
0000
0001
1001
0000
0000
0000
0001
,
0100
0000
0100
0010
0000
0000
0010
0000
1000
0001
0000
0101
0000
0000
0100
0010
,
0100
0001
1000
0100
0000
0100
0010
0100
1000
0000
0001
0000
0011
0000
0000
0000
,
0010
0100
1000
0001
0010
0100
1000
1010
,
0010
0000
0100
0000
0001
0000
1000
0010
0100
0000
0010
0000
0100
0000
0101
0000
,
0001
0000
1000
0000
0010
0000
0100
0010
0100
0000
0100
0001
0010
0000
0110
0000
,
0100
0000
1000
0001
0000
0001
0000
1000
0010
0200
0020
0000
0000
0000
0000
0000
,
0000
M00M
0000
0000
0000
0000
2002
0000
0000
0000
0000
3003
0330
0000
0000
1000
,
0100
1000
0001
1000
0010
0100
0020
0000
0130
0000
0001
0000
0110
0000
0000
0010
,
0000
1000
0010
0000
0100
0000
0001
0000
0010
0000
0100
0000
0011
0000
0000
0001
,
0000
0010
0000
0010
0100
1000
0100
1000
0010
0000
1000
0000
0110
0000
0000
0001
,
0000
1000
0100
0010
0100
0000
0010
0000
0001
0000
0110
0000
1001
0000
0000
1000
,
0000
0100
1000
0010
0100
0000
0001
0000
1000
0000
0100
0000
1001
0000
0000
0000
,
1000
0000
0100
0000
0010
0000
0001
0000
0010
0000
0100
0000
0011
0000
0000
0010
,
0001
0010
0100
0000
1000
0001
1000
0001
0010
0100
0000
1000
0000
0000
0100
1000
,
1001
0000
1000
0001
0101
0000
0100
0000
0010
0100
0000
0000
1010
0000
0000
0000
,
0001
0000
1000
0100
0010
0000
0100
0000
0001
0000
0100
0000
1000
0000
0010
0000
,
0100
0000
0000
0000
0001
0000
0000
0000
0100
0000
0000
0000
1000
0000
0000
0000
0100
0000
0000
0010
0000
0000
0100
0000
0010
0000
0000
0000
1000
0000
0000
0000
,
0001
0000
1000
0010
0100
0000
0010
0000
0001
0000
0010
0000
1000
0000
0100
0000
,
0010
0000
0000
0000
0001
0000
0000
0000
0010
0000
0000
0000
1000
0000
0000
0000
0010
0000
0000
0100
0000
0000
0010
0000
0100
0000
0000
0000
1000
0000
0000
0000
,
0002
0000
0000
0000
,
0000
0000
0000
0000
0003
0010
0001
0000
,
1000
0010
1000
0010
1000
0001
0000
0001
0010
0100
1000
0010
0100
0001
0000
0010
,
0001
0010
0001
0010
0001
1000
0000
1000
0010
0100
0001
0010
0100
1000
0000
0000
,
1000
0100
1000
0100
1000
0001
0000
0001
0100
0010
1000
0100
0010
0001
0000
0100
,
0001
0100
0001
0100
0001
1000
0000
1000
0100
0010
0001
0100
0010
1000
0000
0000
,
2002
0000
0000
0000
,
0000
0M00
00M0
3003
0M00
0000
00M0
0000
,
0M00
0M00
0000
0MM0
0000
0000
0000
0000
;
