#TITLE:I Love It Loud;
#SUBTITLE:;
#ARTIST:KISS;
#CREDIT:;
#MUSIC:I Love It Loud_audio.ogg;
#SELECTABLE:YES;
#BACKGROUND:iloveitloud_bg.png;
#BANNER:iloveitloud_bg.png;
#CDTITLE:;
#OFFSET:-0.16;
#SAMPLESTART:80.096;
#SAMPLELENGTH:14.702;
#BPMS:0=85.501,2=85.4983,3=85.501,5=85.4983,6=85.501,8=85.4983,9=85.501,10=85.4983,11=85.501,12=86.9394,13=86.9365,14=86.9394,16=86.9365,17=84.7995,18=85.4983,19=85.501,20=84.7995,21=85.4983,22=84.1095,23=86.9394,24=86.9365,25=86.2142,26=83.4279,27=85.501,28=84.7995,29=84.7968,30=86.2142,31=86.9394,32=85.4983,33=85.501,34=85.4983,35=84.7995,36=85.501,37=83.4279,38=84.7995,40=85.4983,41=84.1095,42=86.9365,43=87.6769,44=86.2142,45=85.4983,46=86.9394,47=85.501,47=87.674,48=86.9394,49=80.8186,50=86.2142,51=85.501,52=86.2114,53=84.1095,54=84.7995,55=85.4983,56=85.501,57=86.2114,58=86.9394,59=84.7995,60=84.1068,61=86.9394,62=85.501,63=84.7968,64=86.9394,65=84.7968,66=86.2142,67=84.1095,68=86.2142,69=85.4983,70=86.9394,71=82.7625,72=86.9394,73=83.4279,74=86.9394,75=87.6769,76=86.2142,77=83.4279,78=83.4306,79=89.19,80=87.6769,81=88.424,82=85.501,82=84.1095,83=86.2142,84=82.7599,85=85.501,86=84.7995,87=84.1095,88=85.4983,89=84.7995,90=88.427,91=84.7995,92=86.2114,93=87.6769,95=84.1095,96=86.9365,97=84.7995,98=85.501,99=85.4983,100=85.501,102=84.7995,103=84.1068,104=86.2142,105=85.501,106=84.1095,107=84.7968,108=86.2142,109=85.501,110=84.7995,111=87.674,112=87.6769,113=84.1095,114=85.501,115=84.7968,116=86.2142,117=84.1095,118=84.7995,119=87.674,120=86.2142,121=86.9394,122=85.501,123=85.4983,124=87.6769,125=81.458,126=86.2142,127=83.4279,128=86.9394,129=86.2142,130=85.501,131=86.2114,132=86.9394,133=84.1068,134=86.2142,135=86.9365,136=86.2142,137=84.7968,138=87.6769,139=84.1068,140=86.2142,141=85.4983,142=84.1095,143=84.1068,144=87.6769,145=84.1068,146=86.9394,147=86.9365,148=89.9663,149=84.1068,150=85.501,151=86.2114,152=83.4306,153=84.1068,154=86.2142,155=87.674,156=86.2142,157=85.4983,158=83.4306,159=86.2114,160=87.6769,161=81.4555,162=85.501,163=90.7532,164=89.9663,165=81.4555,166=86.2142,167=85.4983,168=86.2142,169=82.7599,170=84.1095,171=85.4983,172=87.6769,173=87.674,174=84.1095,175=89.187,176=88.427,177=83.4279,178=81.458,179=85.4983,180=86.2142,181=84.1068,182=86.2142,183=84.7968,184=85.501,185=86.2114,186=83.4306,187=87.674,188=86.9394,189=83.4279,190=86.2142,191=86.9365,192=84.7995,193=85.4983,194=86.9394,195=83.4279,196=86.9394,197=86.2114,198=87.6769,199=83.4279,200=83.4306,201=85.4983,202=86.2142,203=85.4983,204=84.1095,205=89.187,206=86.2142,207=87.674,208=86.2142,209=84.7968,210=84.7995,211=84.7968,212=83.4306,213=84.7968,214=86.2142,215=83.4279,216=91.5603,217=83.4279,218=84.7995,219=85.4983,220=82.7625,221=86.2114,222=86.2142,223=83.4279,224=86.9394,225=87.674,226=84.7995,227=86.9365,228=83.4306,229=85.4983,230=86.9394,231=85.4983,232=85.501,233=85.4983,234=85.501;
#STOPS:47=0.701746,82=0.701746,97=0.707551;
#GENRE:Hard Rock;
#BGCHANGES:-0.23=iloveitloud_video.mov=1.000=1=0=0=StretchNoLoop==CrossFade==,
99999=-nosongbg-=1.000=0=0=0 // don't automatically add -songbackground-;

//---------------dance-single - ----------------
#NOTES:
     dance-single:
     :
     Beginner:
     4:
     0.000,0.000,0.000,0.000,0.000:
0000
0000
0000
0000
,
0000
0000
0000
0000
,
0000
0000
0000
0000
,
0000
0000
0000
0000
,
0100
0000
1000
0000
,
0100
0000
0001
0000
,
0100
0000
1000
0000
,
0100
0000
0001
0000
,
1001
0000
1000
1000
,
0000
0110
0010
0010
,
0000
1000
0100
0010
,
0110
0110
0000
0000
,
1000
0100
1000
0000
,
0010
0100
0010
0000
,
1000
0010
0100
0001
,
2000
0000
3001
1002
,
0000
0003
2000
0000
0000
3000
0020
0000
,
0000
0030
2000
0000
0000
3000
0002
0000
,
0000
0003
2000
0000
0000
3000
0200
0000
,
0000
0300
2000
0000
0000
3000
0000
0000
,
0000
0000
0000
0010
,
0010
0010
0000
0100
,
0100
0100
0000
1000
,
0100
1000
1100
0200
,
0000
0300
0100
0100
,
0100
0000
0010
0010
,
0010
0000
0001
0010
,
0100
0110
0001
2000
,
3001
0000
2001
0000
0000
3000
0002
0000
,
0000
0003
0020
0000
0000
0030
0002
0000
,
0000
0003
2000
0000
0000
3000
0002
0000
,
0000
0003
0200
0000
0000
0300
0002
0000
,
0000
0003
0200
0000
0000
0000
0000
0000
,
0300
0100
0000
0001
,
0000
0100
0000
1000
,
0000
0100
0000
0001
,
0000
0100
0000
1000
,
0010
2010
0000
3000
,
0010
0200
0000
0300
,
0001
2000
0000
3000
,
1000
0002
0000
0000
,
0003
0000
0001
0100
,
0010
0000
0010
0100
,
0001
0000
1000
0010
,
0100
0101
0201
0000
,
0301
0000
0101
0000
0000
0000
0001
0001
,
0001
0000
0100
0100
0100
0000
0002
0000
,
0003
0000
1100
0000
0000
0000
1000
1000
,
1000
0000
0100
0100
0100
0000
1100
0000
,
0000
1100
0000
1010
,
0000
0000
1000
1000
1000
0000
0010
0010
,
0010
2000
3000
0011
,
0000
0000
0001
0001
0001
0000
0010
0010
,
0010
0011
0000
0011
,
0000
1001
0000
0000
,
0000
0000
0000
0000
,
0000
0000
0000
0000
,
0000
0000
0000
0000
,
0000
0000
0000
0000
,
0000
0000
0000
0000
;

//---------------dance-single - ----------------
#NOTES:
     dance-single:
     :
     Easy:
     6:
     0.000,0.000,0.000,0.000,0.000:
0000
0000
0000
0000
,
0000
0000
0000
0000
,
0000
0000
0000
0000
,
0000
0000
0000
0000
,
0000
1000
1000
0000
0010
0000
1000
0000
,
0000
0100
0100
0000
0010
0000
0100
0000
,
0000
0010
0010
0000
0001
0000
0010
0000
,
0000
0001
0001
0000
1000
0000
0001
0000
,
1001
0001
1000
0000
0100
0000
0010
0000
,
0000
0100
0010
0000
0010
0000
0010
0000
,
0000
0001
0100
0000
0001
0000
0100
0000
,
0101
0000
2020
0000
0000
3030
0000
1000
,
0001
0000
0100
0000
0010
0000
0000
0100
,
0010
0000
0010
0000
0010
0000
0000
1000
,
0100
1000
0100
1100
,
0011
0000
0000
2000
3001
0000
1002
0000
,
0003
0000
1000
1000
1000
0000
0010
0010
,
0010
2020
3030
0201
,
0300
0000
0001
0001
0001
0000
0010
0010
,
0010
0011
1100
2002
,
0000
0000
0000
3003
0000
1000
0010
0000
,
1000
0000
0010
0000
0000
0100
0001
0100
,
0000
0000
0010
0000
0000
1000
0100
0000
,
1000
0000
0000
0100
0000
0000
1000
0100
1000
0100
2000
0000
,
0000
0000
0000
0000
0000
3000
0000
0000
0000
0001
0000
0000
0010
0000
0000
0000
0000
0000
0001
0000
0000
0000
0000
0000
,
0010
0000
0000
0100
1000
0000
0100
0000
,
0010
0000
0000
0001
0100
0000
0001
0000
,
0100
0000
0101
0000
1010
0000
0000
2000
,
3001
0000
2001
0000
3000
0000
0001
0010
,
0100
0000
0010
0100
1000
0000
0002
0000
,
0000
0003
2000
0000
3000
0000
0001
0100
,
0010
0000
0100
0010
1000
0000
1010
0000
,
0101
2002
0000
0000
,
3003
0000
0000
0001
0001
0000
0010
0000
,
0001
0000
0000
0100
0100
0000
0010
0000
,
0100
0000
0000
0010
0010
0000
1000
0000
,
0010
0000
0000
1000
1000
0000
0001
0000
,
1000
0001
2001
0000
0000
0000
0000
0000
,
3020
0230
0000
0000
,
0320
0032
0000
0000
,
0023
2030
0000
0000
,
3000
0000
0000
0001
0100
0000
0001
0100
,
0001
0100
0000
0010
0100
0000
0010
0100
,
0010
0100
0000
0001
0010
0000
0100
0000
,
1000
0000
0000
0001
1000
0001
2000
0002
0000
0000
0000
0000
,
3003
MMMM
1001
0000
0000
1000
0100
1000
,
0001
0000
0100
0001
1000
0000
0002
1000
,
1000
1003
1001
0000
0000
0001
0100
0001
,
1000
0000
0100
1000
0001
0000
1010
0000
,
1100
0000
0101
0001
0001
0001
1001
0000
,
0000
0001
0010
0001
1000
0000
0010
1000
,
0001
0000
2000
0001
0001
3001
1001
0000
,
0000
1000
0010
1000
0001
0000
0010
0001
,
1000
0000
0101
0000
0011
0000
1010
1000
,
1000
1000
1001
0000
0000
0000
0000
0000
,
0000
0000
0000
0000
,
0000
0000
0000
0000
,
0000
0000
0000
0000
,
0000
0000
0000
0000
,
0000
0000
0000
0000
;

//---------------dance-single - ----------------
#NOTES:
     dance-single:
     :
     Medium:
     8:
     0.000,0.000,0.000,0.000,0.000:
0000
0000
0000
0000
,
0000
0000
0000
0000
,
0000
0000
0000
0000
,
0000
0000
0000
0000
,
0000
1000
0100
0010
0200
0000
1300
0000
,
0000
0001
0100
0010
0200
0000
0301
0000
,
0000
1000
0010
0100
0020
0000
1030
0000
,
0000
0001
0010
0100
0020
0000
0031
0000
,
1001
0001
1000
0000
1000
0100
0010
0001
,
0000
0001
0100
0000
0001
0100
0010
1000
,
0000
1000
0100
0000
1000
0100
0010
0001
,
1000
0000
0100
0000
1000
0000
0020
0000
0200
0000
0000
0000
0000
0000
0000
0000
0330
0000
0000
0000
0000
1000
0000
0000
,
0001
0000
0001
0100
0010
1000
0000
0200
,
0310
0000
10M0
0100
0010
0001
0000
0001
,
0100
0000
0001
0100
0010
1000
0101
0000
,
1010
0000
0000
0000
0000
0000
0010
0000
0100
0000
0010
MMMM
1002
0000
0000
0000
,
0003
1000
0100
0001
0100
0000
1000
0100
,
1000
0000
0020
0200
0000
0000
0000
0000
0330
0000
0000
0000
0201
0000
0000
0000
,
0000
0301
0010
1000
0010
0001
0010
0100
,
1000
0100
0011
0000
1100
0000
2002
0000
,
0000
0000
0000
0000
0000
0000
3003
0000
0000
0000
1000
0100
1000
0000
0000
0000
,
1000
0100
0010
0001
0000
0101
1100
0101
,
0000
0001
0100
0010
0000
1001
1001
0000
,
1000
0000
0000
0010
0000
0000
1000
0000
0000
0001
0000
0000
1000
0000
0100
0000
1000
0000
0100
0000
2000
0000
0000
0000
,
0000
0000
0000
0000
0000
3000
0000
0000
0000
0001
0000
0000
0001
0000
0000
0000
0000
0000
0001
0000
0000
0100
0000
0000
,
0010
0000
1000
0000
0000
0000
0010
1000
0010
0000
0000
0000
1000
0000
1000
0000
,
0100
0010
0000
1001
1001
0000
0001
0010
,
0001
1000
0101
0000
1010
0000
0000
1000
,
0100
0000
0010
MMMM
0120
0000
0000
0000
0030
0000
0001
0000
0010
0000
0001
0000
,
0100
0000
0000
0000
0010
0000
0100
0000
0001
0000
2000
0002
0000
0000
0000
0000
,
3003
0000
0120
0000
0030
1000
0010
1000
,
0100
0000
0010
0100
1000
0001
1010
0000
,
0101
2002
0000
0000
,
3003
0000
0000
0001
0010
0100
0020
0000
,
0031
0000
0000
1000
0010
0100
0020
0000
,
1030
0000
0000
0001
0100
0010
0200
0000
,
0301
0000
0000
1000
0100
0010
0200
0000
,
1300
0010
2001
0000
0010
0000
0010
0000
,
3002
2003
0100
0100
,
3200
0000
0000
0300
1002
0000
0000
0000
0010
0000
0000
0000
0010
0000
0000
0000
,
2003
0000
0000
0000
3002
0000
0000
0000
0100
0000
0000
0000
0100
0000
0000
0100
,
0003
0100
0101
0001
0100
0000
0001
0100
,
1000
0100
0000
0101
1010
0000
1000
0100
,
0001
0000
0000
0100
0000
0000
0000
0000
0000
1200
0000
0000
0310
0000
0000
0000
0000
0000
1000
0000
0001
0000
1000
0000
,
0110
0000
0000
0001
0010
0100
2000
0002
0000
0000
0000
0000
,
0000
0000
0000
3003
0000
0000
0000
MMMM
0000
0000
0000
0000
1002
0000
0000
0000
0000
0000
0000
0000
0000
0000
0000
0000
0003
0000
0000
0000
0000
0000
1000
0000
0000
0000
0000
0000
0010
0000
0000
0000
0000
0000
0100
0000
0000
0000
0000
0000
,
0001
0000
0000
0000
0100
0000
0001
0000
1000
0000
0001
0200
0000
0000
0010
0000
,
0010
0310
1001
0000
0000
0001
0010
0100
,
1000
0000
1000
0000
0100
0000
1000
0000
0001
0000
0100
0020
0100
0000
0000
0000
,
0100
0000
0100
1000
1000
1030
2001
0000
,
3000
0001
0010
0100
1000
0000
0100
1000
,
0001
0000
1000
0200
0000
0000
0010
0000
0010
0000
0310
0000
1001
0000
0000
0000
,
0000
1000
0010
0100
0001
0001
0100
0001
,
1000
0000
0100
0020
0100
0000
0000
0000
0100
0000
0000
0000
0100
0000
0001
0000
,
0001
0031
1001
0000
0000
0000
0000
0000
,
0000
0000
0000
0000
,
0000
0000
0000
0000
,
0000
0000
0000
0000
,
0000
0000
0000
0000
,
0000
0000
0000
0000
;

//---------------dance-single - ----------------
#NOTES:
     dance-single:
     :
     Hard:
     10:
     0.000,0.000,0.000,0.000,0.000:
0000
0000
0000
0000
,
M00M
M0M0
M0M0
MM00
M000
MM00
M0M0
M0M0
M00M
0000
0000
0000
0M00
0M00
0M00
0M00
,
0M00
0M00
0M00
0M00
0M00
0000
0000
0000
000M
00M0
0M00
0MMM
000M
00M0
0M00
M000
,
0000
0000
0000
0000
000M
00M0
0M00
0MMM
000M
00M0
0M00
M000
0000
0000
0000
0000
,
1000
1000
0100
0010
0200
0000
1300
0000
,
0001
0001
0100
0010
0200
0000
0301
0000
,
1000
1000
0010
0100
0020
0000
1030
0000
,
0001
0001
0010
0100
0020
0000
0031
0000
,
1001
0001
1000
0000
1000
0100
0010
0001
,
0000
0001
0100
0000
0001
0100
0010
1000
,
0000
1000
0100
0000
1000
0100
0010
0001
,
1000
0000
0100
0000
1000
0000
0020
0000
0200
0000
0000
0000
0000
0000
0000
0000
0330
0000
0000
0000
0000
1000
0000
0000
,
0001
0000
0001
0100
0010
1000
0000
0100
,
0010
0000
10M0
0100
0010
0001
0000
0001
,
0100
0000
0001
0100
0010
1000
0101
0000
,
1010
0000
0000
0000
0000
0000
0010
0000
0100
0000
0010
MMMM
1002
0000
0000
0000
,
0003
0000
1000
0001
0010
0000
0100
0020
0000
0000
0030
0000
0001
0000
0100
0000
,
1000
0000
0200
0020
0000
0000
0000
0000
0330
0000
0000
0000
0201
0000
0000
0000
,
0000
0000
0301
1000
0010
0000
0100
0010
0000
0000
1000
0000
0010
0000
0100
0000
,
0001
0000
0100
2000
0100
0000
0000
0000
0001
0000
0000
0000
3200
0000
0000
0000
,
0010
0000
0000
0000
0001
0000
0000
0300
0000
0000
1000
0100
1000
0000
0000
0000
,
1000
0100
0010
0001
0000
0101
1100
0101
,
0000
0001
0100
0010
0000
1001
1001
0000
,
1000
0000
0000
0000
0000
0000
0010
0000
0000
0000
0000
0000
1000
0000
0000
0000
0000
0000
0001
0000
0000
1000
0000
0000
0001
0000
0000
0000
0010
0000
0000
0000
0100
0000
0000
0000
0010
0000
0000
0000
0200
0000
0000
0000
0000
0000
0000
0000
,
0000
0000
0000
0000
0300
0000
0000
0000
0000
1000
0000
0000
1000
0000
0000
0000
0000
0000
1000
0000
0000
0100
0000
0000
,
1000
0100
0001
0000
0000
0000
0100
1000
0010
0000
0000
M000
0001
0000
0001
0000
,
0010
0100
0001
0000
0000
0000
0101
0000
1100
0000
0000
0000
0001
0000
0100
0000
,
0001
0000
0000
0100
0000
0000
1000
0000
0000
0000
0000
0000
0100
0000
0000
1000
0000
0000
0000
0000
M000
0000
0000
0000
1000
0000
0000
0001
0000
0000
0000
0000
0000
0000
0000
0000
0000
0000
0000
0000
0000
0000
0010
0000
0000
0000
0000
0000
,
0100
0000
0010
MMMM
0210
0000
0000
0000
0000
0300
1000
0001
0010
0000
0100
0020
,
0000
0000
0030
0000
0001
0000
0100
0000
1000
0000
0200
0020
0000
0000
0000
0000
,
0330
0000
0000
0000
0201
0000
0000
0000
0000
0000
0301
1000
0010
0000
0100
0010
,
0000
0000
1000
0000
0010
0000
0100
0000
0001
0000
0100
2000
0100
0000
0000
0000
,
0001
0000
0000
0000
0200
3000
0000
0000
0010
0000
0000
0000
0001
0000
0000
0300
,
0000
0000
1000
0010
1000
0000
0001
0000
0100
0000
0010
0000
0200
0000
0000
0000
,
0301
0000
0001
0100
0001
0000
1000
0000
0100
0000
0010
0000
0200
0000
0000
0000
,
1300
0000
1000
0100
0010
0000
0001
0000
0010
0000
0100
0000
0020
0000
0000
0000
,
0031
0000
0100
0010
1000
0000
1000
0000
0010
0000
0100
0000
0440
0000
0000
0000
,
0000
0330
1001
1000
0010
0100
0001
1000
,
0010
0100
0001
1000
0010
0100
0001
1000
,
0010
0000
0100
0010
1000
0000
0010
0000
0100
0000
0001
0000
1000
0010
1000
0010
,
0100
0001
0100
0001
1000
0010
0000
0000
0100
0001
0000
0000
1000
0100
0000
M100
,
0001
1000
1001
1100
0101
0000
0001
0100
,
1000
0100
0000
0101
1010
0000
1000
0100
,
0001
0000
0000
0100
0000
0000
0000
0000
0000
1200
0000
0000
0310
0000
0000
0000
0000
0000
1000
0000
0001
0000
1000
0000
,
0100
0000
0000
0010
0000
0000
0001
0000
0010
0000
0100
0000
2000
0000
0002
0000
0000
0000
0000
0000
0000
0000
0000
0000
,
0000
0000
0000
3000
0003
0000
0000
0000
0000
MMMM
0000
0000
1002
0000
0000
0000
0000
0000
0000
0000
0000
0000
0000
0000
0003
0000
0000
0000
0000
0000
1000
0000
0000
0010
0000
0000
1000
0000
0000
0000
0000
0000
0100
0000
0000
0002
0000
0000
,
0000
0000
0003
0000
0100
0000
0001
0000
1000
0000
0001
2000
0000
0000
0010
0000
,
0010
0000
0010
3000
0120
0000
0000
0000
0030
0000
0001
0010
0001
0000
0100
1000
,
0000
0000
0100
0000
0001
0000
0010
0000
1000
0000
0010
0002
0100
0000
0000
0000
,
1000
0000
0000
0003
0010
0000
0001
0000
0010
0000
0100
MMMM
0120
0000
0000
0000
,
0030
0000
0001
0010
0001
0000
0100
2000
0000
0000
3000
0000
0100
0000
1000
0000
,
0001
0000
1000
0002
0000
0000
0010
0000
0010
0000
0013
0000
0120
0000
0000
0000
,
0030
0000
1000
0010
1000
0000
0100
0001
0000
0000
0100
0000
1000
0000
0010
0000
,
0001
0000
0010
2000
0100
0000
0000
0000
0001
0000
0000
3000
0010
0000
1000
0000
,
0010
0000
0100
MMMM
0110
0000
0000
0000
0000
0000
0000
0000
0000
0000
0000
0000
,
0000
0000
0000
0000
,
0000
0000
0000
0000
,
0000
0000
0000
0000
,
0000
0000
0000
0000
,
0000
0000
0000
0000
;

//---------------dance-single - ----------------
#NOTES:
     dance-single:
     :
     Challenge:
     12:
     0.000,0.000,0.000,0.000,0.000:
0000
0000
0000
0000
,
M00M
M0M0
M0M0
MM00
M000
MM00
M0M0
M0M0
M00M
0000
0000
0000
0M00
0M00
0M00
0M00
,
0M00
0M00
0M00
0M00
0M00
0000
0000
0000
000M
00M0
0M00
0MMM
000M
00M0
0M00
M000
,
0000
0000
0000
0000
000M
00M0
0M00
0MMM
000M
00M0
0M00
M000
0000
0000
0001
0010
,
0100
1000
0100
0010
0200
0000
1300
0001
,
1000
0000
0001
0000
0100
0000
0010
0000
0200
0000
0000
0000
0301
0000
0010
0100
,
1000
1000
0010
0100
0020
0000
1030
0001
,
1000
0000
0001
0000
0010
0000
0100
0000
0020
0000
0001
0000
0031
0100
0010
0000
,
1001
0000
0000
0110
0000
0000
1001
0000
0000
0000
0000
0000
1000
0000
0100
0010
0000
0100
0010
0000
0100
1000
0000
0000
,
0000
0000
0000
2002
0000
0000
0010
0000
3003
0000
0000
0000
0001
0000
0100
0010
0000
0100
0010
0000
0100
0001
0000
0000
,
0000
0000
0000
0000
0000
0000
1100
0000
0000
0000
0000
0000
0101
0000
0000
0000
0000
0000
0000
0000
0000
0000
0000
0000
0100
0000
0000
0000
0001
0000
0100
0000
0000
0000
0001
0000
1000
0000
0000
0000
0001
0000
0010
0000
0000
0100
0000
0000
,
1000
0000
0100
0000
1000
0000
0020
0000
0200
0000
0000
0000
0000
0000
0000
0000
0330
0000
0000
0000
0000
0110
0000
0000
,
1001
0000
0000
0000
0000
0000
0001
0000
0010
0100
0000
0010
0100
0000
0010
0001
0000
0000
0000
0000
0000
2100
0000
0000
,
0010
0000
0000
3000
0000
0000
0000
0000
0000
0000
0000
0000
1000
0000
0000
0000
0010
0000
0100
0000
0000
0000
0010
0000
0100
0000
0000
0000
0010
0000
1000
0000
0000
0000
0000
0000
0000
0000
0000
0000
0000
0000
0110
0000
0000
0000
0000
0000
,
0110
0000
0000
0000
0000
0000
0000
0000
0000
0000
0010
0000
1000
0000
0000
0000
0010
0000
1000
0000
0000
0000
0000
0000
0001
0000
0000
0000
1000
0000
0100
0000
0000
0010
0000
0000
0001
0000
0000
0100
0000
0000
0000
0000
0000
0000
0000
0000
,
010M
0000
0000
1000
0000
0000
0000
0000
0000
0000
0000
0000
0000
0000
0000
0000
0001
0000
0010
0000
0000
0000
0000
0000
0100
0000
0000
0000
0000
0000
1000
0000
0000
MMMM
0000
0000
1002
0000
0000
0000
0000
0000
0000
0000
0000
0000
0000
0000
,
0003
0000
1000
0001
0010
0000
0100
0020
0000
0000
0030
0000
0001
0000
0100
0000
,
1000
0000
0200
0020
0000
0000
0000
0000
0330
0000
0000
0000
0201
0000
0000
0000
,
0000
0000
0301
1000
0010
0000
0100
0010
0000
0000
1000
0000
0010
0000
0100
0000
,
0001
0000
0100
2000
0100
0000
0000
0000
0001
0000
0000
0000
3200
0000
0000
0000
,
0010
0000
0000
0000
0001
0000
0000
0300
0000
0000
1000
0100
0010
0000
0000
0000
,
0100
0000
0001
0100
0000
0010
0100
0000
1000
0100
0000
0000
0000
0000
0000
0101
0000
0000
1100
0000
0000
0101
0000
0000
,
0000
0000
0000
0001
0000
0100
1000
0000
0100
0010
0000
0000
0000
0000
0000
2001
0000
0000
3001
0000
0000
0000
0000
0000
,
1000
0000
0000
0100
0000
0000
0001
0000
0000
0M00
0000
0000
0001
0000
0000
0100
0000
0000
1000
0000
0000
0100
0000
0000
0001
0000
0000
0000
0010
0000
0000
0000
0100
0000
0000
0000
0010
0000
0000
0000
0200
0000
0000
0000
0000
0000
0000
0000
,
0000
0000
0000
0000
0300
0000
0000
0000
0000
1000
0000
0000
1000
0000
0000
0000
0000
0000
1000
0000
0000
0100
0000
0000
,
1000
0100
0001
0000
0000
0000
0100
1000
0010
0000
0000
M000
0001
0000
0001
0000
,
0010
0100
0001
0000
0000
0000
0101
0000
1100
0000
0000
0000
0001
0000
0100
0000
,
0001
0000
0000
0100
0000
0000
1000
0000
0000
0000
0000
0000
0100
0000
0000
1000
0000
0000
0000
0000
M000
0000
0000
0000
1000
0000
0000
0001
0000
0000
0000
0000
0000
0000
0000
0000
0000
0000
0000
0000
1000
0000
0010
0000
0000
0000
0000
0000
,
0100
0000
0010
MMMM
0120
0000
0000
0000
0000
0030
1000
0001
0010
0000
0100
0020
,
0000
0000
0030
0000
0001
0000
0100
0000
1000
0000
0200
0020
0000
0000
0000
0000
,
0330
0000
0101
1010
1010
0001
1100
0100
,
1000
0100
0010
0000
0010
0000
0100
0000
0001
0000
0100
2000
0100
0000
0000
0000
,
0001
0000
0000
0000
0200
3000
0000
0000
0010
0000
0000
0000
1000
0000
0000
0300
,
0000
0000
1000
0010
1000
0000
0001
0000
0100
0000
0010
0000
0200
0000
0000
0000
,
0301
0000
0001
0100
0001
0000
1000
0000
0100
0000
0010
0000
0200
0000
0000
0000
,
1300
0000
1000
0100
0010
0000
0001
0000
0010
0000
0100
0000
0020
0000
0000
0000
,
0031
0000
0100
0010
1000
0000
1000
0000
0010
0000
0100
0000
0001
0010
0100
1000
,
0001
0010
0100
0000
1001
0000
1000
0000
0010
0000
0100
0000
0001
0000
1000
0000
,
0010
0100
0001
1000
0010
0100
0001
1000
,
0010
0000
0100
0010
1000
0000
0010
0000
0100
0000
0001
0000
1000
0010
1000
0010
,
0100
0000
0001
0000
0100
0000
0001
0000
1000
0000
1010
0000
0000
0000
0000
0000
0001
0000
0101
0000
0000
0000
0000
0000
1000
0000
0100
1000
0000
0000
0001
0000
,
0100
0000
0000
0001
0000
0000
0000
0000
0000
0000
0000
0000
0100
0000
0000
0000
0000
0000
0000
0000
0000
0000
0000
0000
1001
0000
0000
0000
0000
0000
0000
0000
0000
0000
0000
0000
1000
0000
0000
0000
0000
0000
0000
0000
0000
0000
0000
0000
0001
0000
0000
0000
0000
0000
0000
0000
0000
0000
0000
0000
0000
0000
0000
0000
0000
0000
0000
0000
0000
0000
0000
0000
0100
0000
0000
0000
0000
0000
0000
0000
0001
0000
0000
0000
0100
0000
0000
0000
0000
0000
0000
0000
0010
0000
0000
0000
,
0100
0000
1000
0100
0000
0000
0000
0000
0000
0101
0000
0000
1100
0000
0000
0000
0000
0000
1000
0000
0000
0001
0000
0100
,
1000
0000
0000
0000
0100
0000
0010
0000
0000
0000
0000
0000
0000
0000
0000
0000
0000
0000
1000
0000
0000
0100
0000
0000
0010
0000
0000
0000
0000
0000
0000
0000
0000
0000
0000
0000
0001
0000
0000
1000
0000
0000
0000
0000
0010
0000
0000
0000
,
0001
0000
0000
0010
0000
0000
1000
0000
0000
0000
0000
0000
0001
0000
0000
0000
0010
0000
0000
0000
0100
0000
0000
0000
1000
0000
0000
0000
0200
0000
0000
0000
0000
0000
0000
0000
0000
0000
0000
0000
0000
0000
0300
0000
0000
0000
0000
0000
,
0110
0000
MMMM
0000
1002
0000
0000
0000
0003
0000
1000
0010
1000
0000
0100
0001
,
0000
0000
0000
0000
0100
0000
0001
0000
1000
0000
0001
2000
0000
0000
0010
0000
,
0010
0000
0010
3000
0120
0000
0000
0000
0030
0000
0001
0010
0001
0000
0100
1000
,
0000
0000
0100
0000
0001
0000
0010
0000
1000
0000
0010
0002
0100
0000
0000
0000
,
1000
0000
0000
0003
0010
0000
0001
0100
0010
1000
0100
MMMM
0120
0000
0000
0000
,
0030
0000
0001
0010
0001
0000
0100
2000
0000
0000
3000
0000
0100
0000
1000
0000
,
0001
0000
1000
0002
0000
0000
0010
0000
0010
0000
0013
0000
0110
0000
1010
0000
,
1001
0000
1000
0000
0110
0000
0110
0000
0001
0010
0100
1000
1100
0000
0010
0000
,
0101
0000
1000
0000
0110
0000
0001
0000
1100
0000
0010
0000
0110
0000
0001
0010
,
0100
1000
0001
MMMM
0110
0000
0000
0000
0000
0000
0000
0000
0000
0000
0000
0000
,
0000
0000
0000
0000
,
0000
0000
0000
0000
,
0000
0000
0000
0000
,
0000
0000
0000
0000
,
0000
0000
0000
0000
;
