#TITLE:I Like Boys;
#SUBTITLE:;
#ARTIST:Todrick Hall;
#CREDIT:;
#MUSIC:ILikeBoys_audio.ogg;
#SELECTABLE:YES;
#BACKGROUND:ILikeBoys_bg.png;
#BANNER:ILikeBoys_bn.png;
#CDTITLE:;
#OFFSET:0;
#SAMPLESTART:16.451;
#SAMPLELENGTH:16.452;
#BPMS:0=124.004,3=123.999,5=124.004,6=123.999,7=124.004,8=123.999,9=124.004,11=123.999,13=124.004,14=123.999,15=124.004,16=123.999,18=124.004,19=123.999,21=124.004,22=123.999,26=124.004,27=123.999,31=124.004,32=123.999,37=124.004,38=123.999,42=124.004,43=123.999,47=124.004,48=123.999,51=124.004,52=123.999,55=124.004,56=123.999,59=124.004,60=123.999,63=124.004,64=123.999,67=124.004,68=123.999,71=124.004,72=123.999,75=124.004,76=123.999,79=124.004,80=123.999,83=124.004,84=123.999,87=124.004,88=123.999,91=124.004,92=123.999,95=124.004,96=123.999,99=124.004,100=123.999,103=124.004,104=123.999,107=124.004,108=123.999,111=124.004,112=123.999,115=124.004,116=123.999,119=124.004,120=123.999,123=124.004,124=123.999,127=124.004,128=123.999,131=124.004,132=123.999,135=124.004,136=123.999,139=124.004,140=123.999,143=124.004,144=123.999,147=124.004,148=123.999,151=124.004,152=123.999,155=124.004,156=123.999,159=124.004,160=123.999,163=124.004,164=123.999,167=124.004,168=123.999,171=124.004,172=123.999,175=124.004,176=123.999,179=124.004,180=123.999,221=124.004,222=123.999;
#STOPS:;
#BGCHANGES:-0.5=ILikeBoys_video.mov=1.000=1=0=0=StretchNoLoop==CrossFade==,
230.50=ILikeBoys_bg.jpg=1.000=1=0=1===CrossFade==,
99999=-nosongbg-=1.000=0=0=0 // don't automatically add -songbackground-

//---------------dance-single - ----------------
#NOTES:
     dance-single:
     :
     Beginner:
     3:
     0.000,0.000,0.000,0.000,0.000:
0000
0000
0000
0000
,
0010
0000
0001
0000
,
0010
0000
0001
0000
,
1000
0000
0100
0000
,
1000
0000
0100
0000
,
0010
0000
0001
0000
,
0010
0000
0001
0000
,
0100
0000
0001
0000
,
0100
0000
0001
1001
,
1001
0000
0001
0000
,
0100
0000
0001
0000
,
0010
0000
0100
0000
,
1000
0000
1000
0000
,
0010
0010
0010
0000
,
0200
0300
0000
0000
0100
0000
0000
0000
,
0020
0030
0000
1000
,
0010
0000
0100
0100
,
0100
0000
0000
0010
,
0000
0000
0000
0000
0000
0000
0000
0100
,
0000
0000
0000
1001
,
0000
0000
1000
0001
,
1001
0000
0000
0000
,
0000
0002
0003
0000
,
0000
0000
0200
0300
0000
0000
0000
0000
,
0400
0000
0000
0000
0300
0000
0020
0030
,
0000
0000
1000
0000
,
0000
0000
0100
0000
,
0000
0000
0010
0000
,
0000
0000
0000
0000
0100
0000
0000
1001
,
0000
0000
0000
0000
0000
0000
0000
1000
,
0000
0000
0000
0000
0000
0000
0000
0110
,
0000
0000
0000
0000
0000
0000
0000
0001
,
0000
0000
0000
0000
0000
0000
2000
3000
,
0001
0010
0100
0010
,
0000
0000
0000
0000
,
0001
0100
0010
0100
,
0000
0000
0000
0000
,
1000
0100
0010
0000
,
1001
0000
0110
0000
,
1000
0010
0200
0300
,
0000
0000
1000
0001
,
1001
0000
1000
0000
,
0100
0000
1000
0000
,
0010
0000
0100
0000
,
0001
0000
0001
0000
,
0100
0100
0100
0000
,
0200
0000
0000
0300
0000
0000
0000
0000
0110
0000
0000
0000
0000
0000
0000
0000
,
0002
0003
1000
0000
,
0010
0000
0100
0010
,
0110
0000
0000
0000
0000
0001
0000
0000
,
0000
0000
0000
0000
0000
0001
0000
0000
,
0000
0000
0000
0000
0000
0001
0000
0000
,
0000
0000
0002
0103
,
0101
0000
2000
3001
,
1001
0000
2000
3100
,
1100
0000
0020
0130
,
0040
0000
0030
2000
,
3000
0000
0000
0000
,
0000
0000
0000
0000
;

//---------------dance-single - ----------------
#NOTES:
     dance-single:
     :
     Easy:
     5:
     0.000,0.000,0.000,0.000,0.000:
0000
0000
0000
0000
,
2001
0000
0001
3000
,
0102
0000
0100
0003
,
0210
0000
0010
0300
,
1020
0000
1000
0030
,
0001
0100
0100
0010
,
1000
1000
1000
0001
,
0100
1000
0100
0001
,
0100
1000
0110
0110
,
0120
0000
0030
1000
0001
0000
0000
0001
,
0100
0000
0000
0200
2000
3300
0000
1000
,
0010
0000
0000
1000
0100
0000
0000
0100
,
0001
0000
0000
0001
1000
0000
0000
0000
,
0010
1000
1010
0000
,
0022
0033
0100
0000
,
0002
0000
0003
1000
0010
0000
0000
0001
,
0010
0100
0001
0010
,
1001
0000
0000
0100
0000
0001
0100
0000
,
0000
0000
0000
0100
0000
0010
0000
0110
,
0000
0000
0000
0010
0000
0001
0010
0000
,
0000
0000
0100
0010
,
1001
0100
0010
0100
,
0110
2000
3010
0100
,
0110
0000
0002
0003
0100
0000
0002
0000
,
0040
0000
0000
0000
0030
0000
0020
0033
,
0000
0000
0001
0000
1000
0000
0000
2000
,
3000
0000
0010
0000
1000
0000
0000
0020
,
0030
0000
1000
0000
0010
0000
0000
0200
,
0300
0000
0001
0000
0100
0000
0000
0120
,
0000
0000
0100
0000
0130
0000
0000
0210
,
0000
0000
0010
0000
0310
0000
0000
1002
,
0000
0000
1000
0000
1003
0000
0000
2001
,
0000
0001
3001
1001
,
0001
0001
1000
1010
,
0010
0010
0100
0101
,
0001
0001
0010
0110
,
0100
0100
1000
1010
,
0001
0010
0100
1000
0010
0000
0110
0000
,
0000
1100
0000
0011
,
0001
0000
0000
0000
0100
0000
0000
0000
1000
0000
1001
0000
0002
0003
0000
0000
,
0010
0100
2100
0001
,
3010
0000
0000
0001
1000
0000
0000
1000
,
0100
0000
0000
0200
0002
0303
0000
0001
,
0010
0000
0000
0001
0100
0000
0000
0100
,
1000
0000
0000
1000
1000
0000
0000
0000
,
1000
0010
0100
0001
1000
0000
0000
0000
,
2020
3030
0100
0000
,
2000
0000
3000
0001
0010
0000
0000
1000
,
0010
0100
1000
0010
,
1001
0000
0000
0010
0000
0000
0001
0000
0000
0000
0010
0000
0000
0000
0001
0000
,
1000
0000
0000
0010
0000
0000
1000
0000
0000
0000
0010
0000
0000
0000
1000
0000
,
0100
0000
0000
0010
0000
0000
0100
0000
0000
0000
0010
0000
0000
0000
0100
0000
,
2000
3000
1002
1000
,
1003
0000
2010
0001
,
3100
0000
0102
1000
,
0013
0000
0012
1000
,
0400
0000
0303
0200
,
0000
0300
0000
0000
,
0000
0000
0000
0000
;

//---------------dance-single - ----------------
#NOTES:
     dance-single:
     :
     Medium:
     7:
     0.000,0.000,0.000,0.000,0.000:
0000
0000
0000
0000
,
2001
0000
0000
0000
0000
0000
0000
0000
0001
0000
0000
0001
3000
0000
0000
0000
,
0102
0000
0000
0000
0000
0000
0000
0000
0100
0000
0000
0100
0003
0000
0000
0000
,
0210
0000
0000
0000
0000
0000
0000
0000
0010
0000
0000
0010
0300
0000
0000
0000
,
1020
0000
0000
0000
0000
0000
0000
0000
1000
0000
0000
1000
0030
0000
0000
0000
,
0001
0100
0001
0100
0001
0000
1000
0010
,
1000
0010
1000
0010
1000
0000
0001
0100
,
0001
0000
1000
0100
1000
0000
0001
0010
,
0001
0000
0000
0000
0000
0000
0000
0000
0000
0000
0000
0000
1000
0000
0000
0000
0000
0000
0000
0000
0000
0000
0000
0000
0000
1010
0000
0000
0000
0000
0000
0000
0000
0000
0000
0000
0000
0101
0000
0000
0000
0000
0000
0000
0000
0000
0000
0000
,
2001
0000
0000
3000
0001
0000
1000
0000
0001
0000
0000
0000
1000
0000
0001
0000
,
0100
0000
0001
0200
2000
3300
1000
0100
,
0010
0000
1000
0010
0100
0000
0001
0100
,
1000
0000
0100
0001
0011
0000
0000
0000
,
0011
0101
1010
0000
,
0002
0000
0013
0001
0100
0000
0000
0000
,
0002
0000
0103
0001
0010
0000
0001
0100
,
1000
0110
1000
0001
,
1001
0000
0000
0001
0000
0000
0100
0000
0000
0000
0001
0000
0000
0000
0100
0000
,
0101
0000
0000
0010
0000
0000
0100
0000
0000
0000
0010
0000
0000
0000
0100
0000
,
0110
0000
0000
0001
0000
0000
0010
0000
0000
0000
0001
0000
0000
0000
0010
0000
,
0011
0000
0000
0100
0000
0000
0010
0000
0100
0000
0000
0000
0010
0000
0000
0000
,
1001
0100
0010
0100
,
0110
0001
2000
0000
3010
0000
0100
0000
,
0110
1000
0002
0003
0100
0000
0001
0000
,
4040
0000
0000
0000
3030
0000
2020
3030
,
0000
0100
0001
0100
0100
0001
0000
2000
,
3000
0010
1000
1000
0010
0000
0000
0020
,
0030
1000
0010
0010
1000
1000
0000
0002
,
0003
0100
0001
0001
0100
0000
0000
0021
,
0000
0031
0001
0100
0001
0000
0000
1200
,
0000
1300
1000
0010
1000
0000
0000
0012
,
0000
0013
0001
0100
0001
0000
0000
2100
,
0000
3100
1000
0010
1000
0000
MMMM
0000
,
0001
0010
0100
1000
0010
0100
0001
0000
,
0001
0100
0010
1000
0100
0010
0001
0000
,
0100
0001
0010
0100
1000
0010
0100
0001
,
0010
0001
0100
0010
1000
0100
1001
0000
,
1000
0100
0010
0001
0010
0100
0110
0000
,
0010
0110
0100
0000
0100
0110
0010
0000
,
0001
0000
0000
0000
0100
0000
0000
0000
1001
0000
1001
0000
0002
0003
0000
0000
,
0010
0100
1100
1010
,
2001
0000
0000
3000
1000
0000
0001
0000
1000
0000
0000
0000
0001
0000
1000
0000
,
0100
0000
1000
0200
0002
0303
0001
0100
,
0010
0000
0001
0010
0100
0000
1000
0100
,
0001
0000
0100
1000
1010
0000
0000
0000
,
1010
1100
0011
0000
,
2000
0000
3010
1000
0100
0000
0000
0000
,
2000
0000
3100
1000
0010
0000
1000
0100
,
0001
0110
0001
1000
,
1001
0000
0000
0000
0000
0010
0000
0000
0001
0000
0001
0000
0040
0000
0000
0000
,
0030
0000
0000
0000
0000
0100
0000
0000
1000
0000
1000
0000
0000
0000
0110
0000
,
0000
0000
0000
0000
0000
0100
0000
0000
0001
0000
1000
0000
0010
0000
0000
0000
,
2020
3030
2100
0001
,
3010
0000
0100
0010
2010
0000
0001
0000
,
3100
0100
1000
0000
0102
0000
1000
0000
,
0013
0000
0012
1000
,
0400
0000
0303
0020
,
0000
0030
0000
0000
,
0000
0000
0000
0000
;

//---------------dance-single - ----------------
#NOTES:
     dance-single:
     :
     Hard:
     12:
     0.000,0.000,0.000,0.000,0.000:
0000
0000
0000
0000
,
1000
0001
0100
0000
0010
0000
0100
0000
0001
0000
0100
0001
0000
0000
0001
0000
,
1000
0001
0010
0000
0100
0000
0010
0001
0100
0000
0010
1000
0000
0000
0001
0000
,
1000
0000
0001
0000
0010
0000
0100
1000
0010
0000
0100
0001
0000
0000
1000
0001
,
1000
0000
0010
0000
0100
0000
0001
1000
0010
0000
0100
0001
0000
0000
1000
0000
,
0010
0001
0110
0110
0110
0000
0001
0100
,
0010
0000
1000
0000
1100
0000
0110
0000
0011
0000
1000
0000
1000
0000
0001
0100
,
0001
0000
1000
0000
1000
0000
0001
0010
0001
0000
1000
0000
0010
0100
0001
1000
,
0010
0000
0000
0000
0000
0000
0000
0000
0000
1000
0000
0000
0000
0000
0000
0000
0000
0000
0000
0000
0000
0000
0000
0000
0100
0000
0000
0000
0000
0000
1000
0000
0000
0000
0000
0000
0000
0000
0000
0000
0000
0000
0000
0000
0000
0000
0000
0000
0000
0000
0011
0000
0000
0000
0000
0000
0000
0000
0000
0000
0000
0000
0000
0000
0000
0000
0000
0000
0000
0000
0000
0000
0000
0000
0110
0000
0000
0000
0000
0000
0000
0000
0000
0000
0000
0000
0000
0000
0000
0000
0000
0000
0000
0000
0000
0000
,
1100
0000
0000
0100
0010
0000
1001
0000
1001
0000
1000
0000
0010
0000
0100
0000
,
0001
0000
0000
1000
0001
0000
0100
0000
0001
0000
0000
0000
0100
0000
0010
0000
,
1000
0000
0000
0001
1000
0000
0010
0000
1000
0000
0000
0000
0001
0000
0100
0000
,
1000
0000
0000
0000
0001
0000
0010
0000
2001
0000
3100
0000
0010
0000
0100
1000
,
0010
0000
1000
0010
1000
0000
0001
0000
1001
0000
0001
0010
0001
0000
0100
0000
,
0202
0000
0303
0001
1000
0000
0100
0000
1000
0000
0100
0010
0001
0000
1000
0000
,
0001
0000
0000
0010
0001
0000
1001
0000
1001
0000
0000
0000
0001
0000
0100
0000
,
0001
0000
0000
1000
0100
1000
0000
0000
0101
0000
0000
0000
0110
0000
0000
0000
,
1010
0000
0001
0100
0000
0001
0000
1000
0010
0000
1001
0000
0010
0100
0000
0000
,
0000
0000
1000
0100
0000
1000
0000
0001
0010
0000
1001
0000
0000
0000
0110
0000
,
0000
0000
1000
0010
0000
1000
0000
0001
0100
0000
1001
0000
0100
0010
0000
0000
,
0000
0000
0001
0100
0000
0001
0000
1000
1010
0000
0001
0000
0101
0000
1000
0000
,
2001
0000
300M
0000
0011
1000
1100
0001
,
1002
0100
0203
0000
0301
1000
1010
0001
,
1002
0100
0203
0300
0001
1000
1100
0001
,
1000
0010
0100
0010
1000
0000
0010
0000
0120
0000
0000
0000
MM3M
0000
0200
0000
,
0000
0301
1000
0010
1000
0020
M030
0100
,
0000
0000
0000
0000
0000
0100
0001
0000
0000
0000
0000
0000
0010
0000
0000
0000
0000
0000
0100
0000
0000
0000
0000
0000
0020
0000
0000
0000
0000
0000
0000
0000
0000
0000
0000
0000
0M31
0000
0000
0000
0000
0000
0002
0000
0000
0000
0000
0000
,
0000
0013
0100
0010
0001
2000
300M
0002
,
0000
0103
0010
0100
0001
0000
1001
2002
,
0003
3001
1000
0100
0020
0030
01M0
2000
,
0000
3010
0100
0010
2000
3000
M010
2000
,
0000
3100
0010
0100
2000
3000
M001
0200
,
0000
0310
1000
0100
0101
0000
11MM
0000
,
1000
0000
0100
0010
0001
0000
0010
0100
1000
0000
0100
0010
0001
0000
0000
0000
,
1000
0000
0010
0100
0001
0000
0100
0010
1000
0000
0010
0100
0001
0000
0000
0000
,
1000
0000
0010
0100
0010
0000
1000
0000
0001
0000
0100
0010
0100
0000
0010
1000
,
0010
0000
0100
0001
0100
0000
0010
0100
0010
0000
1000
0001
1000
0000
0001
0100
,
1000
0000
0000
0000
0000
0000
0000
0000
0100
0000
0000
0000
0000
0000
0000
0000
0010
0000
0000
0000
1000
0000
0000
0000
0001
0000
0000
0000
0010
0000
0000
0000
0100
0000
0000
0000
0000
0000
0000
0000
1000
0000
0000
0000
0000
0000
0000
0000
0000
0000
0000
0000
0000
0000
1100
0000
0000
0000
0000
0000
0000
0010
0000
0000
,
0001
0000
0000
0000
0000
0000
0000
0000
0001
0000
0000
0000
0000
0000
0000
0000
0000
0000
0000
0000
0000
0000
0101
0000
0000
0000
0000
0000
0000
0010
0000
0000
1000
0000
0000
0000
0000
0000
0000
0000
1000
0000
0000
0000
0000
0000
0000
0000
0000
0000
0000
0000
0001
0000
0000
0000
1000
0000
0000
0000
0010
0000
0000
0000
,
1000
0001
1000
0100
1000
0001
1000
0010
1010
0000
0110
0000
0101
0000
0001
1000
,
0001
0010
0001
1000
0001
0100
0001
1000
1001
0000
0000
0000
0011
0000
0000
0000
,
0011
0000
0000
1000
0001
0000
0110
0000
0110
0000
0001
0000
0010
0000
0100
0000
,
1000
0000
0000
0001
1000
0000
0100
0000
1000
0000
0000
0000
0100
0000
0010
0000
,
0001
0000
0000
1000
0001
0000
0010
0000
0001
0000
0000
0000
1000
0000
0100
0000
,
0001
0000
0000
0000
1000
0000
0010
0000
1002
0000
0103
0000
0010
0000
0100
0001
,
0010
0000
0001
0010
0001
0000
1000
0000
1001
0000
1000
0010
1000
0000
0100
0000
,
2200
0000
3300
1000
0001
0000
0100
0000
0001
0000
0100
0010
1000
0000
0001
0000
,
1000
0000
0000
0010
1000
0000
1001
0000
1001
0000
0000
0000
1000
0000
0100
0000
,
1000
0000
0000
0001
0100
0001
0000
0000
1100
0000
0000
0000
0110
0000
0000
0000
,
0011
0000
0000
0000
1000
0000
0100
0000
0000
0000
1000
0000
0000
0000
0001
0000
0010
0000
0000
0000
1001
0000
1000
0000
0010
0000
0000
0000
1000
0000
0000
0100
,
0000
0000
0000
0000
0001
0000
0100
0000
2000
0000
0001
3000
0000
0000
1000
0000
0010
0000
0000
0000
1001
0000
0000
0000
0000
0000
0000
0000
0110
0000
0000
0000
,
0000
0000
0001
0010
0000
0001
0000
1000
0100
0000
1001
0000
0100
0010
0000
0000
,
0002
0000
1000
1000
0000
0103
0000
0001
0011
0000
1000
0000
1100
0000
0001
0000
,
1002
0000
M003
0000
1010
0001
0101
1000
,
2001
0000
0001
0000
0200
3000
0000
2300
0001
0000
3001
0000
0011
0000
1000
0000
,
2001
0000
0100
0000
3200
0000
0300
0000
1000
0000
0001
0000
0100
0002
1000
0003
,
0001
0010
0100
0010
0001
0000
0010
0000
2002
0000
0000
0000
0010
0000
0000
0000
,
0000
3003
0000
0000
,
0000
0000
0000
0000
;

//---------------dance-single - ----------------
#NOTES:
     dance-single:
     :
     Challenge:
     14:
     0.000,0.000,0.000,0.000,0.000:
0000
0000
0000
0000
,
1000
0001
0100
0000
0010
0000
0100
0000
0001
0000
0100
0001
0000
0000
0001
0000
,
1000
0001
0010
0000
0100
0000
0010
0001
0100
0000
0010
1000
0000
0000
0001
0000
,
1000
0000
0001
0000
0010
0000
0100
1000
0010
0000
0100
0001
0000
0000
1000
0001
,
1000
0000
0010
0000
0100
0000
0001
1000
0010
0000
0100
0001
0000
0000
1000
0000
,
0010
0001
0110
0110
0110
0000
0001
0100
,
0010
0000
1000
0000
1100
0000
0110
0000
0011
0000
1000
0000
1000
0000
0001
0100
,
0001
0000
1000
0000
1000
0000
0001
0010
0001
0000
1000
0000
0010
0100
0001
1000
,
0010
0000
0000
0000
0000
0000
0000
0000
0000
1000
0000
0000
0000
0000
0000
0000
0000
0000
0000
0000
0000
0000
0000
0000
0100
0000
0000
0000
0000
0000
1000
0000
0000
0000
0000
0000
0000
0000
0000
0000
0000
0000
0000
0000
0000
0000
0000
0000
0000
0000
0011
0000
0000
0000
0000
0000
0000
0000
0000
0000
0000
0000
0000
0000
0000
0000
0000
0000
0000
0000
0000
0000
0000
0000
0110
0000
0000
0000
0000
0000
0000
0000
0000
0000
0000
0000
0000
0000
0000
0000
0000
0000
0000
0000
0000
0000
,
1100
0000
0000
0100
0010
0000
1001
0000
1001
0000
1000
0000
0010
0000
0100
0000
,
0001
0000
0000
1000
0001
0000
0100
0000
1000
0000
0000
0000
0100
0000
0010
0000
,
0001
0000
0000
1000
0001
0000
0010
0000
1000
0000
0000
0000
0001
0000
0100
0000
,
1000
0000
0000
0000
0001
0000
0010
0000
2001
0000
3100
0000
0010
0000
0100
1000
,
0010
0000
1000
0010
1000
0000
0001
0000
1001
0000
0001
0010
0001
0000
0100
0000
,
0202
0000
0303
0001
1000
0000
0100
0000
0001
0000
0100
0010
1000
0000
0001
0000
,
1000
0000
0000
0010
0001
0000
1001
0000
1001
0000
0000
0000
0001
0000
0100
0000
,
0001
0000
0000
1000
0100
1000
0000
0000
0101
0000
0000
0000
0110
0000
0000
0000
,
1010
0000
0001
0100
0000
0001
0000
1000
0010
0000
1001
0000
0010
0100
0000
0000
,
0000
0000
1000
0100
0000
1000
0000
0001
0010
0000
1001
0000
0000
0000
0110
0000
,
0000
0000
1000
0010
0000
1000
0000
0001
0100
0000
1001
0000
0100
0010
0000
0000
,
0000
0000
0001
0100
0000
0001
0000
1000
1010
0000
0001
0000
0101
0000
1000
0000
,
2001
0000
300M
0000
0011
1000
1100
0001
,
1002
0100
0203
0000
0301
1000
1010
0001
,
1002
0100
0203
0300
0001
1000
1100
0001
,
1000
0010
0100
0010
1000
0000
0010
0000
0120
0000
0000
0000
MM3M
0000
0200
0000
,
0000
0301
1000
0010
1000
0020
M030
0100
,
0000
0000
0000
0000
0000
0100
0001
0000
0000
0000
0000
0000
0010
0000
0000
0000
0000
0000
0100
0000
0000
0000
0000
0000
0020
0000
0000
0000
0000
0000
0000
0000
0000
0000
0000
0000
0M31
0000
0000
0000
0000
0000
0002
0000
0000
0000
0000
0000
,
0000
0013
0100
0010
0001
2000
300M
0002
,
0000
0103
0010
0100
0001
0000
1001
2002
,
0003
3001
1000
0100
0020
0030
01M0
2000
,
0000
3010
0100
0010
2000
3000
M010
2000
,
0000
3100
0010
0100
2000
3000
M001
0200
,
0000
0000
0310
0000
2000
0000
0200
0000
0022
0000
0000
0033
33MM
0000
0000
0000
,
1000
0000
0100
0010
0001
0000
0100
0010
1000
0000
0100
0010
0001
0000
0000
0000
,
1000
0000
0010
0100
0001
0000
0010
0100
1000
0000
0010
0100
0001
0000
0000
0000
,
1000
0000
0010
0100
0010
0000
1000
0000
0001
0000
0100
0010
0100
0000
0010
1000
,
0100
0000
0010
0001
0100
0000
0010
1000
0100
0000
0010
0001
0100
0000
0001
0100
,
1000
0000
0000
0000
0000
0000
0000
0000
0100
0000
0000
0000
0000
0000
0000
0000
0001
0000
0000
0000
0010
0000
0000
0000
1000
0000
0000
0000
0010
0000
0000
0000
0001
0000
0000
0000
0000
0000
0000
0000
1000
0000
0000
0000
0000
0000
0000
0000
0000
0000
0000
0000
0000
0000
1100
0000
0000
0000
0000
0000
0000
0010
0000
0000
,
0001
0000
0000
0000
0000
0000
0000
0000
0001
0000
0000
0000
0000
0000
0000
0000
0000
0000
0000
0000
0000
0000
0101
0000
0000
0000
0000
0000
0000
0010
0000
0000
1000
0000
0000
0000
0000
0000
0000
0000
1000
0000
0000
0000
0000
0000
0000
0000
0000
0000
0000
0000
0001
0000
0000
0000
1000
0000
0000
0000
0010
0000
0000
0000
,
0100
0001
0010
1000
0010
0001
0100
0010
1001
0000
0110
0000
1001
0000
1000
0001
,
0010
0100
1000
0010
0001
0010
1000
0200
0001
0000
0000
0000
0010
0000
0000
0000
,
1300
0000
0000
1000
0001
0000
0110
0000
0110
0000
0001
0000
0010
0000
0100
0000
,
1000
0000
0000
0001
1000
0000
0100
0000
0001
0000
0000
0000
0100
0000
0010
0000
,
1000
0000
0000
0001
1000
0000
0010
0000
0001
0000
0000
0000
1000
0000
0100
0000
,
0001
0000
0000
0000
1000
0000
0010
0000
1002
0000
0103
0000
0010
0000
0100
0001
,
0010
0000
0001
0010
0001
0000
1000
0000
1001
0000
1000
0010
1000
0000
0100
0000
,
2200
0000
3300
1000
0001
0000
0100
0000
1000
0000
0100
0010
0001
0000
1000
0000
,
0001
0000
0000
0010
1000
0000
1001
0000
1001
0000
0000
0000
1000
0000
0100
0000
,
1000
0000
0000
0001
0100
0001
0000
0000
1100
0000
0000
0000
0110
0000
0000
0000
,
0011
0000
0000
0000
1000
0000
0100
0000
0000
0000
1000
0000
0000
0000
0001
0000
0010
0000
0000
0000
1001
0000
1000
0000
0010
0000
0000
0000
1000
0000
0000
0100
,
0000
0000
0000
0000
0001
0000
0100
0000
2000
0000
0001
3000
0000
0000
1000
0000
0010
0000
0000
0000
1001
0000
0000
0000
0000
0000
0000
0000
0110
0000
0000
0000
,
0000
0000
0001
0010
0000
0001
0000
1000
0100
0000
1001
0000
0100
0010
0000
0000
,
0002
0000
1000
1000
0000
0103
0000
0001
0011
0000
1000
0000
1100
0000
0001
0000
,
1002
0000
M003
0000
1010
0001
0101
1000
,
2001
0000
0001
0000
0200
3000
0000
2300
0001
0000
3001
0000
0011
0000
1000
0000
,
2001
0000
0100
0000
3200
0000
0300
0000
1000
0000
0001
0000
0100
0002
1000
0003
,
0001
0010
0100
0010
0001
0000
0010
0000
2002
0000
0000
0000
0010
0000
0000
0000
,
0000
3003
0000
0000
,
0000
0000
0000
0000
;
