#TITLE:Dynamite;
#SUBTITLE:;
#ARTIST:방탄소년단;
#TITLETRANSLIT:;
#SUBTITLETRANSLIT:;
#ARTISTTRANSLIT:BTS;
#GENRE:Funk/K-Pop;
#CREDIT:Wrland, Vndt;
#MUSIC:Dynamite.ogg;
#BANNER:Dynamite.png;
#BACKGROUND:Dynamite-bg.png;
#JACKET:Dynamite-jacket.png;
#CDTITLE:Wrland.png;
#SAMPLESTART:41.080;
#SAMPLELENGTH:18.027;
#SELECTABLE:YES;
#OFFSET:-0.291;
#BPMS:0.000=114.000;
#STOPS:;
#DISPLAYBPM:114.000;
#BGCHANGES:0=Dynamite.avi=1.000=1=0=0=StretchNoLoop==CrossFade==,
99999.000=-nosongbg-=1.000=0=0=0=StretchNoLoop====
;
#FGCHANGES:;
#STOPS:77.5=1.05262,134.25=0.263167,134.75=0.263167,135.25=0.263167,135.625=0.263167,260.063=0.263167,260.563=0.263167,261.063=0.263167,261.521=0.263146;

//---------------dance-single - ----------------
#NOTES:
     dance-single:
     :
     Edit:
     14:
     0.000,0.000,0.000,0.000,0.000:
0000
0000
0000
0000
,
0000
0000
0000
0000
,
0000
0000
0000
0000
,
0000
0000
0000
0000
,
1002
0000
1000
0000
0103
0000
0000
0100
0010
1000
0100
0010
0001
0000
1000
0001
,
1000
0000
0001
0000
0100
0000
0001
0000
1000
0000
0100
1000
0001
0100
0010
1000
,
0010
0000
0011
0000
0120
0000
0030
0000
0100
0000
0010
0002
0000
0000
1003
0001
,
0100
0000
0000
0000
0010
0000
1000
0000
0100
0000
0000
0010
0000
0000
0000
0000
0100
0000
0000
0000
1000
0000
0010
0000
1000
0000
0000
0000
1000
0000
0001
0000
,
2000
0000
3001
0000
0100
0000
0001
1000
0010
0000
0100
0010
0000
0000
0110
0000
,
0110
0000
0100
0001
0010
0100
0010
0002
0000
0000
1003
0100
0010
0100
1000
0001
,
0100
0000
0000
0000
1001
0000
0000
0000
1001
0000
0000
0000
0001
0000
1000
0000
0010
0000
0100
0000
0000
0000
0000
0200
0000
0000
0000
0000
0301
0000
0000
0000
,
0100
0000
0100
0001
1000
0001
0100
0000
0010
0000
1000
0001
1001
0000
0000
0000
,
1000
0100
0000
0000
M100
0001
0000
0000
0001
0010
0000
0000
001M
1000
0001
1000
,
0100
0000
0000
0110
0000
0000
0001
0000
1000
0100
1000
M000
0010
0000
0010
0000
,
0001
0100
0000
0000
010M
1000
0000
0000
1000
0010
0000
0000
M010
0001
1000
0000
,
0001
0000
0100
0010
0000
0000
1000
0000
1001
0001
0100
0000
0100
0000
0010
0000
,
0200
0000
0000
0300
0020
0000
0000
0030
0100
0000
0010
2000
0000
0000
3100
0000
,
0010
0000
0100
0010
0001
0000
0001
0000
1000
0000
0010
0100
0010
0000
0010
0000
,
0200
0000
0310
1000
0001
0000
0100
0000
0010
1000
0000
0200
1000
0000
2300
3020
,
2030
0000
0000
3000
MMMM
0000
0000
0000
2000
0100
0000
3000
0200
0010
0000
0300
,
0020
0001
0000
0030
0100
0000
0010
1000
0000
0010
1000
0001
0000
0000
0001
1000
,
2002
0000
3003
0001
0100
0002
0000
0003
0002
0100
0000
0003
0200
0010
0000
0300
,
0020
1000
0000
0030
0100
0000
0010
0001
0000
0001
0020
0200
0000
0000
0000
0000
,
0000
0030
03M0
0000
1000
0000
0001
1000
0000
0100
0000
1000
0000
0001
0000
0020
,
0000
0130
0000
1000
0000
0001
0000
0020
0030
0010
0000
001M
0000
1000
0000
0020
,
0000
2030
3010
0100
0010
2000
0000
3000
2002
0000
3003
0000
MMMM
0000
0000
0000
,
2000
0000
0000
3000
0002
1003
0000
2002
0000
0003
300M
0000
0010
0000
0100
0001
,
0010
0000
0001
0010
0001
1000
0100
0010
0001
0000
0010
0001
0010
0000
001M
1000
,
0000
1000
0010
0000
0100
0000
0001
0010
0100
0000
0000
0000
0110
0000
0100
0010
,
0000
0100
0020
0130
0110
0000
0000
0000
1000
0000
0010
1000
0010
0000
M010
0001
,
0000
0001
0010
0000
0100
0000
1000
0010
0100
0000
0000
0000
0110
0000
0100
0010
,
0000
0100
0020
0130
0110
0000
0000
0001
0000
0100
0000
0001
0000
1000
0000
0020
,
0000
0130
0000
0001
0000
1000
0000
0020
0030
0010
0000
M010
0000
0001
0000
0020
,
0000
0032
0013
0100
0010
0002
0000
0003
1100
0000
0011
0000
0101
0000
1010
0110
,
0000
0100
0010
0000
0100
0000
0020
0000
2030
0000
3001
0100
0010
1000
0001
0100
,
0010
0000
0100
0001
0100
0000
0100
0001
0000
0100
0001
0000
0100
0020
0030
0000
,
0M10
0000
0001
1000
0100
0000
0100
1000
0000
0100
1000
0000
0020
0230
0300
0000
,
01M0
0000
1000
0001
0010
0000
0010
0001
0000
0010
0001
0000
0200
0320
0030
0000
,
1010
0000
1000
0010
0000
0000
0011
0000
0010
0001
1000
0000
2002
0000
3003
0000
,
0001
0000
0100
1000
0100
0000
0100
0010
0000
0100
0010
0000
0200
0302
0003
0000
,
1000
0000
0100
0001
0100
0000
0100
0010
0000
0100
0010
0000
0200
2300
3000
0000
,
0001
0000
0010
1000
0010
0000
0010
0100
0000
0010
0100
0000
0020
0032
0003
0000
,
0011
0000
0010
0001
0000
0000
1010
0000
0010
1000
0001
0000
0001
0010
0100
1000
,
0020
0000
0000
0000
0000
0000
0030
0000
0200
0000
0000
0000
0000
0000
0300
0000
0020
0000
0000
0000
0000
0000
0030
0000
0000
1000
0000
0000
0100
0000
0010
0000
,
0000
0000
0000
0000
0100
0000
0020
0000
0000
0000
0000
0000
0032
0000
0000
0000
0000
0000
0000
0000
0003
0000
0010
0000
0001
0000
0000
0010
0000
0000
0000
0000
,
0020
0000
0000
0030
0200
0000
0000
0300
0020
0000
0000
0030
0001
0000
0100
0010
,
0000
0100
0020
0000
0000
0030
2000
0000
0000
0000
0000
0000
0000
0000
3000
1000
,
0000
0010
0000
1000
0000
0001
0000
0200
0000
0310
0000
1000
0000
0001
0000
0200
,
0300
0100
0000
010M
0000
1000
0000
0200
0000
2300
3100
0010
0100
2000
0000
3000
,
0002
0000
0003
0000
2000
0000
3000
0000
0002
0000
0003
0000
2000
3000
0000
0100
,
0000
1000
0100
0000
0010
0000
0100
0000
0010
0000
0010
0000
0001
0000
0000
0000
,
0021
0000
0000
0000
1000
0000
0000
0000
0031
0000
MMMM
0000
2001
3000
0001
0010
,
0000
0001
0010
0000
0100
0000
2000
3200
0320
0000
0130
1000
0001
2000
0000
0000
,
3002
0000
M000
0000
2003
0000
000M
0000
3002
0000
M000
0000
0013
0000
0010
0100
,
0000
0100
2000
3020
0230
0000
0301
0000
1000
0000
0020
0230
0320
1030
0100
0020
,
0000
0002
0030
0200
0003
0020
0300
2000
0030
0200
3000
0020
0300
0002
0030
2000
,
0003
0002
3000
2000
0003
3010
0000
M020
0000
0032
1003
0000
0100
0020
0000
0030
,
0011
0000
0000
0000
1000
0000
0000
0000
1001
0000
0000
0000
MMMM
0000
0000
0000
1002
0000
0000
0000
M003
0000
0000
0000
2001
0000
0000
000M
3000
0000
1001
0000
,
0000
0001
1000
000M
0000
0000
0010
0100
0010
1000
0010
0100
0010
0001
1000
0001
,
1000
0000
0100
1000
0100
0000
M100
0001
0000
0001
0100
0000
0010
0000
1000
0100
,
0010
0000
0010
0100
1000
0000
0010
0100
0000
0010
0200
0310
0110
0000
0002
0000
,
1003
0000
0010
0001
0010
0000
0010
0100
0000
0010
0100
0000
0020
0030
1000
0010
,
1000
0000
0010
0000
1000
0000
0001
0010
0000
0001
0010
0100
0020
0230
1300
0020
,
0000
0200
0030
2000
0300
0020
3000
0002
0030
0200
0003
2000
0300
0020
3000
0002
,
0030
0200
0003
2000
0300
3010
0000
0020
0000
0032
0013
0000
0100
0020
0000
0030
,
1001
0000
0000
MMMM
0000
0000
0000
0000
0000
0000
0000
0000
1010
0000
0000
MMMM
0000
0000
0000
0000
0000
0000
0000
0000
0011
0000
0000
MMMM
0000
0000
0000
0000
0000
0000
0000
0000
1010
MMMM
0000
0000
0000
0000
1001
0000
0000
0000
0000
0000
0000
0000
0000
0000
0000
0000
0001
0000
0000
0000
0000
0000
1000
0000
0000
0000
0000
0000
000M
0000
0000
0000
0000
0000
0010
0000
0000
0000
0000
0000
0000
0000
0000
0000
0000
0000
2000
0000
0000
0000
0000
0000
0000
0000
0000
0000
0000
0000
,
3100
0010
0100
1000
0001
0000
0000
0000
0000
0000
0000
0000
0000
0000
0000
0000
,
0000
0000
0000
0000
,
0000
0000
0000
0000
,
0000
0000
0000
0000
;
