#TITLE:Drugs;
#SUBTITLE:I Just Came Here to the Party for the;
#ARTIST:Upsahl;
#CREDIT:;
#MUSIC:Drugs_audio.ogg;
#SELECTABLE:YES;
#BACKGROUND:drugs_bg.png;
#BANNER:drugs_bg.png;
#CDTITLE:;
#OFFSET:-0.1;
#SAMPLESTART:0.000;
#SAMPLELENGTH:0.000;
#BPMS:0=154.052,2=161.263,3=154.052,4=154.043,5=151.79,6=161.263,7=151.79,8=161.253,9=154.052,10=151.79,11=154.052,12=147.451,13=151.79,14=158.785,15=154.052,16=166.447,17=156.383,18=137.64,19=156.383,20=151.781,21=151.79,22=161.263,23=154.052,24=158.776,25=156.383,26=151.79,28=149.584,29=151.79,30=156.383,31=151.79,32=145.377,33=161.263,34=158.785,35=151.79,36=151.781,37=154.052,38=161.263,39=154.052,40=158.776,41=156.383,42=147.459,43=156.383,44=149.584,45=151.79,46=156.383,47=154.052,48=166.447,49=151.79,50=145.385,51=154.052,52=145.377,53=158.785,54=163.819,55=149.593,56=161.253,57=154.052,58=149.593,59=154.052,60=149.584,61=163.819,62=147.459,63=149.593,64=147.451,65=158.785,67=154.052,68=154.043,69=156.383,70=154.052,72=158.776,73=154.052,76=147.451,77=151.79,78=156.383,79=154.052,80=163.809,81=149.593,83=154.052,84=154.043,85=149.593,86=158.785,87=154.052,88=151.781,89=161.263,90=154.052,92=147.451,93=154.052,94=156.383,95=151.79,96=147.451,97=156.383,99=154.052,100=156.374,101=154.052,102=156.383,103=154.052,104=143.36,105=58.0365,106=147.459,108=149.584,109=139.498,110=154.052,112=154.043,113=154.052,116=154.043,117=154.052,120=154.043,121=154.052,124=154.043,125=154.052,128=154.043,129=154.052,132=154.043,133=154.052,136=154.043,137=154.052,140=154.043,141=154.052,144=154.043,145=154.052,148=154.043,149=154.052,152=154.043,153=154.052,156=154.043,157=154.052,160=154.043,161=154.052,164=154.043,165=154.052,168=154.043,169=154.052,172=154.043,173=154.052,176=154.043,177=154.052,180=154.043,181=154.052,184=154.043,185=154.052,188=154.043,189=154.052,192=154.043,193=154.052,196=154.043,197=154.052,200=154.043,201=154.052,204=154.043,205=154.052,208=154.043,209=154.052,212=154.043,213=154.052,216=154.043,217=154.052,220=154.043,221=154.052,224=154.043,225=154.052,228=154.043,229=154.052,230=151.79,231=154.052,232=154.043,233=151.79,234=154.052,236=154.043,237=154.052,259=51.1443,260=154.052,312=50.1516,313=149.593,314=169.182,315=154.052,328=151.79,329=158.785,330=147.459,332=161.263,333=141.407,334=171.997,335=154.052,376=161.263,377=139.498,378=161.263,379=154.052,380=161.263,381=141.407,382=161.263,383=154.052;
#STOPS:170=1.55794;
#BGCHANGES:-0.5=drugs_video.mov=1.000=1=0=0=StretchNoLoop==CrossFade==,
395.50=drugs_bg.png=1.000=1=0=1===CrossFade==,
99999=-nosongbg-=1.000=0=0=0 // don't automatically add -songbackground-

//---------------dance-single - ----------------
#NOTES:
     dance-single:
     :
     Beginner:
     4:
     0.000,0.000,0.000,0.000,0.000:
0000
0000
0000
0000
,
0000
0000
0000
0000
,
0000
0000
0000
0000
,
0000
0000
0000
0000
,
0000
0000
0000
0000
1000
0000
0000
2000
,
0000
3000
0010
0000
,
0020
0030
1000
0000
,
2000
3000
0100
0000
,
0200
0300
1000
0000
,
2000
3000
0010
1000
,
0020
0030
0000
0000
,
0000
0000
0000
1001
,
0000
0000
0001
0000
,
0002
0003
0010
0000
,
0020
0030
0001
0000
,
0002
0003
0100
0000
,
0200
0300
0001
0000
,
0002
0003
0100
0001
,
0200
0300
0000
0000
,
0000
0000
0000
0110
,
0000
2000
0000
0001
,
0000
3000
0200
0000
0000
0000
0010
0000
,
0000
0300
0020
0000
0000
0000
1000
0000
,
0000
0030
0200
0300
1000
0000
1000
0000
,
1000
0002
0000
1000
,
0000
0003
0020
0000
0100
0000
0100
0000
,
0100
0000
0000
0000
0230
0000
0000
0300
0000
0000
0000
0000
0000
0000
0000
0000
,
0000
0000
0000
0001
,
0000
0011
0000
0001
,
0000
0101
0000
0001
,
0000
0011
0001
0010
,
0001
0100
0010
1000
,
0000
1010
0000
1000
,
0000
1100
0000
1000
,
0000
1010
1000
0010
,
0100
0001
1000
0000
,
0010
0010
0010
0200
,
0000
0000
0300
0000
0020
0000
0000
0000
0000
0000
0000
0030
2000
0000
0000
0000
,
0000
3000
0020
0000
0000
0030
0200
0000
,
0000
0000
0300
0000
0002
0000
0000
0000
0000
0000
0000
0000
0000
0000
0000
0003
,
0000
1001
0000
1000
,
0000
1001
0000
0001
,
0000
1001
0000
0000
,
0001
0000
0002
0003
,
0010
0000
0020
0030
,
0001
0000
0002
0003
,
0100
0000
0200
0300
,
0001
0000
0002
0003
,
0010
0001
0010
0002
,
0000
0003
0000
0000
,
0000
1001
0000
0000
,
1000
0000
0000
2000
0000
0000
3000
0000
,
0010
0000
0020
0030
,
1000
0000
2000
0000
,
3100
0000
0200
0300
,
1000
1000
1000
0000
,
0100
0100
0100
0000
,
0000
0000
0000
0000
,
0000
0110
0000
0002
,
0000
0000
1000
0000
0000
0003
0200
0000
,
0000
0000
0010
0000
0000
0300
0020
0000
,
0000
0000
0001
0000
0000
0030
0200
0300
,
0001
0001
0001
2000
,
0000
0000
0001
0000
0000
3000
0020
0000
,
0100
0000
0000
0000
0100
0000
0000
0000
0100
0000
0000
0000
0230
0000
0000
0300
,
0000
0000
0000
0000
,
0000
1000
0000
0101
,
0000
0010
0000
0101
,
0000
1000
0000
0101
,
0001
0001
0001
0001
,
0001
0001
0000
1010
,
0000
0100
0000
1010
,
0000
0001
0000
1010
,
0000
1000
1000
1000
,
1000
0000
0001
0100
,
0001
1000
0010
1000
,
0010
0100
0001
0100
,
0001
1000
0010
1000
,
0020
0000
0000
0030
1001
0000
0000
0000
0000
0000
0000
0000
0010
0000
0000
0000
,
0000
0110
0000
1000
,
0000
1001
0000
0000
,
0000
0000
0000
2000
,
0001
0000
0000
0000
0001
3000
0200
0000
,
0010
0000
0000
0000
0001
0300
0020
0000
,
0000
0000
0100
0000
0000
0030
2000
3000
,
0000
0000
0000
0002
,
1000
0000
0000
0000
1000
0003
0200
0000
,
0010
0000
0000
0000
1000
0300
0010
0000
,
0000
0000
0100
0000
0000
0000
0002
0003
,
0000
1000
0000
0000
,
0100
1000
0100
1000
,
0100
1000
0100
0010
,
0100
0010
0100
0010
,
0001
0010
0002
0000
,
0003
1001
0000
0010
,
0000
1001
0000
0100
,
0000
0000
0000
0000
0000
0000
0000
0000
0000
0000
0000
0000
0000
0000
0000
0000
0000
1000
0000
0000
0000
0000
0000
0000
0000
1000
0000
0000
0000
0000
0000
0000
,
0000
1000
0000
0000
0000
0000
0000
0000
M000
0000
0000
0000
0000
0000
0000
0000
0000
0000
0000
0000
0000
0000
0000
0000
0000
0000
0000
0000
0000
0000
0000
0000
;

//---------------dance-single - ----------------
#NOTES:
     dance-single:
     :
     Easy:
     7:
     0.000,0.000,0.000,0.000,0.000:
0000
0000
0000
0000
,
0000
0000
0000
0000
,
0000
0000
0000
0000
,
0000
0000
0000
0000
,
0000
0000
0000
0000
0000
0000
0000
0000
1000
0000
0000
0000
0010
0000
0000
2000
,
0000
3000
0010
1000
,
0020
0000
0000
0000
0030
0000
0000
0000
1000
0000
0000
0000
0100
0000
0000
2000
,
0000
3000
0100
1000
,
0200
0000
0000
0000
0300
0000
0000
0000
1000
0000
0000
0000
0001
0000
0000
2000
,
0000
3000
0010
1000
,
0020
0030
0000
0000
,
0000
0000
0000
1001
,
0000
0000
0000
0000
0000
0000
0000
0000
0001
0000
0000
0000
0010
0000
0000
0002
,
0000
0003
0010
0001
,
0020
0000
0000
0000
0030
0000
0000
0000
0001
0000
0000
0000
0100
0000
0000
0002
,
0000
0003
0100
0001
,
0200
0000
0000
0000
0300
0000
0000
0000
0001
0000
0000
0000
1000
0000
0000
0002
,
0000
0000
0000
0003
0000
0000
0000
0000
0100
0000
0000
0000
0001
0000
0000
0000
,
0200
0300
0000
0000
,
0000
0000
0000
0110
,
0000
2000
0000
0001
,
0001
3000
0200
0000
0010
0000
0010
0000
,
0010
0300
0020
0000
0000
0000
1000
0000
,
1000
0030
0200
0300
1000
0000
1000
0000
,
1000
0002
0000
1000
,
1000
0003
0020
0000
0100
0000
0100
0000
,
0100
0000
0000
0000
0230
0000
0000
0300
0000
1000
0000
0000
0000
0010
0000
0000
,
0000
0100
0000
0000
0000
0001
0000
0000
0000
0010
0000
0000
0000
0001
0000
0000
,
0000
0011
0000
1000
,
0000
0101
0000
0010
,
0000
0011
0001
0010
,
0001
0100
0010
1000
,
0000
1010
0000
0001
,
0000
1100
0000
0010
,
0000
1010
1000
0010
,
0100
0001
1000
0000
,
0010
0010
0010
0100
,
0001
0010
0100
1000
,
0100
0010
0001
0100
,
0010
0001
0020
0000
,
0030
0110
0000
1000
,
0000
1001
0000
0001
,
0000
1001
0000
MMMM
,
0001
0010
0200
0300
,
0010
0100
2000
3000
,
0001
0000
0000
0000
0100
0000
0000
0020
0000
0000
0000
0000
0030
0000
0000
0000
,
0100
0010
2000
3000
,
1000
0000
0000
0000
0010
0000
0000
0200
0000
0000
0000
0000
0300
0000
0000
0000
,
0010
0100
0010
2002
,
0000
3003
0400
0000
,
0300
1001
0000
0000
,
1000
0000
0010
0200
0000
0000
0300
0000
,
0010
0100
0002
0003
,
1000
0000
0000
0000
0100
0000
0000
0020
0000
0000
0000
0000
0000
0000
0000
0000
,
0130
0010
0002
0003
,
1000
0000
0010
0000
0100
0100
0000
0000
,
0001
0000
0010
0000
0100
0100
0000
0000
,
0000
0000
4000
0000
,
3000
0110
0000
0002
,
0000
0000
1000
0000
1000
0003
0200
0000
,
0010
0000
0010
0000
0010
0300
0020
0000
,
0000
0000
0001
0000
0001
0030
0200
0300
,
0001
0001
0001
2000
,
0000
0000
0001
0000
0001
3000
0020
0000
,
0100
0000
0000
0000
0100
0000
0000
0000
0100
0000
0000
0000
0230
0000
0000
0300
,
0000
1000
0000
0000
0000
0010
0000
0000
0000
0100
0000
0000
0000
0001
0000
0000
,
0000
0010
0000
0000
0000
0001
0000
0000
0000
0000
0000
0000
0101
0000
0000
0000
,
0000
0010
0010
0000
0000
0000
0101
0000
,
0000
1000
0000
0101
,
0001
0001
0001
0000
0010
0000
0001
0000
,
0010
0001
0000
1010
,
0000
0100
0100
0000
0000
0000
1010
0000
,
0000
0001
0000
1010
,
1000
1000
1000
0000
0100
0000
1000
0000
,
0200
0300
0100
0010
,
0001
1000
0010
1000
,
0010
0100
0001
0100
,
0001
1000
0010
1000
,
0020
0000
0000
0030
1001
0000
0000
0000
0000
0000
0000
0000
0010
0000
0000
0000
,
0000
0000
0110
0000
0000
1000
1000
0000
,
0000
0000
0000
0000
0000
0000
0000
0000
1001
0000
0000
0000
0000
0000
0000
0000
0000
1000
0000
0000
0000
0000
0000
0000
0000
0100
0000
0000
0000
0000
0000
0000
,
0000
0010
0000
0000
0000
0000
0000
0000
0000
0001
0000
0000
0000
0000
0000
0000
0000
0000
0000
0000
0000
0000
0000
0000
2000
0000
0000
0000
0000
0000
0000
0000
,
0001
0000
0010
0000
0001
3000
0200
0000
,
1000
0000
0010
0000
0001
0300
0020
0000
,
0001
0000
0100
0000
1000
0030
2000
3000
,
0000
0000
0000
M002
,
1000
0000
0010
0000
1000
0003
0200
0000
,
0001
0000
0010
0000
1000
0300
0010
0000
,
1000
0000
0100
0000
0000
0000
0002
0003
,
0000
0000
0100
0000
0000
1000
0000
0000
,
0100
1000
0010
1000
,
0100
1000
0010
0001
,
0010
1000
0100
0001
,
0100
1000
0002
0000
,
0003
1001
0000
0010
,
0000
1001
0000
0100
,
0000
0000
0000
0000
0000
0000
0000
0000
0000
0000
0000
0000
0000
0000
0000
0000
0000
1000
0000
0000
0000
0000
0000
0000
0000
1000
0000
0000
0000
0000
0000
0000
,
0000
1000
0000
0000
0000
0000
0000
0000
M000
0000
0000
0000
0000
0000
0000
0000
0000
0000
0000
0000
0000
0000
0000
0000
0000
0000
0000
0000
0000
0000
0000
0000
;

//---------------dance-single - ----------------
#NOTES:
     dance-single:
     :
     Medium:
     9:
     0.000,0.000,0.000,0.000,0.000:
0000
0000
0000
0000
,
0000
0000
0000
0000
,
0000
0000
0000
0000
,
0000
0000
0000
0002
,
0003
0000
0000
0000
0000
0000
1000
0000
0000
0010
0000
2000
,
0000
3000
0010
1000
,
0020
0000
0000
0030
0000
0000
1000
0000
0000
0100
0000
2000
,
0000
3000
0100
1000
,
0200
0000
0000
0300
0000
0000
1000
0000
0000
0001
0000
2000
,
0000
3000
0010
1000
,
0020
0030
1010
0000
,
0101
0000
0000
1001
,
0000
0000
0000
0000
0000
0000
0001
0000
0000
0010
0000
0002
,
0000
0003
0010
0001
,
0020
0000
0000
0030
0000
0000
0001
0000
0000
0100
0000
0002
,
0000
0003
0100
0001
,
0200
0000
0000
0300
0000
0000
0001
0000
0000
1000
0000
0002
,
0000
0003
0100
0001
,
0200
0300
0101
0000
,
1010
0000
0000
0110
,
0000
0000
2000
0000
0000
3001
0010
0001
,
0010
0200
0010
0010
,
0010
0000
0000
0300
0000
0000
0020
0000
0000
0000
0000
0000
0000
0000
0000
0030
0001
0000
0100
0000
0000
0000
0001
0000
,
0100
0000
0200
0300
1000
0000
0100
0000
,
0001
0000
0002
0000
0000
1000
1000
0000
,
0100
0103
0020
0000
0100
0000
0100
0000
,
0100
0000
0000
0000
0230
0000
0000
0300
0000
0010
0000
1000
0000
0010
0000
1000
,
0000
0001
0000
0100
0000
0001
0000
0100
0000
0010
0000
0100
0000
0110
0000
0000
,
0000
0011
0001
0010
,
0100
0110
0100
1000
,
0010
0000
0000
0110
0000
0000
0100
0000
0001
0100
0000
0001
,
0100
0000
0010
1000
0000
0010
1000
0000
0010
1000
0000
0000
,
0010
1010
1000
0010
,
0100
0110
0100
0001
,
0010
0000
0000
0110
0000
0000
0100
0000
1000
0100
0000
0000
,
1000
1001
2002
3003
,
0001
0010
0100
0010
,
0001
0010
0100
0010
,
1000
0010
0100
0010
,
0001
0010
0020
0000
,
0030
0110
1000
0100
,
0010
1001
0001
0100
,
0010
1001
0000
MMMM
,
0001
0010
0200
0300
,
0010
0100
2000
3000
,
0001
0000
0000
0100
0000
0020
0000
0000
0000
0030
0000
0000
,
0100
0010
2000
3000
,
1000
0000
0000
0010
0000
0200
0000
0000
0000
0300
0000
0000
,
0010
0100
0010
2002
,
0000
3003
0400
0000
,
0300
1001
0000
0000
,
1000
0000
0010
0200
0000
0000
0300
0000
,
0010
0100
0002
0003
,
1000
0000
0000
0100
0000
0020
0000
0000
0000
0000
0000
0000
,
0130
0010
0002
0003
,
1000
0000
0010
0100
0000
0010
0100
0000
0002
0000
0000
0003
,
0001
0000
0100
0010
0000
0100
0010
0000
2000
0000
0000
0000
,
3000
0000
4000
0000
,
3000
0110
0000
0002
,
0000
0000
0000
0000
1000
0000
1000
0000
0000
0000
0010
0000
0010
0000
0000
0003
0000
0000
0200
0000
0000
0000
0000
0000
,
0010
0000
0010
0000
0010
0300
0020
0000
,
0000
0000
0000
0000
0001
0000
0001
0000
0000
0000
0000
0000
0001
0000
0001
0030
0000
0000
0200
0000
0000
0300
0000
0000
,
0001
0001
0001
2000
,
0000
0100
0100
0000
0001
3001
0020
0000
,
0100
0000
0000
0000
0100
0000
0000
0000
0100
0000
0000
0000
0230
0000
0000
0300
,
0000
1000
0000
0000
0000
0010
0000
0000
0000
1000
0000
0000
0000
0010
0000
0000
0000
1000
0000
0000
0000
0001
0000
0000
0000
0010
0000
0000
0000
0001
0000
0000
,
0000
0010
0000
0000
0000
0001
0000
0000
0000
0011
0000
0000
0000
0000
0000
0000
0000
0000
0000
0000
0000
0000
0000
0000
0101
0000
0000
0000
0000
0000
0000
0000
,
0000
0010
1000
0000
0000
0000
0101
0000
,
0000
1000
0010
0101
,
0001
0000
0010
0100
0000
0010
0001
0000
0010
0100
0000
0010
,
0001
0000
0010
0100
0000
0000
0000
0000
0000
1010
0000
0000
,
0000
0001
0100
0000
0000
0000
1010
0000
,
0000
0001
0100
1010
,
1000
0000
0100
1000
0000
0000
0100
0000
0000
0110
0000
0000
,
0220
0330
0010
0100
,
1000
2000
3010
2000
,
3100
0200
0310
0200
,
0301
0200
1300
0020
,
0200
0000
0000
0330
1001
0000
0000
0000
0100
0000
0000
0000
0010
0000
0000
0000
,
0100
0000
0110
0000
0000
1000
1000
0000
,
0010
0000
0000
0000
0000
0000
0000
0000
1001
0000
0000
0000
0000
0000
0000
0000
0000
1000
0000
0000
0000
0100
0000
0000
0000
1000
0000
0000
0000
0010
0000
0000
,
0000
1000
0000
0000
0000
0100
0000
0000
0000
0010
0000
0000
0000
0000
0000
0000
0000
0000
0000
0000
0000
0000
0000
0000
2000
0000
0000
0000
0000
0000
0000
0000
,
0001
0000
0010
0000
0001
3000
0200
0000
,
1000
0000
0010
0000
0001
0300
0020
0000
,
0001
0000
0100
0000
1000
0030
2000
3000
,
0010
0100
1000
0002
,
1000
0000
0010
0000
1000
0003
0200
0000
,
0001
0000
0010
0000
1000
0300
0010
0000
,
1000
0000
0100
0000
0000
0000
0002
0003
,
0000
0000
0000
0000
0100
0000
0000
1000
0000
0000
0100
0000
0000
0000
0000
0000
,
0100
1000
0010
1000
,
0100
1000
0010
0001
,
0010
1000
0100
0001
,
0100
1000
0002
0000
,
0003
1001
0000
0010
,
0000
1001
0000
0100
,
0000
0000
0000
0000
0000
0000
0000
0000
0000
0000
0000
0000
0000
1000
0000
0000
0000
0100
0000
0000
0000
0010
0000
0000
0000
0100
0000
0000
0000
0010
0000
0000
,
0000
0001
0000
0000
0000
0100
0000
0000
M000
0000
0000
0000
0000
0000
0000
0000
0000
0000
0000
0000
0000
0000
0000
0000
0000
0000
0000
0000
0000
0000
0000
0000
;

//---------------dance-single - ----------------
#NOTES:
     dance-single:
     :
     Hard:
     11:
     0.000,0.000,0.000,0.000,0.000:
0000
0000
0000
0000
,
0000
0000
0000
0000
,
0000
0000
0000
0000
,
0000
0000
0000
0002
,
0003
0000
0000
0000
0000
0000
1000
0000
0100
0010
0000
2000
,
0000
3020
0000
0031
0000
0000
0010
0000
0000
0001
0200
0000
,
0320
0000
0031
0000
0000
0000
0001
0000
0010
0100
0000
2000
,
0000
3200
0000
0301
0000
0000
0100
0000
0000
0001
0020
0000
,
0230
0000
1300
0000
0000
0000
1000
0000
0000
0010
0000
0002
,
0000
0013
1000
0001
,
0020
0000
0130
0000
0000
0000
0110
0000
0000
0100
0000
0000
,
1001
0010
0100
1001
,
M00M
0000
0000
0000
0000
0000
0001
0000
0100
0010
0000
0002
,
0000
0023
0000
1030
0000
0000
0010
0000
0000
1000
0200
0000
,
0320
0000
1030
0000
0000
0000
1000
0000
0010
0100
0000
0002
,
0000
0203
0000
1300
0000
0000
0100
0000
0000
1000
0020
0000
,
0230
0000
0301
0000
0000
0000
0001
0000
0010
1000
0000
0020
,
0000
0000
0031
0000
0000
0000
0010
0000
0100
1000
0000
0000
,
0020
0000
0130
0000
0000
0000
0110
0000
0000
0010
0000
0000
,
1001
0100
0010
1001
,
0000
0000
0000
2000
0000
0000
0000
0000
0001
0001
0000
0010
,
0000
0010
0000
0000
0000
0000
0200
0000
3000
0000
0000
0000
0010
0000
0000
0000
0000
0000
0010
0000
0000
0000
0000
0000
,
0010
0000
0000
0300
0000
0000
0020
0000
0000
0000
0000
0000
0000
0000
0000
0030
0001
0000
0100
0000
0000
0000
0001
0000
,
0100
0000
0000
0000
0001
0000
0200
0000
0000
0300
0000
0000
1100
0000
0000
0000
0000
0000
0101
0000
0000
0000
0000
0000
,
1100
0000
0000
0000
0000
0000
0002
0000
0000
0000
0000
0000
0000
0000
0000
1000
0000
0000
1000
0000
0000
0000
0000
0100
,
0000
0103
0020
0000
0100
0000
0100
0000
,
0100
0000
0000
0000
0000
0000
0000
0000
0000
0000
0000
0000
0230
0000
0000
0000
0000
0000
0000
0000
0010
0300
0000
0000
0000
0000
0000
0010
0000
0000
0000
0000
0000
1000
0000
0000
0000
0000
0000
0100
0000
0000
0000
0000
0000
0010
0000
0000
,
0000
0001
0000
0010
0000
0100
0000
1000
0000
0010
0000
0100
0000
0110
0000
0000
,
1000
0000
0000
0011
0000
0010
0001
0000
0000
0010
0000
0000
,
0100
0000
0000
0110
0000
0010
0100
0000
0000
1000
0000
0000
,
0010
0000
0000
0110
0000
0010
0100
0000
0001
0100
0000
010M
,
1000
0000
1000
0010
0000
M010
0001
0000
0001
0010
0000
001M
,
1000
0000
0000
1010
0000
0010
1000
0000
0000
0010
0000
0000
,
0100
0000
0000
0110
0000
0010
0100
0000
0000
0001
0000
0000
,
0010
0000
0000
0110
0000
0010
0100
0000
1000
0100
0000
0000
,
1100
0101
2200
3300
,
0001
0010
0100
1001
,
0110
1001
0110
1000
,
0010
0100
0010
1010
,
0101
0011
0020
0000
,
0030
0000
0000
0110
0000
0100
1000
0000
0000
0100
0000
0000
,
0010
0000
0000
1001
0000
1000
0001
0000
0000
0100
0000
0000
,
0010
0000
0000
1001
0000
0001
0000
0000
0000
MMMM
0000
0000
,
0001
0000
0010
0100
0000
0000
2000
0000
3200
0000
0300
0000
,
0010
0000
0000
0100
0000
0000
2000
0000
3100
0000
0000
0000
,
0001
0000
0100
1000
0000
2000
0000
0000
3200
0300
0000
0000
,
0100
0000
0010
0100
0000
0000
2000
0000
3200
0000
0300
0000
,
1000
0000
0000
0010
0000
0200
0000
0000
0000
0300
0000
0000
,
0010
0000
0000
0100
0000
0000
0010
0000
0000
0200
0000
1000
,
1000
0300
0400
0000
,
0300
0000
0000
1000
0000
0001
0000
0000
0000
0000
0000
0000
,
0010
0000
0000
0000
0000
0000
1000
0000
0000
0200
0000
0000
0000
0000
2300
0000
0000
0000
3000
0000
0000
0000
0000
0000
,
0010
0100
0000
0001
0000
0000
0200
0000
1300
0000
0000
0000
,
1000
0000
0000
0100
0000
0020
0000
0000
0000
0000
0000
0000
,
0130
0010
0000
1000
0000
0100
0002
0000
1003
0000
0000
0000
,
0010
0000
0001
0100
0000
0010
0100
0000
2000
0000
0000
0000
,
3001
0000
0010
1000
0000
0100
0010
0000
0002
0000
0000
1000
,
0003
0000
0000
0000
0000
0000
0000
0000
0000
0000
0000
0000
4000
0000
0000
0000
0000
0000
0000
0400
0000
0000
0000
0000
,
3300
0110
0000
0002
,
0000
0000
0000
0000
1000
0000
1000
0000
0000
0000
0010
0000
0000
0010
0000
0003
0000
0000
0200
0000
0000
0000
0000
0000
,
0010
0000
0010
0000
0010
0300
0020
0000
,
0000
0000
0000
0000
0001
0000
0001
0000
0000
0000
0000
0001
0000
0000
0001
0030
0000
0000
0200
0000
0000
0300
0000
0000
,
0011
1010
0011
2000
,
0000
0000
0000
0100
0000
0000
0100
0000
0000
0000
0000
0000
0001
0000
0000
3000
0001
0000
0020
0000
0000
0000
0000
0000
,
0100
0000
0000
0000
0000
0000
0000
0000
0000
0000
0000
0000
0000
0000
0000
0000
0000
0000
0000
0000
0000
0000
0000
0000
0000
0000
0000
0000
0000
0000
0000
0000
0000
0000
0000
0000
0000
0000
0000
0000
0000
0000
0000
0000
0000
0000
0000
0000
0100
0000
0000
0000
0000
0000
0000
0000
0000
0000
0000
0000
0000
0000
0000
0000
0000
0000
0000
0000
0000
0000
0000
0000
0000
0000
0000
0000
0000
0000
0000
0000
0000
0000
0000
0000
0000
0000
0000
0000
0000
0000
0000
0000
0000
0000
0000
0000
0100
0000
0000
0000
0000
0000
0000
0000
0000
0000
0000
0000
0000
0000
0000
0000
0000
0000
0000
0000
0000
0000
0000
0000
0000
0000
0000
0000
0000
0000
0000
0000
0000
0000
0000
0000
0000
0000
0000
0000
0000
0000
0000
0000
0000
0000
0000
0000
0230
0000
0000
0000
0000
0000
0000
0000
0000
0000
0000
0000
0000
0000
0000
0000
0000
0000
0000
0000
0000
0000
0000
0000
0000
0000
0000
0000
0000
0000
0000
0000
0000
0000
0000
1000
0300
0000
0000
0000
0000
0000
0000
0000
0000
0000
0000
0000
,
0000
1000
0000
0000
0000
0010
0000
0000
0000
0100
0000
0000
0000
0001
0000
0000
0000
0100
0000
0000
0000
0010
0000
0000
0000
1000
0000
0000
0000
0001
0000
0000
,
0000
0000
0000
0010
0000
0000
0000
0000
0000
0000
0000
0000
0000
0000
0000
0001
0000
0000
0000
0000
0000
0000
0000
0000
0000
0000
0000
0011
0000
0000
0000
0000
0000
0000
0000
0000
0000
0000
0000
0000
0000
0000
0000
0000
0000
0000
0000
0000
0001
0000
0000
0000
0000
0000
0000
0000
0000
0000
0000
0000
0000
0000
0000
0000
0000
0000
0000
0000
0000
0000
0000
0000
0101
0000
0000
0000
0000
0000
0000
0000
0000
0000
0000
0000
0000
0000
0000
0000
0001
0000
0000
0000
0000
0000
0000
0000
,
0000
0000
0000
1000
0000
0000
0010
0000
0000
0000
0000
0000
0000
0000
0000
0000
0000
0000
0101
0000
0000
0000
0100
0000
,
0000
0000
0000
0001
0000
0010
0000
0000
0000
1010
0000
1000
,
0001
0000
0001
0010
0000
001M
1000
0000
1000
0100
0000
M100
,
0001
0000
0001
0010
0000
1000
0010
0000
0000
1010
0000
1000
,
0000
0000
0000
0001
0000
0000
0100
0000
0000
0000
0000
0000
1000
0000
0000
0000
0000
0000
1010
0000
0000
0000
0010
0000
,
0000
0000
0000
0001
0000
0000
0010
0000
0000
1010
0000
0010
,
1000
0000
0100
1000
0000
0000
1010
0000
0000
0011
0000
0000
,
2020
3030
1000
0100
,
0001
2000
3010
0002
,
0103
0002
0013
2000
,
3001
0200
1300
0020
,
0200
0000
0000
0000
0000
0000
0000
0000
0000
0330
0000
0000
1001
0000
0000
0000
0000
0000
0000
0000
1000
0000
0000
0000
0100
0000
0000
0000
0000
0000
0000
0000
0000
0000
0000
0000
0010
0000
0000
0000
0000
0000
0000
0000
0000
0000
0000
0000
,
0100
0000
0000
0000
0000
0000
0110
0000
0000
0000
0100
0000
0000
0000
0000
1000
0000
0000
1000
0000
0000
0000
0000
0000
,
0010
0000
0000
0000
0000
0000
0000
0000
0000
0000
0000
0000
0000
0000
0000
0000
0000
0000
0000
0000
0000
0000
0000
0000
1001
0000
0000
0000
0000
0000
0000
0000
0000
0000
0000
0000
0000
0000
0000
0000
0001
0000
0000
0000
0000
0000
0000
0000
0000
0000
0000
1000
0000
0000
0000
0000
0000
0000
0000
0000
0000
0000
0000
0100
0000
0000
0000
0000
0000
0000
0000
0000
0000
0000
0000
1000
0000
0000
0000
0000
0000
0000
0000
0000
0000
0000
0000
0010
0000
0000
0000
0000
0000
0000
0000
0000
,
0000
1000
0000
0000
0000
0100
0000
0000
0000
0010
0000
0000
0000
0000
0000
0000
MMMM
0000
0000
0000
0000
0000
0000
0000
2000
0000
0000
0000
0000
0000
0000
0000
,
0001
0001
0010
0010
0001
3001
0200
0000
,
1000
1000
0010
0000
0001
0301
0020
0000
,
0001
0001
0100
0100
1000
1030
2000
3000
,
0010
0100
1000
0002
,
1000
1000
0010
0000
1000
1003
0200
0001
,
0001
0010
0010
0000
1000
0300
0010
0000
,
1000
0100
0010
0000
0100
0000
0002
0003
,
0100
0000
0000
0000
0010
0000
0000
1000
0000
0000
0001
0000
0000
0000
1000
0000
,
0010
1001
0100
1001
,
0010
1001
0100
0011
,
1000
1100
0001
0101
,
1000
1010
0002
0000
,
0003
0000
0000
1001
0000
1000
0000
0000
0000
0010
0000
0000
,
0000
0000
0000
1001
0000
0001
0000
0000
0000
0100
0000
0000
,
0000
0000
0000
0000
0000
0000
0000
0000
0000
0000
0000
0000
0000
1000
0000
0000
0100
0000
0000
0000
0000
0010
0000
0000
0000
0001
0000
0000
0000
0000
0100
0000
,
0000
1000
0000
0000
0000
0000
0001
0000
M000
0000
0000
0000
0000
0000
0000
0000
0000
0000
0000
0000
0000
0000
0000
0000
0000
0000
0000
0000
0000
0000
0000
0000
;
