#TITLE:Con Calma;
#SUBTITLE:;
#ARTIST:Daddy Yankee, Snow;
#CREDIT:Vndt;
#MUSIC:ConCalma_audio.ogg;
#SELECTABLE:YES;
#BACKGROUND:ConCalma_bg.png;
#BANNER:ConCalma_bn.png;
#JACKET:ConCalma_jk.jpg;
#CDTITLE:El Disco Duro;
#OFFSET:-0.463991;
#SAMPLESTART:35.570;
#SAMPLELENGTH:20.426;
#BPMS:0=94;
#STOPS:;
#GENRE:Reggaeton;
#BGCHANGES:-0.726=ConCalma_video.mov=1.000=1=0=0=StretchNoLoop==CrossFade==,
99999=-nosongbg-=1.000=0=0=0 // don't automatically add -songbackground-

//---------------dance-single - ----------------
#NOTES:
     dance-single:
     :
     Beginner:
     2:
     0.000,0.000,0.000,0.000,0.000:
0000
0000
0000
0000
,
0000
0000
0000
0000
,
0000
0000
0000
0000
,
0000
0000
0000
0000
0004
0000
0000
0003
,
0000
0000
0010
0000
,
0100
0000
0000
0000
0000
0100
0100
0000
,
1000
0000
0100
0000
,
0010
0000
0001
0000
,
1000
0000
0010
0000
,
0100
0000
0000
0000
0000
0000
0000
0000
0220
0000
0000
0330
0000
0000
0000
0000
,
0000
0001
0000
0001
0000
0100
0000
0100
,
0000
0010
0000
0010
0000
1000
0000
1000
,
0000
0001
0000
0001
0000
0010
0000
0010
,
0000
0100
0000
0100
0000
0000
0000
0000
,
0020
0031
0001
0000
,
0010
0000
0110
0000
,
0001
0000
0010
0000
,
0200
0300
0000
0000
1001
0000
0000
0000
,
2000
3001
0001
0000
,
0100
0000
0110
0000
,
0001
0000
0100
0000
,
0020
0030
0000
0000
1001
0000
0000
0000
,
1001
1000
0000
1000
,
0000
0100
0000
0100
,
0000
0000
0000
0000
0000
0000
0010
0000
0000
0000
0000
0010
0000
0000
0000
0000
0000
0000
0000
0000
0000
0000
0000
0010
,
0000
0000
0000
0000
0000
0000
0000
0000
0000
0000
0000
0040
0000
0000
0030
0000
0000
0000
0000
0000
0000
0000
0000
0000
,
0001
0000
0100
0000
0010
0000
0200
0300
,
0010
0000
1000
0000
0010
0000
0200
0300
,
0001
0000
0010
0000
0100
0000
2000
3000
,
0100
0010
1001
0000
,
0004
0003
0000
0000
0400
0300
0000
0000
,
0004
0003
0000
0000
4000
3000
0000
0000
,
0001
0001
0020
0130
,
1000
1000
0020
0130
,
0200
0301
0001
0000
,
0100
0000
0110
0000
,
0001
0000
0100
0000
,
0020
0030
0000
0000
1001
0000
0000
0000
,
2000
3001
0001
0000
,
0010
0000
0110
0000
,
0001
0000
0010
0000
,
0200
0300
0000
0000
1001
0000
0000
0000
,
1000
0000
0100
0000
1000
1000
0000
0000
,
0010
0000
0100
0000
0010
0010
0000
0000
,
0100
0000
0001
0000
0100
0100
0000
0000
,
0001
0000
0010
0000
0001
0001
0000
0000
,
0001
0000
0100
0000
0001
0001
0000
0000
,
0010
0000
0100
0000
0010
0010
0000
0000
,
0100
0000
1000
0000
0100
0100
0000
0000
,
1000
0000
0001
0000
0010
0010
0010
0000
,
0200
1300
0001
0000
,
0100
0000
0110
0000
,
0001
0000
0100
0000
,
0020
0030
0000
0000
1001
0000
0000
0000
,
2000
3001
0001
0000
,
0010
0000
0110
0000
,
0001
0000
0100
0000
,
0020
0000
0030
0000
0000
0000
0000
0000
0100
0000
0000
0020
0000
0000
0000
0030
,
0000
0000
0000
0000
;

//---------------dance-single - ----------------
#NOTES:
     dance-single:
     :
     Easy:
     7:
     0.000,0.000,0.000,0.000,0.000:
0000
0000
0000
0000
,
0000
0000
0000
0000
,
0000
0000
0000
0000
,
0000
0000
0000
0000
0001
0001
0001
0010
,
0000
0000
0100
0000
,
0010
0000
0000
0000
0000
1001
1001
0000
,
1000
0000
0000
0010
0000
0000
1000
0000
0001
0000
0000
0010
0000
0000
0001
0000
,
1000
0000
0000
0100
0000
0000
1000
0000
0001
0000
0000
0100
0000
0000
0001
0000
,
0010
0000
0000
0100
0000
0000
0010
0000
0001
0000
0000
1000
0000
0000
0001
0000
,
0100
0000
0000
0010
0000
0000
0100
0000
0220
0000
0000
0330
0000
0000
0000
0000
,
0001
0000
0010
0001
0000
0000
0001
0000
1000
0000
4000
0000
3004
0000
0003
0000
,
0001
0000
0100
0001
0000
0000
0001
0000
1000
0000
0100
1000
0000
0000
1000
0000
,
0010
0000
0100
0010
0000
0000
0010
0000
1000
0000
0001
1000
0000
0000
1000
0000
,
0100
0000
0010
0100
0000
0000
0010
0000
0220
0000
0000
0330
0000
0000
0010
0000
,
0002
0000
0000
0000
0013
0000
0000
0000
0001
0000
0001
2000
0000
3000
1000
0000
,
0020
0000
1030
0000
0000
0000
0100
0000
0100
0100
0000
0220
0000
0000
0330
0000
,
0001
0000
0010
0000
0100
0000
1000
0000
0010
0000
0400
0300
0010
0000
1000
0000
,
2000
0000
3000
0000
0000
0000
0010
0000
0010
0010
0000
2010
0000
0000
3010
0000
,
0001
0000
0000
001M
1000
0000
0000
0000
0010
0000
0001
2000
0000
0000
3001
0000
,
2000
0000
3001
0000
0000
0000
0100
0000
0100
0100
0000
0220
0000
0000
0330
0000
,
1000
0000
0010
0000
0100
0000
0004
0003
0010
0000
0100
0000
0010
0000
0001
0000
,
0002
0000
0003
0000
0000
0000
0010
0000
0010
0010
0000
0110
0000
0000
0000
0000
,
1001
0000
0000
0000
1000
0000
0010
0000
0100
0000
0100
0000
0001
0000
2000
3020
,
0000
0030
0000
0000
0100
0000
0100
0000
0001
0000
0010
0000
0020
0000
0000
0230
,
0000
0000
0000
0300
0000
0000
0000
0000
0000
0000
0000
0000
1000
0000
0000
0000
0000
0000
0000
0000
0000
0000
1000
0000
0000
0000
0000
0000
0001
0000
0000
0000
0000
1000
0000
0000
0000
0000
0000
0000
0000
0000
0000
0000
0000
0000
0001
0000
,
0000
0000
0000
0000
1000
0000
0000
0000
0000
0001
0000
0000
0000
0000
0000
0000
0000
0000
0000
0000
0000
0000
0004
0000
0000
0000
0000
0000
0103
0000
0000
0000
0000
0000
0001
0000
0000
0000
0000
2000
0000
0000
0000
0000
0000
0000
0000
0000
,
3001
0100
0100
0001
0010
0001
0200
0300
,
0010
0100
0100
0001
0010
0001
0200
0300
,
0001
0000
0000
0010
0000
0000
0100
0000
0000
1000
0000
0000
0010
0000
0000
1000
0000
0000
0200
0000
0300
0100
0000
0000
,
0010
0000
0100
0000
0100
0000
1000
0000
0010
0100
0000
0010
0100
0000
0001
0000
,
0040
0000
0030
0000
0000
0000
0100
0000
0400
0000
0300
0000
0000
2000
3000
0000
,
0004
0000
0003
0000
1000
0000
0100
0000
0040
0000
0030
0000
0000
0010
0000
0000
,
0001
0001
0010
0010
0001
0010
0100
0000
,
1000
1000
0010
0010
1000
0001
0100
0100
,
0002
0000
0000
0000
0103
0000
0000
0000
0001
0000
0001
2000
0000
3000
1000
0000
,
0200
0000
1300
0000
0000
0000
0010
0000
0010
0010
0000
0220
0000
0000
0330
0000
,
0001
0000
0100
0000
0010
0000
1000
0000
0100
0000
0040
0030
0100
0000
1000
0000
,
2000
0000
3000
0000
0000
0000
0010
0000
0010
0010
0000
2010
0000
0000
3010
0000
,
0001
0000
0000
001M
1000
0000
0000
0000
0010
0000
0001
2000
0000
0000
3001
0000
,
2000
0000
3001
0000
0000
0000
0010
0000
0010
0010
0000
0220
0000
0000
0330
0000
,
1000
0000
0100
0000
0010
0000
0004
0003
0100
0000
0010
0000
0100
0000
0001
0000
,
0002
0000
0003
0000
0000
0000
0100
0000
0100
0100
0000
0220
0000
0000
0330
0000
,
1000
0100
0100
0100
2001
3001
0200
0310
,
0010
0000
0000
1000
0000
0000
0000
0000
0001
0000
0000
0000
0010
0000
0000
0000
0012
0000
0000
0000
1003
0000
0000
0000
0010
0000
0000
0000
0100
0000
0000
0000
,
0001
0000
0000
0000
0100
0000
0000
0000
0010
0000
0000
1000
0000
0000
0000
0000
0010
0000
0000
0000
0100
0000
0000
0000
0100
0000
0000
0000
0004
0000
0000
0000
,
0003
0001
1000
0001
0102
0103
0010
0010
,
1000
0000
0100
0000
0010
0000
0001
0000
0012
0000
0023
0030
0000
0001
0000
0000
,
1000
0000
4000
0000
0000
3000
0100
0000
2000
0000
3001
0000
0100
0000
0001
0000
,
0200
0300
0010
0000
0100
0000
0001
0000
1000
0000
0001
0000
0100
0000
0010
0000
,
1000
0400
0300
0100
1000
0010
0010
0010
,
2000
0000
0000
0000
3010
0000
0000
0000
1000
0000
1000
0002
0000
0003
0001
0000
,
0020
0000
0031
0000
0000
0000
0100
0000
0100
0100
0000
0220
0000
0000
0330
0000
,
1000
0000
0010
0000
0100
0000
0001
0000
0010
0000
0400
0300
0010
0000
0001
0000
,
0002
0000
0003
0000
0000
0000
0010
0000
0010
0010
0000
0012
0000
0000
0013
0000
,
1000
0000
0000
M010
0001
0000
0000
0000
0010
0000
4000
0000
3000
0000
0001
0000
,
2000
0000
3001
0000
0000
0000
0100
0000
0100
0100
0000
0220
0000
0000
0330
0000
,
0001
0000
0000
0000
0010
0000
0000
0000
0100
0000
0000
0000
4000
0000
3000
0000
0010
0000
0000
0000
0100
0000
0000
0000
0010
0000
0000
1000
0000
0000
0000
0000
,
0002
0000
0000
0000
0003
0000
0000
0000
0000
0000
0000
0000
0010
0000
0000
0000
0010
0000
0010
0000
0000
0000
0220
0000
0000
0000
0000
0000
0000
0330
0000
0000
,
0000
0000
0000
0000
;

//---------------dance-single - ----------------
#NOTES:
     dance-single:
     :
     Medium:
     9:
     0.000,0.000,0.000,0.000,0.000:
0000
0000
0000
0000
,
0000
0000
0000
0000
,
0000
0000
0000
0000
,
0000
0000
0000
0000
0000
0000
0000
0000
0000
0000
0000
0000
0000
0000
0000
0000
0000
0000
0000
0000
0000
0000
0000
0000
0001
0000
0000
0010
0000
0000
0001
0000
0000
0010
0000
0000
0001
0000
0000
0000
0010
0000
0001
0000
0000
0000
0000
0000
,
0000
0000
1000
0000
,
0010
0000
0000
0000
0000
1001
1001
0000
,
1000
0000
0010
0100
0010
0000
0010
0000
2001
0000
3001
0000
0010
0100
0010
0100
,
0010
0100
0000
1000
0000
0001
0100
0000
0102
0000
0013
0000
0100
1000
0100
1000
,
0100
1000
0000
0001
0000
0100
0010
0000
0210
0000
0310
0000
0100
0001
0100
0001
,
0100
0002
0000
0103
0001
0000
0001
0000
0021
0000
0031
0000
0000
0000
0000
0000
,
0001
0000
0010
0100
0010
0000
0010
0000
1002
0000
1003
0000
0010
0100
0010
0100
,
0010
0100
0000
0001
0000
1000
0100
0000
2100
0000
3010
0000
0100
0001
0100
0001
,
0100
0001
0000
1000
0000
0100
0010
0000
0210
0000
0310
0000
0100
1000
0100
1000
,
0100
2000
0000
3100
1000
0000
1000
0000
1020
0000
1030
0000
1000
0000
0010
0000
,
0001
0000
0000
0000
0000
0000
0000
0000
0000
001M
0000
0000
1000
0000
0000
0000
0000
0000
0000
0000
0000
0010
0000
0000
0001
0000
0000
0000
0000
0000
0001
0000
0000
2000
0000
0000
0000
0000
0000
3000
0000
0000
1000
0000
0000
0000
0010
0000
,
2000
0000
0000
3000
0000
0000
1000
0000
0000
0000
0000
0000
0000
0000
0000
0000
0010
0000
0100
0000
0000
0000
0010
0000
0100
0000
0000
0100
0000
0000
0000
0000
0000
0102
0000
0000
0000
0000
0000
0000
0000
0000
0003
0000
0000
0000
0000
0000
,
0001
0000
0010
0000
0100
0000
1000
0000
0010
0000
0400
0300
0010
0000
1000
0000
,
2000
0000
3000
0000
0000
1000
0010
0000
0010
0010
0000
2010
0000
0000
3010
0000
,
0001
0000
0000
0000
0000
0000
0000
0000
0000
001M
0000
0000
1000
0000
0000
0000
0000
0000
0000
0000
0000
0010
0000
0000
0001
0000
0000
0000
0000
0000
1000
0000
0000
0002
0000
0000
0000
0000
0000
0003
0000
0000
0001
0000
0000
0000
0010
0000
,
0002
0000
0000
0003
0000
0000
0001
0000
0000
0000
0000
0000
0000
0000
0000
0000
0010
0000
0100
0000
0000
0000
0010
0000
0100
0000
0000
0100
0000
0000
0000
0000
0000
2100
0000
0000
0000
0000
0000
0000
0000
0000
3000
0000
0000
0000
0000
0000
,
1000
0000
0010
0000
0100
0000
0004
0003
0010
0000
0100
0000
0010
0000
0001
0000
,
0002
0000
0003
0000
0000
1000
0010
0000
0010
0010
0000
2010
0000
0000
3001
0000
,
1001
0000
0000
0000
1000
0000
0010
0000
0100
0000
0100
0000
0001
0000
2000
3020
,
0000
0030
0000
0000
0100
0000
0100
0000
0001
0000
0010
0000
0020
0000
0000
0230
,
0000
0000
0000
0300
0000
0000
0000
0000
0000
0000
0000
0000
1000
0000
0000
0000
0000
0000
0000
0000
0000
0000
1000
0000
0000
0000
0000
0000
0001
0000
0000
0000
0000
1000
0000
0000
0000
0000
0000
0000
0000
0000
0000
0000
0000
0000
0001
0000
,
0000
0000
0000
0000
1000
0000
0000
0000
0000
0001
0000
0000
0000
0000
0000
0000
0000
0000
0000
0000
0000
0000
0004
0000
0000
0000
0000
0000
0103
0000
0000
0000
0000
0000
0001
0000
0000
0000
0000
2000
0000
0000
0000
0000
0000
0000
0000
0000
,
3001
0000
0000
0100
0000
0000
0100
0000
0000
0001
0000
0000
0010
0000
0000
0001
0000
0000
0200
0000
0000
0300
0000
0010
,
1000
0000
0000
0100
0000
0000
0100
0000
0000
1000
0000
0000
0010
0000
0000
1000
0000
0000
0200
0000
0000
0300
0000
0010
,
0001
0000
0000
0010
0000
0000
0010
0000
0000
0001
0000
0000
0100
0000
0000
0001
0000
0000
0020
0000
0030
0010
0000
0000
,
0100
0000
0010
0000
0010
0000
0001
0000
0100
0010
0000
0010
0100
0000
0001
0000
,
0040
0000
0030
0001
0000
0010
0100
0000
0400
0000
0300
1000
0000
0002
0003
0000
,
0004
0000
0000
0000
0003
0000
0000
0000
1000
0000
0000
0000
0100
0000
0000
0000
0040
0000
0000
0000
0030
0000
0001
0000
0000
0000
0010
0000
0000
0000
0000
0000
,
0001
0100
0001
0000
0010
0001
0010
0000
0001
0000
0010
0000
0100
0000
0000
0000
,
1000
0100
1000
0000
0010
1000
0010
0000
2000
0000
3001
0000
0100
0000
0010
0000
,
0001
0000
0000
0000
0000
0000
0000
0000
0000
001M
0000
0000
1000
0000
0000
0000
0000
0000
0000
0000
0000
0010
0000
0000
0001
0000
0000
0000
0000
0000
0001
0000
0000
2000
0000
0000
0000
0000
0000
3000
0000
0000
1000
0000
0000
0000
0100
0000
,
2000
0000
0000
3000
0000
0000
1000
0000
0000
0000
0000
0000
0000
0000
0000
0000
0100
0000
0010
0000
0000
0000
0100
0000
0010
0000
0000
0010
0000
0000
0000
0000
0000
0012
0000
0000
0000
0000
0000
0000
0000
0000
0003
0000
0000
0000
0000
0000
,
0001
0000
0100
0000
0010
0000
1000
0000
0100
0000
0040
0030
0100
0000
1000
0000
,
2000
0000
3000
0000
0000
1000
0010
0000
0010
0010
0000
2010
0000
0000
3010
0000
,
0001
0000
0000
0000
0000
0000
0000
0000
0000
001M
0000
0000
1000
0000
0000
0000
0000
0000
0000
0000
0000
0010
0000
0000
0001
0000
0000
0000
0000
0000
1000
0000
0000
0002
0000
0000
0000
0000
0000
0003
0000
0000
0001
0000
0000
0000
0100
0000
,
0002
0000
0000
0003
0000
0000
0001
0000
0000
0000
0000
0000
0000
0000
0000
0000
0100
0000
0010
0000
0000
0000
0100
0000
0010
0000
0000
0010
0000
0000
0000
0000
0000
2010
0000
0000
0000
0000
0000
0000
0000
0000
3000
0000
0000
0000
0000
0000
,
1000
0000
0100
0000
0010
0000
0004
0003
0100
0000
0010
0000
0100
0000
0001
0000
,
0002
0000
0003
0000
0000
1000
0100
0000
0100
0100
0000
2100
0000
0000
3000
0000
,
1000
0100
0100
0100
2001
3001
0200
0310
,
0010
0000
0000
1000
0000
0000
1000
0000
0001
0000
0000
0000
0010
0000
0000
0000
0012
0000
0000
0000
1003
0000
0000
0000
0010
0000
0000
0000
0100
0000
0000
0000
,
0001
0000
0000
0000
0100
0000
0000
0000
0010
0000
0000
1000
0000
0000
1000
0000
0010
0000
0000
0000
0100
0000
0000
0000
0100
0000
0000
0000
0004
0000
0000
0000
,
0003
0001
1000
0001
0102
0103
0010
0010
,
1000
0000
0100
0000
0010
0000
0001
0000
1002
0000
0023
0030
0000
0001
0000
0000
,
1000
0000
4000
0000
0000
3000
0100
0000
2000
0000
3001
0000
0100
0000
0001
0000
,
0200
0300
0010
0000
0100
0000
0001
0000
1000
0000
0001
0000
0100
0000
0010
0000
,
1000
0000
0400
0000
0310
0000
0010
0001
0010
0001
0010
0001
0010
0000
0010
0000
,
1000
0000
0000
0000
0000
0000
0000
0000
0000
M010
0000
0000
0001
0000
0000
0000
0000
0000
0000
0000
0000
0010
0000
0000
1000
0000
0000
0000
0000
0000
1000
0000
0000
0002
0000
0000
0000
0000
0000
0003
0000
0000
0001
0000
0000
0000
0100
0000
,
0002
0000
0000
0003
0000
0000
0001
0000
0000
0000
0000
0000
0000
0000
0000
0000
0100
0000
0010
0000
0000
0000
0100
0000
0010
0000
0000
0010
0000
0000
0000
0000
0000
2010
0000
0000
0000
0000
0000
0000
0000
0000
3000
0000
0000
0000
0000
0000
,
1000
0000
0100
0000
0010
0000
0001
0000
0100
0000
0040
0030
0100
0000
0001
0000
,
0002
0000
0003
0000
0000
0001
0010
0000
0010
0010
0000
0012
0000
0000
0013
0000
,
1000
0000
0000
0000
0000
0000
0000
0000
0000
M010
0000
0000
0001
0000
0000
0000
0000
0000
0000
0000
0000
0010
0000
0000
1000
0000
0000
0000
0000
0000
0001
0000
0000
2000
0000
0000
0000
0000
0000
3000
0000
0000
1000
0000
0000
0000
0100
0000
,
2000
0000
0000
3000
0000
0000
1000
0000
0000
0000
0000
0000
0000
0000
0000
0000
0100
0000
0010
0000
0000
0000
0100
0000
0010
0000
0000
0010
0000
0000
0000
0000
0000
0012
0000
0000
0000
0000
0000
0000
0000
0000
0003
0000
0000
0000
0000
0000
,
0001
0000
0000
0000
0100
0000
0000
0000
0010
0000
0000
0000
4000
0000
3000
0000
0100
0000
0000
0000
0010
0000
0000
0000
0100
0000
0000
1000
0000
0000
1000
0000
,
0002
0000
0000
0000
0003
0000
0000
0000
0000
0000
0001
0000
0010
0000
0000
0000
0010
0000
0010
0000
0000
0000
0220
0000
0000
0000
0000
0000
0000
0330
0000
0000
,
0000
0000
0000
0000
;

//---------------dance-single - ----------------
#NOTES:
     dance-single:
     :
     Hard:
     12:
     0.000,0.000,0.000,0.000,0.000:
0000
0000
0000
0000
,
0000
0000
0000
0000
,
0000
0000
0000
0000
,
0000
0000
0000
0000
0000
0000
0000
0000
0000
0000
0000
0000
0000
0000
0000
0000
0000
0000
0000
0000
0000
0000
0000
0000
0001
0000
0000
0010
0000
0000
0001
0000
0000
0010
0000
0000
0001
0000
0000
0000
0010
0000
0001
0000
0000
0000
0000
0000
,
0000
0000
1000
0000
,
0010
0000
0000
0000
0000
1001
1001
0000
,
1000
0000
0010
0100
0010
0000
0010
0000
2001
0000
3001
0000
0010
0010
0100
0010
,
0100
1000
0000
1000
0000
0001
0100
0000
0102
0000
0013
0000
0100
1000
0001
0100
,
0010
1000
0000
1000
0000
0010
0100
0000
0210
0000
0310
0000
0010
1000
0001
0010
,
0001
2000
0000
3100
1000
0000
0001
0000
0021
0000
0031
0000
0000
0000
0000
0000
,
0001
0000
0100
0010
1000
0000
0001
0000
2001
0000
3100
0000
1000
0001
1000
0001
,
0100
0010
0000
1000
0000
1000
0100
0000
2001
0000
3001
0000
0100
0010
0100
0001
,
0100
0010
0000
1000
0000
0100
0010
0000
1002
0000
1003
0000
0100
0010
0100
1000
,
0100
0010
0000
0001
0100
0000
0010
0000
1010
0000
1000
0000
1000
0000
0010
0000
,
0001
0000
0000
0000
0000
0000
0000
0000
0000
001M
0000
0000
1000
0000
0000
0000
0000
0000
0000
0000
0000
0010
0000
0000
0001
0000
0000
1000
0000
0000
0001
0000
0000
2000
0000
0000
0000
0000
0000
3000
0001
0000
1000
0000
0000
0000
0010
0000
,
2000
0000
0000
3002
0000
0000
1003
0000
0000
0000
0000
0000
1000
0000
0000
0000
0010
0000
0100
0000
0000
0000
0010
0000
1000
0000
0000
0001
0000
0000
0000
0000
0000
0002
0000
0000
2003
0000
0000
0000
0000
0000
3000
0000
0000
0000
0000
0000
,
0001
0100
0010
0100
0001
0100
0001
0010
0100
0010
0001
0001
0010
0100
1000
0001
,
2000
3200
1300
0000
0000
0001
0100
0010
1000
1000
0000
2000
3002
0000
0013
0000
,
1000
0000
0000
0000
0000
0000
0000
0000
0000
M010
0000
0000
0001
0000
0000
0000
0000
0000
0000
0000
0000
0010
0000
0000
1000
0000
0000
0010
0000
0000
1000
0000
0000
0002
0000
0000
0000
0000
0000
0003
1000
0000
0001
0000
0000
0000
0010
0000
,
0002
2003
3001
0000
0001
0010
0100
0010
0001
0001
0000
2000
3002
0000
0003
0000
,
1000
0000
0000
0100
0000
0000
0010
0000
0000
0100
0000
0000
1000
0000
0000
0010
0000
0000
1000
0000
0000
1000
0000
0000
0010
0000
0000
0000
0100
0000
0010
0000
0000
0000
1000
0000
0010
0000
0000
0000
0100
0000
0001
0000
0000
0000
1000
0000
,
0002
0003
0100
0000
0000
0001
1000
0010
0100
0100
0000
0020
0230
0000
0301
0000
,
1001
0000
0000
0000
0000
0000
0000
0000
0000
1000
0000
0000
0010
0000
0000
0000
0100
0000
0010
0000
0000
0000
0100
0000
0001
0000
0000
0010
0000
0000
0100
0000
0000
1000
0000
0000
0001
0000
0000
0000
0000
0000
2000
0000
0000
3020
0000
0000
,
0000
0000
0000
0030
0000
0000
0000
0000
0000
1000
0000
0000
0100
0000
0000
0000
0010
0000
0100
0000
0000
0010
0000
0000
0001
0000
0000
0100
0000
0000
0010
0000
0000
1000
0000
0000
0020
0000
0000
0000
0000
0000
0000
0000
0000
0230
0000
0000
,
0000
0000
0000
0300
0000
0000
0000
0000
0000
0001
0000
0000
0010
0000
0000
0000
0100
0000
0010
0000
0000
0000
0001
0000
0000
0000
0000
0000
1000
0000
0000
0000
0000
0001
0000
0000
0000
0000
0000
0000
0100
0000
0010
0000
0000
0000
1000
0000
,
0000
0000
0000
0000
0001
0000
0000
0000
0000
1000
0000
0000
0000
0000
0000
0000
0010
0000
0100
0000
0000
0000
0004
0000
0000
0000
0000
0000
0103
0000
0000
0000
0000
0000
0001
0000
0000
0000
0000
2000
0000
0000
0000
0000
0000
0000
0000
0000
,
3001
0000
0000
0000
0010
0000
0100
0000
0000
0010
0000
0000
0100
0000
0000
0000
1000
0000
0001
0000
0000
0000
1000
0000
0010
0000
0000
0100
0000
0000
0001
0000
0000
0010
0000
0000
0200
0000
0000
0000
0000
0000
0300
0000
0000
0000
0100
0000
,
1000
0000
0000
0000
0010
0000
0100
0000
0000
0010
0000
0000
0100
0000
0000
0001
0000
0000
1000
0000
0000
0001
0000
0000
0010
0000
0000
0100
0000
0000
1000
0000
0000
0010
0000
0000
0200
0000
0000
0000
0000
0000
0300
0000
0000
0000
0100
0000
,
0001
0000
0000
0000
0100
0000
0010
0000
0000
0100
0000
0000
0010
0000
0000
1000
0000
0000
0001
0000
0000
0000
1000
0000
0100
0000
0000
0000
0010
0000
0001
0000
0000
0000
0100
0000
0020
0000
0000
0000
1030
0000
0010
0000
0000
0000
0010
0000
,
1000
0000
0000
0000
0100
0000
0010
0000
0000
0000
0100
0000
0010
0000
0000
0000
0001
0000
1000
0000
0000
0001
0000
0000
0100
0000
0000
0010
0000
0000
MMMM
0000
0000
0010
0000
0000
2000
0000
0000
3100
0000
0000
0020
0000
0000
0030
0000
0000
,
0010
0100
0000
1000
0000
0040
0130
0000
0100
0010
0100
0001
0000
0002
0103
0000
,
0001
0000
0100
0000
0000
0000
0001
0000
1000
0000
0000
0000
0100
0000
0000
0000
0010
0000
0100
0000
1000
0000
0001
0000
0000
0000
0001
0000
0000
MMMM
0000
0000
,
0001
0000
0100
0000
0010
0000
0000
0000
0010
0000
0100
0000
0001
0000
0000
0000
0001
0000
2000
0000
0010
3000
2000
0000
0100
0000
0000
0000
3000
0000
0000
0000
,
1000
0100
0010
0000
0010
0100
1000
1000
0002
0000
0013
0002
0103
0000
0010
0000
,
0001
0000
0000
0000
0000
0000
0000
0000
0000
001M
0000
0000
1000
0000
0000
0000
0000
0000
0000
0000
0000
0010
0000
0000
0001
0000
0000
1000
0000
0000
0001
0000
0000
2000
0000
0000
0000
0000
0000
3000
0001
0000
1000
0000
0000
0000
0100
0000
,
2000
0000
0000
3002
0000
0000
1003
0000
0000
0000
0000
0000
1000
0000
0000
0000
0100
0000
0010
0000
0000
0000
0100
0000
1000
0000
0000
0001
0000
0000
0000
0000
0000
0002
0000
0000
2003
0000
0000
0000
0000
0000
3000
0000
0000
0000
0000
0000
,
0001
0010
0100
0010
0001
0010
0001
0100
0010
0100
0001
0001
0100
0010
1000
0001
,
2000
3020
1030
0000
0000
0001
0010
0100
1000
1000
0000
2000
3002
0000
0013
0000
,
1000
0000
0000
0000
0000
0000
0000
0000
0000
M010
0000
0000
0001
0000
0000
0000
0000
0000
0000
0000
0000
0010
0000
0000
1000
0000
0000
0010
0000
0000
1000
0000
0000
0002
0000
0000
0000
0000
0000
0003
1000
0000
0001
0000
0000
0000
0100
0000
,
0002
2003
3001
0000
0001
0100
0010
0100
0001
0001
0000
2000
3002
0000
0003
0000
,
1000
0000
0000
0010
0000
0000
0100
0000
0000
0010
0000
0000
1000
0000
0000
0100
0000
0000
1000
0000
0000
1000
0000
0000
0100
0000
0000
0000
0010
0000
0100
0000
0000
0000
1000
0000
0100
0000
0000
0000
0010
0000
0001
0000
0000
0000
1000
0000
,
0002
0003
0010
0000
0000
0001
1000
0100
0010
0010
0000
0200
0320
0000
0031
0000
,
1000
0000
0100
0010
0100
0000
0100
0000
2001
0000
3001
0000
0200
0000
0310
0100
,
0010
0000
0000
1000
0000
0000
1000
0000
0001
0000
0001
0000
0010
0000
0000
0000
0012
0000
0000
0000
1003
0000
0000
0000
0010
0000
1000
0000
0001
0000
0010
0000
,
0100
0000
1000
0000
0100
0000
0010
0000
0100
0000
0000
1000
0000
0000
1000
0000
2100
0000
0000
0000
3100
0000
0000
0000
0100
0000
1000
0000
0001
0000
1000
0000
,
0100
0010
0001
0010
0001
0000
0001
0000
0102
0000
0103
0000
0010
0100
0010
1000
,
0001
0010
0100
1000
0010
0100
0001
0000
1002
0000
0023
0030
0000
0001
1000
0001
,
0010
0100
1000
1000
0100
1000
0001
1000
2001
0000
3001
0010
0100
0010
0001
0010
,
0200
1300
0010
0000
0010
0100
0010
1000
0002
0000
2003
3000
0100
0000
0010
0000
,
0010
0001
0100
0001
1000
0100
1000
0001
0100
0010
1000
0001
0010
0000
0010
0000
,
1000
0000
0000
0000
0000
0000
0000
0000
0000
M010
0000
0000
0001
0000
0000
0000
0000
0000
0000
0000
0000
0010
0000
0000
1000
0000
0000
0010
0000
0000
1000
0000
0000
0002
0000
0000
0000
0000
0000
0003
1000
0000
0001
0000
0000
0000
0010
0000
,
0002
0000
0000
2003
0000
0000
3001
0000
0000
0000
0000
0000
1000
0000
0000
0000
0010
0000
0100
0000
0000
0000
0010
0000
1000
0000
0000
1001
0000
0000
0000
0000
0000
2000
0000
0000
3002
0000
0000
0000
0000
0000
0003
0000
0000
0000
0000
0000
,
1000
0100
0010
0100
1000
0100
1000
0010
0100
0010
1000
1000
0010
0100
0002
1000
,
0000
0000
1003
0000
0000
1000
0010
0100
0001
1001
0000
0000
2000
0000
3001
0000
,
1001
0000
0000
0000
0000
0000
MMMM
0000
0000
0000
0000
0000
1001
0000
0000
0000
0000
0000
0000
0000
0000
0000
0001
0000
0010
0000
0000
0100
0000
0000
1000
0000
0000
0100
0000
0000
1000
0000
0000
0010
0000
0000
1000
0000
0000
0000
0010
0000
,
2000
3002
1003
0100
0000
0010
0100
0010
0001
1001
0000
0002
2003
0000
3001
0000
,
0100
0000
0010
0000
0100
0000
0001
0000
0010
0000
0001
0000
0010
0000
0001
0000
1000
0000
0010
0000
0100
0000
0010
0000
0100
0000
0000
0001
0000
0000
0001
0000
,
2000
0000
3020
0000
1030
0000
0010
0000
0000
0000
0010
0000
1000
0000
0100
0000
0010
0000
0110
0000
0000
0000
0220
0000
0000
0000
0000
0000
0000
0330
0000
0000
,
0000
0000
0000
0000
;

//---------------dance-single - ----------------
#NOTES:
     dance-single:
     :
     Challenge:
     14:
     0.000,0.000,0.000,0.000,0.000:
0000
0000
0000
0000
,
0000
0000
0000
0000
,
0000
0000
0000
0000
,
0000
0000
0000
0000
0000
0000
0000
0000
0000
0000
0000
0000
0000
0000
0000
0000
0000
0000
0000
0000
0000
0000
0000
0000
0001
0000
0000
0010
0000
0000
0001
0000
0000
0010
0000
0000
0001
0000
0000
0000
0010
0000
0001
0000
0000
0000
0000
0000
,
0001
0001
0000
0000
1000
0001
1000
0001
,
0010
0100
0010
0100
0000
1001
1001
0000
,
1000
0000
0010
0100
0010
0000
0010
0000
2001
0000
3001
0000
0010
0010
0100
0010
,
0100
1000
0000
1000
0000
0001
0100
0000
0102
0000
0013
0000
0100
1000
0001
0100
,
0010
1000
0000
1000
0000
0010
0100
0000
0210
0000
0310
0000
0010
1000
0001
0010
,
0001
2000
0000
3100
1000
0000
0001
0000
0021
0000
0031
1000
0000
0000
0001
0000
,
0001
0000
0100
0010
1000
0000
0001
0000
2001
0000
3100
0000
1000
0001
1000
0001
,
0100
0010
0000
1000
0000
1000
0100
0000
2001
0000
3001
0000
0100
0010
0100
1000
,
0100
0010
0000
1000
0000
0100
0010
0000
1002
0000
1003
0000
0100
0010
0100
0001
,
0100
0010
0000
0001
0100
0000
0010
0000
1010
0000
1000
0000
1000
0000
0010
0000
,
0001
0000
0000
0000
0000
0000
0000
0000
0000
0000
0000
0000
0000
0000
0000
0000
0000
0000
001M
0000
0000
0000
0000
0000
1000
0000
0000
0000
0000
0000
0000
0000
0000
0000
0000
0000
0000
0000
0000
0000
0000
0000
0010
0000
0000
0000
0000
0000
0001
0000
0000
0010
0000
0000
0001
0000
0000
0000
0000
0000
2000
0000
0000
0000
0000
0000
0001
0000
0000
0000
0000
0000
0000
0000
0000
0000
0000
0000
000M
0000
0000
0000
0000
0000
3001
0000
0000
0000
0000
0000
0000
0000
0010
0000
0000
0000
,
0002
0000
0000
2003
0000
0000
3001
0000
0000
0000
0000
0000
1000
0000
0000
0000
0010
0000
0100
0000
0000
0000
0010
0000
1000
0000
0000
1001
0000
0000
0000
0000
0000
0002
0000
0000
2003
0000
0000
0000
0000
0000
3000
0000
0000
0000
0000
0000
,
0001
0000
0100
0000
0010
0000
0100
0000
0001
0000
0100
0000
0001
0000
0010
0000
0100
0000
0010
0000
0001
0010
0001
0000
0010
0000
0100
0000
1000
0000
0001
0000
,
2000
3200
1300
0000
0000
0001
0100
0010
1000
1001
0000
2000
3002
0000
0013
0000
,
1000
0000
0000
0000
0000
0000
0000
0000
0000
0000
0000
0000
0000
0000
0000
0000
0000
0000
M010
0000
0000
0000
0000
0000
0001
0000
0000
0000
0000
0000
0000
0000
0000
0000
0000
0000
0000
0000
0000
0000
0000
0000
0010
0000
0000
0000
0000
0000
1000
0000
0000
0010
0000
0000
1000
0000
0000
0000
0000
0000
0002
0000
0000
0000
0000
0000
1000
0000
0000
0000
0000
0000
0000
0000
0000
0000
0000
0000
M000
0000
0000
0000
0000
0000
1003
0000
0000
0000
0000
0000
0000
0000
0010
0000
0000
0000
,
2000
3002
1003
0000
0001
0010
0100
0010
0001
1001
0000
2000
3002
0000
0003
0000
,
1000
0000
0000
0000
0000
0000
0100
0000
0000
0000
0000
0000
0010
0000
0000
0000
0000
0000
0100
0000
0000
0000
0000
0000
1000
0000
0000
0000
0000
0000
0010
0000
0000
0000
0000
0000
1000
0000
0000
0010
0000
0000
1000
0000
0000
0000
0000
0000
0010
0000
0000
0000
0000
0000
0000
0000
0100
0000
0000
0000
0010
0000
0000
0000
0000
0000
0000
0000
1000
0000
0000
0000
0010
0000
0000
0000
0000
0000
0000
0000
0100
0000
0000
0000
0001
0000
0000
0000
0000
0000
0000
0000
1000
0000
0000
0000
,
0002
0203
0301
0100
0010
1000
0001
0010
0100
0110
0000
0020
0230
0000
1300
0000
,
1001
0000
0000
0000
0000
0000
0000
0000
0000
1000
0000
0000
0010
0000
0000
0000
0100
0000
0010
0000
0000
0000
0100
0000
0001
0000
0000
0010
0000
0000
0100
0000
0000
1000
0000
0000
0001
0000
0000
0000
0000
0000
2000
0000
0000
3020
0000
0000
,
0000
0000
0000
0030
0000
0000
0000
0000
0000
1000
0000
0000
0100
0000
0000
0000
0010
0000
0100
0000
0000
0010
0000
0000
0001
0000
0000
0100
0000
0000
0010
0000
0000
1000
0000
0000
1020
0000
0000
0000
0000
0000
0000
0000
0000
0230
0000
0000
,
0000
0000
0000
0300
0000
0000
0000
0000
0000
0001
0000
0000
0010
0000
0000
0000
0100
0000
0010
0000
0000
0000
0001
0000
0000
0000
0000
0000
1000
0000
0000
0000
0000
0001
0000
0000
0000
0000
0000
0000
0100
0000
0010
0000
0000
0000
1000
0000
,
0000
0000
0000
0000
0001
0000
0000
0000
0000
1000
0000
0000
0000
0000
0000
0000
0010
0000
0100
0000
0000
0000
0004
0000
0000
0000
0000
0000
0103
0000
0000
0000
0000
0000
0101
0000
0000
0000
0000
2200
0000
0000
0000
0000
0000
0300
0000
0000
,
3001
0000
0000
0000
0010
0000
0100
0000
0000
0010
0000
0000
0100
0000
0000
0000
1000
0000
0001
0000
0000
0000
1000
0000
0010
0000
0000
0100
0000
0000
0001
0000
0000
0010
0000
0000
0200
0000
0000
0000
2300
0000
0000
0000
0000
0000
3100
0000
,
1000
0000
0000
0000
0010
0000
0100
0000
0000
0010
0000
0000
0100
0000
0000
0001
0000
0000
1000
0000
0000
0001
0000
0000
0010
0000
0000
0100
0000
0000
1000
0000
0000
0010
0000
0000
0200
0000
0000
0000
0302
0000
0000
0000
0000
0000
0103
0000
,
0001
0000
0000
0000
0100
0000
0010
0000
0000
0100
0000
0000
0010
0000
0000
1000
0000
0000
0001
0000
0000
0000
1000
0000
0100
0000
0000
0000
0010
0000
0001
0000
0000
0000
0100
0000
0020
0000
0000
0000
2030
0000
0010
0000
0000
0000
3010
0000
,
1000
0000
0000
0000
0100
0000
0010
0000
0000
0000
0100
0000
0010
0000
0000
0000
0001
0000
1000
0000
0000
0001
0000
0000
0100
0000
0000
0010
0000
0000
MMMM
0000
0000
0010
0000
0000
2000
0000
0000
3100
0000
0000
0020
0000
0000
0030
0000
0000
,
0010
0100
0010
0200
0000
0000
1300
0000
0000
0000
0040
0000
0130
0000
0000
0000
0100
0010
0100
0000
0010
0000
1000
0000
0000
0000
0002
0000
0103
0000
0000
0000
,
0001
0100
0001
0200
0000
0000
0301
0000
1000
0000
0000
0000
0100
0000
0000
0000
0010
0100
0010
0000
0100
0000
1000
0000
0000
0000
0001
0000
0000
MMMM
0000
0000
,
0001
0000
0100
0000
1000
0000
0000
0000
0001
0000
0010
0000
1000
0000
0000
0000
0001
0000
2000
0000
0010
3000
2000
0000
0100
0000
0000
0000
3000
0000
0000
0000
,
1000
0100
0001
0000
1000
0010
0001
1000
0002
0000
0013
0002
0103
0000
0010
0000
,
0001
0000
0000
0000
0000
0000
0000
0000
0000
0000
0000
0000
0000
0000
0000
0000
0000
0000
001M
0000
0000
0000
0000
0000
1000
0000
0000
0000
0000
0000
0000
0000
0000
0000
0000
0000
0000
0000
0000
0000
0000
0000
0010
0000
0000
0000
0000
0000
0001
0000
0000
0010
0000
0000
0001
0000
0000
0000
0000
0000
2000
0000
0000
0000
0000
0000
0001
0000
0000
0000
0000
0000
0000
0000
0000
0000
0000
0000
000M
0000
0000
0000
0000
0000
3001
0000
0000
0000
0000
0000
0000
0000
0010
0000
0000
0000
,
0002
0000
0000
2003
0000
0000
3001
0000
0000
0000
0000
0000
1000
0000
0000
0000
0100
0000
0010
0000
0000
0000
0100
0000
1000
0000
0000
1001
0000
0000
0000
0000
0000
0002
0000
0000
2003
0000
0000
0000
0000
0000
3000
0000
0000
0000
0000
0000
,
0001
0000
0010
0000
0100
0000
0010
0000
0001
0000
0010
0000
0001
0000
0100
0000
0010
0000
0100
0000
0001
0100
0001
0000
0100
0000
0010
0000
1000
0000
0001
0000
,
2000
3020
1030
0000
0000
0001
0010
0100
1000
1001
0000
2000
3002
0000
0013
0000
,
1000
0000
0000
0000
0000
0000
0000
0000
0000
0000
0000
0000
0000
0000
0000
0000
0000
0000
M010
0000
0000
0000
0000
0000
0001
0000
0000
0000
0000
0000
0000
0000
0000
0000
0000
0000
0000
0000
0000
0000
0000
0000
0010
0000
0000
0000
0000
0000
1000
0000
0000
0010
0000
0000
1000
0000
0000
0000
0000
0000
0002
0000
0000
0000
0000
0000
1000
0000
0000
0000
0000
0000
0000
0000
0000
0000
0000
0000
M000
0000
0000
0000
0000
0000
1003
0000
0000
0000
0000
0000
0000
0000
0010
0000
0000
0000
,
2000
3002
1003
0000
0001
0100
0010
0100
0001
1001
0000
2000
3002
0000
0003
0000
,
1000
0000
0000
0000
0000
0000
0010
0000
0000
0000
0000
0000
0100
0000
0000
0000
0000
0000
0010
0000
0000
0000
0000
0000
1000
0000
0000
0000
0000
0000
0100
0000
0000
0000
0000
0000
1000
0000
0000
0100
0000
0000
1000
0000
0000
0000
0000
0000
0100
0000
0000
0000
0000
0000
0000
0000
0010
0000
0000
0000
0100
0000
0000
0000
0000
0000
0000
0000
1000
0000
0000
0000
0100
0000
0000
0000
0000
0000
0000
0000
0010
0000
0000
0000
0001
0000
0000
0000
0000
0000
0000
0000
1000
0000
0000
0000
,
0002
0023
0031
0010
0100
1000
0001
0100
0010
0110
0000
0200
0320
0000
1030
0000
,
1000
0000
0100
0010
0100
0000
0100
0000
2001
0000
3001
0000
0200
0000
0310
0100
,
0010
0000
0000
1000
0000
0000
1000
0000
0001
0000
0001
0000
0010
0000
0000
0000
0012
0000
0000
0000
0103
0000
0000
0000
0010
0000
1000
0000
0001
0000
0010
0000
,
0100
0000
1000
0000
0100
0000
0010
0000
0100
0000
0000
1000
0000
0000
1000
0000
2100
0000
0000
0000
3100
0000
0000
0000
0100
0000
1000
0000
0001
1000
0001
0000
,
0100
0010
1000
0010
1000
0000
0001
0000
0102
0000
0103
0000
0010
0100
0010
1000
,
0001
0010
0100
1000
0010
0100
0001
0000
1002
0000
0023
0030
0000
0001
1000
0001
,
0010
0000
0100
0000
1000
0100
1000
0000
0100
0000
1000
0000
0001
0000
1000
0000
2001
0000
0000
0000
3001
0000
0010
0000
0100
0000
0010
0000
0001
0000
0010
0000
,
0200
1300
0010
0000
0010
0100
0010
1000
1002
0000
2003
3010
0100
0000
0010
0000
,
0010
0000
0100
0000
0001
0100
0001
0000
1000
0000
0100
0000
1000
0000
0001
0000
0100
0000
0010
0000
1000
0000
0001
0000
0010
0000
0000
0000
0010
0000
0000
0000
,
1000
0000
0000
0000
0000
0000
0000
0000
0000
0000
0000
0000
0000
0000
0000
0000
0000
0000
M010
0000
0000
0000
0000
0000
0001
0000
0000
0000
0000
0000
0000
0000
0000
0000
0000
0000
0000
0000
0000
0000
0000
0000
0010
0000
0000
0000
0000
0000
1000
0000
0000
0010
0000
0000
1000
0000
0000
0000
0000
0000
0002
0000
0000
0000
0000
0000
1000
0000
0000
0000
0000
0000
0000
0000
0000
0000
0000
0000
M000
0000
0000
0000
0000
0000
1003
0000
0000
0000
0000
0000
0000
0000
0010
0000
0000
0000
,
2000
0000
0000
3002
0000
0000
1003
0000
0000
0000
0000
0000
0001
0000
0000
0000
0010
0000
0100
0000
0000
0000
0010
0000
0001
0000
0000
1001
0000
0000
0000
0000
0000
200M
0000
0000
3002
0000
0000
0000
0000
0000
0003
0000
0000
0000
0000
0000
,
1000
0000
0100
0000
0010
0000
0100
0000
1000
0000
0100
0000
1000
0000
0010
0000
0100
0000
0010
0000
1000
0010
1000
0000
0010
0000
0100
0000
0002
0000
1000
0000
,
M000
0000
1003
0000
0000
1000
0010
0100
0001
0001
0M00
0000
2000
0000
3001
0000
,
1001
0000
0000
0000
0000
0000
0000
0000
0000
0000
0000
0000
MMMM
0000
0000
0000
0000
0000
0000
0000
0000
0000
0000
0000
1001
0000
0000
0000
0000
0000
0000
0000
0000
0000
0000
0000
0000
0000
0000
0000
0000
0000
0000
0000
0001
0000
0000
0000
0010
0000
0000
0000
0000
0000
0100
0000
0000
0000
0000
0000
1000
0000
0000
0100
0000
0000
1000
0000
0000
0000
0000
0000
0001
0000
0000
0000
0000
0000
0010
0000
0000
0000
0000
0000
0001
0000
0000
0000
0000
0000
0000
0000
0010
0000
0000
0000
,
0002
2003
3001
0100
0000
0010
0100
0010
1000
1001
0000
0002
2003
0000
3001
0000
,
0100
0000
0010
0000
0100
0000
0001
0000
0010
0000
0001
0000
0010
0001
0010
0000
1000
0000
0010
0000
0001
0000
0010
0000
0100
0000
0000
1000
0000
0000
0001
0000
,
2000
3020
1030
0010
0000
0010
1000
0100
0010
0110
0000
0020
0230
0000
0310
0000
,
0000
0000
0000
0000
;
