#TITLE:BIG ENERGY;
#SUBTITLE:;
#ARTIST:LATTO;
#CREDIT:;
#MUSIC:BIG ENERGY.ogg;
#SELECTABLE:YES;
#BACKGROUND:BIG ENERGY - bg.png;
#BANNER:BIG ENERGY.png;
#CDTITLE:;
#OFFSET:-0.384989;
#SAMPLESTART:63.745;
#SAMPLELENGTH:12.000;
#BPMS:0.000000=106.000000
;
#STOPS:;
#BGCHANGES:-0.750=BIG ENERGY.avi=1.000=0=0=0=StretchNoLoop==CrossFade_Fastest==,175.750=BIG ENERGY - bg.png=1.000=0=0=1===CrossFade_Faster==,99999=-nosongbg-=1.000=0=0=0
;

//---------------dance-single - ----------------
#NOTES:
     dance-single:
     :
     Easy:
     2:
     0.000,0.000,0.000,0.000,0.000:
0000
0000
0000
0000
,
0000
0000
0000
0000
,
0000
0000
0000
0000
,
0000
0000
0000
0000
,
1000
0000
0001
0010
,
0100
0000
1000
1000
,
0001
0000
1000
0010
,
0100
0000
0001
0001
,
0010
0000
0100
1000
,
0001
0000
1000
1000
,
0010
0000
0100
0001
,
1000
0100
0010
0100
,
0000
0000
1000
1000
,
0001
0010
1000
0100
,
0001
0000
0001
0001
,
1000
0010
0001
0100
,
1000
0000
0010
0010
,
0000
0100
0100
0000
,
0001
0010
1000
0100
,
0001
0000
1001
0000
,
0001
1000
0001
1000
,
1000
0010
0010
0100
,
0100
0001
0001
1000
,
0001
1001
0110
0000
,
0101
0000
0001
0000
,
1100
0000
1000
0000
,
0001
0100
0020
0030
,
1000
0001
0200
0300
,
0001
0000
1000
0010
,
0100
0000
0001
0001
,
1000
0000
0001
0010
,
0100
0000
1000
1000
,
0010
0000
0100
0001
,
1000
0000
0001
0001
,
0010
0000
0100
1000
,
0001
0100
0010
0100
,
0001
0010
0200
1300
,
0002
0000
0100
0103
,
1000
0010
0200
0301
,
2000
0000
0100
3100
,
0001
0100
0020
1030
,
0002
0000
0010
0013
,
1000
0100
0020
0031
,
2000
0000
0010
3010
,
1001
0000
0000
0000
,
0000
0000
0000
0000
,
0000
0000
0000
0000
,
0000
0000
0000
0000
,
0000
0000
0000
0000
;

//---------------dance-single - ----------------
#NOTES:
     dance-single:
     :
     Medium:
     5:
     0.000,0.000,0.000,0.000,0.000:
0000
0000
0000
0000
,
0000
0000
0000
0000
,
0000
0000
0000
0000
,
0000
0000
0000
0000
,
0001
0000
0010
0100
1000
0001
1000
0000
,
0010
0000
1000
0000
0001
0001
0010
0010
,
0001
0000
1000
0010
0100
0001
1000
0100
,
1000
0000
0001
0010
0001
1000
0010
0100
,
0001
0000
1000
0100
1000
0001
0100
0000
,
1001
0000
0001
0100
0001
1000
0100
0000
,
1001
0000
0001
0010
0100
1000
0001
0100
,
0001
0000
1000
1000
0010
0010
0100
0001
,
0000
0000
0000
0000
0010
1000
0100
0000
,
0010
0001
1000
0001
0100
0000
0001
1000
,
0010
0000
0010
1000
0001
1000
0100
0000
,
1000
0010
0100
0001
0100
0000
0001
1000
,
0100
0000
0000
1000
0010
0100
0002
0000
,
0003
1000
0100
0010
0002
0000
0003
1000
,
0010
1000
0001
0000
0010
0001
1000
0001
,
0000
1000
0001
0100
0010
0100
0000
0000
,
0000
0000
1000
0010
0100
0000
0001
0001
,
0010
0010
0100
0100
1000
0000
0001
0010
,
0100
0000
1000
0001
0100
0000
0001
0000
,
0101
0000
1000
0100
0010
0000
1001
0000
,
1001
0110
1001
0000
,
0101
1000
1100
0000
,
0100
1000
0010
0000
0010
1000
0100
0000
,
0010
0001
1001
1001
,
1000
0000
0010
0100
0001
1000
0001
0000
,
0010
0000
0001
0000
1000
1000
0010
0010
,
1000
0000
0001
0010
0100
1000
0001
0100
,
0001
0000
1000
0010
1000
0001
0010
0100
,
1000
0000
0001
0100
0001
1000
0100
0000
,
1001
0000
1000
0100
1000
0001
0100
0000
,
1001
0000
1000
0010
0100
0001
1000
0100
,
1000
0000
0001
0001
0010
0010
0100
1000
,
0100
0000
0010
0001
0200
0000
0302
0000
,
2003
0000
3001
0010
0100
1000
0001
0000
,
0100
0000
0010
1000
0200
0000
2300
0000
,
3002
0000
0103
0010
1000
0000
0001
0010
,
0100
0000
0010
0001
0200
0000
0302
0000
,
2003
0000
3001
0010
0100
1000
0001
0000
,
0100
0000
0010
1000
0200
0000
2300
0000
,
3002
0000
0103
0010
1000
0000
0001
0010
,
0100
0000
0000
0000
,
0000
0000
0000
0000
,
0000
0000
0000
0000
,
0000
0000
0000
0000
,
0000
0000
0000
0000
;

//---------------dance-single - ----------------
#NOTES:
     dance-single:
     :
     Hard:
     7:
     0.000,0.000,0.000,0.000,0.000:
0000
0000
0000
0000
,
0000
0000
0000
0000
,
0000
0000
0000
0000
,
0000
0000
0000
0000
,
0010
0001
0000
0000
1000
0000
0010
0000
2000
0000
0000
3001
0000
0000
1000
0000
,
0010
0100
0000
0000
0001
0000
1000
0000
0010
0000
0010
0000
0010
0100
0010
0000
,
0100
0001
0000
0000
1000
0000
0100
0000
2000
0000
0000
3001
0000
0000
1000
0000
,
0010
0100
0000
0000
0001
0000
0010
0000
0001
0100
0001
0000
1000
0100
1000
0000
,
0010
1000
0000
0000
0001
0000
0100
0000
0002
0000
0000
1003
0000
0000
0001
0000
,
0010
0100
0000
0000
1000
0000
0010
0000
1000
0000
0100
0000
0010
0001
0010
0000
,
0100
1000
0000
0000
0001
0000
0100
0000
0002
0000
0000
1003
0000
0000
0001
0000
,
0010
0100
0000
0000
1000
0000
1000
0000
0001
0000
0001
0000
0100
0010
0100
0000
,
0000
0000
0000
0000
0010
1000
1100
0000
,
0010
0001
1000
0001
0101
0000
0001
1000
,
0100
0000
0010
0001
1000
0100
1001
0000
,
0010
1000
0001
0100
1001
0000
0100
1000
,
0001
0000
0000
1000
0010
0100
0001
0001
,
0000
0001
0010
0100
1000
1000
0000
0001
,
0100
0100
0010
0010
1000
0100
0010
0001
,
0000
1000
0001
0100
0110
1001
0000
0000
,
0100
0000
0000
0000
0001
0000
0010
0100
1000
0000
0000
0000
0001
0000
0001
0000
,
1000
0000
1000
0010
0100
0000
0100
0000
0001
0000
0000
0000
1000
0000
0100
0000
,
0010
0100
1000
0001
0010
0000
0001
0100
,
0010
0000
0100
0000
0001
1000
0010
0000
1010
0000
0000
0000
0110
0000
0000
0000
,
1001
1000
1100
0001
0101
0000
0000
0001
,
0011
0000
1000
0000
1010
0000
0100
1000
0100
0000
0000
0000
0000
0000
0010
0000
,
0001
0000
1000
0000
0010
0000
1000
0000
0002
0000
0000
0013
0000
0000
0001
0100
,
0001
0000
1000
0100
1000
0000
0010
0000
0100
0001
0000
1000
0000
0000
0000
0000
,
0010
1000
0000
0000
0001
0000
0010
0000
0002
0000
0000
1003
0000
0000
0001
0000
,
0010
0100
0000
0000
1000
0000
0001
0000
0010
0000
0010
0000
0010
0100
0010
0000
,
0100
1000
0000
0000
0001
0000
0100
0000
0002
0000
0000
1003
0000
0000
0001
0000
,
0010
0100
0000
0000
1000
0000
0010
0000
1000
0100
1000
0000
0001
0100
0001
0000
,
0010
0001
0000
0000
1000
0000
0100
0000
2000
0000
0000
3001
0000
0000
1000
0000
,
0010
0100
0000
0000
0001
0000
0010
0000
0001
0000
0100
0000
0010
1000
0010
0000
,
0100
0001
0000
0000
1000
0000
0100
0000
2000
0000
0000
3001
0000
0000
1000
0000
,
0010
0100
0000
0000
0001
0000
0001
0000
1000
0000
1000
0000
0100
0010
0100
0000
,
1000
0100
0000
0000
0010
0000
0001
0000
0200
0000
0000
0301
0000
0000
1000
0000
,
0001
0100
0000
0000
0010
0000
1000
0000
0100
0000
1000
0000
0001
0000
0000
0000
,
0001
0100
0000
0000
0010
0000
1000
0000
0200
0000
0000
1300
0000
0000
0001
0000
,
1000
0100
0000
0000
0010
0000
0001
0000
0100
0000
0000
0001
0000
1000
0010
1000
,
0001
0100
0000
0000
0010
0000
1000
0000
0200
0000
0000
1300
0000
0000
0001
0000
,
1000
0100
0000
0000
0010
0000
0001
0000
0100
0000
0001
0000
1000
0000
0000
0000
,
1000
0100
0000
0000
0010
0000
0001
0000
0200
0000
0000
0301
0000
0000
1000
0000
,
0001
0100
0000
0000
0010
0000
1000
0000
0100
0000
0000
1000
0000
0001
0010
0001
,
1000
0100
0000
0000
0000
0000
0000
0000
0000
0000
0000
0000
0000
0000
0000
0000
,
0000
0000
0000
0000
,
0000
0000
0000
0000
,
0000
0000
0000
0000
,
0000
0000
0000
0000
;

//---------------dance-single - ----------------
#NOTES:
     dance-single:
     :
     Challenge:
     9:
     0.000,0.000,0.000,0.000,0.000:
0000
0000
0000
0000
,
0000
0000
0000
0000
,
0000
0000
0000
0000
,
0000
0000
0000
0000
,
1000
0001
0000
0000
0101
0000
1100
0000
1000
0001
0100
0001
1000
0010
1000
0000
,
0010
0100
0001
0100
0001
1000
0001
0000
0011
0000
0011
0000
0010
0100
0010
0000
,
0010
0100
0000
1000
0010
0100
0001
0100
0001
0010
0100
1000
0001
1000
0001
0000
,
0010
0100
1000
0001
0010
0000
0010
0100
1000
0010
0100
0001
1000
0001
1000
0000
,
0100
0000
0000
0010
0000
0000
0001
0000
0000
1000
0000
0000
0001
0000
0000
0000
0000
0000
0001
0000
0000
0100
0000
0000
0010
0000
0000
0100
0000
0000
0001
0000
0000
1000
0000
0000
0200
0000
0000
0000
0310
0000
0001
0000
0000
0000
0000
0000
,
0100
0000
0000
0010
0000
0000
0100
0000
0000
0010
0000
0000
1000
0000
0000
0000
0000
0000
0010
0000
0000
0000
0000
0000
1000
0000
0000
0010
0000
0000
0100
0000
0000
0010
0000
0000
2000
0000
0000
0000
3001
0000
1000
0000
0000
0000
0000
0000
,
0100
0010
0000
0010
0001
1000
0001
1000
0001
0010
0100
0010
0001
0010
0100
0000
,
0010
0100
0000
0000
1100
0000
0101
0000
0001
0010
0100
1000
0100
0010
0100
0000
,
0000
0000
0000
0000
0000
0000
0000
0000
0000
0000
0000
0000
0000
0000
0000
0000
0000
0000
0000
0000
0000
0000
0000
0000
1000
0000
0000
0010
0000
0000
0100
0000
0000
0010
0000
0000
2000
0000
0000
0000
3010
0000
0000
0000
0000
0000
0000
0000
,
0100
0000
0100
0000
0100
0010
0100
0000
0100
0001
0000
0000
0001
0010
0100
0000
,
0100
0010
0000
0000
0011
0000
1100
0000
1000
0100
0010
0001
1000
0001
1000
0010
,
0100
0001
1000
0001
0020
0000
0130
0000
1000
0100
0000
0000
0100
1000
0100
0000
,
2000
0000
0000
0000
3001
0000
0000
0000
0000
0000
0000
0000
0000
0000
0000
0000
0000
0000
1000
0000
0000
0001
0000
0000
2000
0000
0000
0000
0000
0000
3010
0000
0000
0000
0000
0000
0100
0000
0000
0010
0000
0000
0100
0000
0000
0000
0000
0000
,
0000
0100
0010
0000
0010
0000
0010
1000
0010
1000
0001
0000
0000
0000
0001
0100
,
0001
0000
0100
0000
0010
0000
0010
0100
0001
0100
0010
0100
0001
0100
0010
0000
,
0000
0000
1000
0100
0010
0000
0100
0000
1000
0001
1000
0000
0010
0100
0010
0000
,
0110
0000
0000
0100
0001
0000
0010
0100
1000
0000
1100
0000
0001
0000
0001
0000
,
1000
0000
1000
0010
0100
0000
0100
0000
0001
0000
0101
0000
1000
0100
1000
0100
,
1000
0000
0100
0010
0001
0000
0011
0000
0110
0000
0100
0010
0001
0000
0100
0000
,
0010
0000
0100
0000
0001
1000
0010
0000
1010
0000
0000
0000
0010
1000
0010
1000
,
1001
0000
1000
0000
1100
0100
1000
0000
0201
0000
0000
0000
0000
0000
0301
0000
,
0010
0001
0010
0001
1000
0000
0100
1000
0200
0000
0000
0000
0000
0000
0310
0001
,
0010
0000
0100
0000
1000
0000
0100
0000
0010
0000
0000
0000
0010
0000
0001
0000
1000
0000
0000
1000
0000
0000
1000
0000
0000
0000
0000
0000
0001
0000
0100
0000
,
0001
0000
1001
0000
MMMM
0000
0001
0010
0002
2000
0000
0010
0000
0000
3003
0000
,
0001
1000
0000
0000
1100
0000
0101
0000
0001
1000
0100
1000
0001
0010
0001
0000
,
0010
0100
1000
0100
1000
0001
1000
0000
1010
0000
1010
0000
0010
0100
0010
0000
,
0010
0100
0000
0001
0010
0100
1000
0100
1000
0010
0100
0001
1000
0001
1000
0000
,
0010
0100
0001
1000
0010
0000
0010
0100
0001
0010
0100
1000
0001
1000
0001
0000
,
0100
0000
0000
0010
0000
0000
1000
0000
0000
0001
0000
0000
1000
0000
0000
0000
0000
0000
1000
0000
0000
0100
0000
0000
0010
0000
0000
0100
0000
0000
1000
0000
0000
0001
0000
0000
0200
0000
0000
0000
0310
0000
1000
0000
0000
0000
0000
0000
,
0100
0000
0000
0010
0000
0000
0100
0000
0000
0010
0000
0000
0001
0000
0000
0000
0000
0000
0010
0000
0000
0000
0000
0000
0001
0000
0000
0010
0000
0000
0100
0000
0000
0010
0000
0000
0002
0000
0000
0000
1003
0000
0001
0000
0000
0000
0000
0000
,
0100
0010
0000
0010
1000
0001
1000
0001
1000
0010
0100
0010
1000
0010
0100
0000
,
0010
0100
0000
0000
0101
0000
1100
0000
1000
0010
0100
0001
0100
0010
0100
0000
,
1000
0100
0000
0000
0010
0000
0010
0000
0200
0000
0000
0301
0000
0000
0001
0000
,
1000
0100
0000
0000
0010
0000
0010
0000
0100
0000
0100
0000
1000
0000
1000
0010
,
0001
0010
0000
0000
0100
0000
0001
0000
0200
0000
0000
0301
0000
0000
1000
0000
,
0001
0100
0000
0000
0010
0000
0010
0000
0100
0000
0100
0010
1000
0001
1000
0100
,
0001
0100
0000
0000
0010
0000
0010
0000
0200
0000
0000
1300
0000
0000
1000
0000
,
0001
0100
0000
0000
0010
0000
0010
0000
0100
0000
0100
0000
0001
0000
0001
0010
,
1000
0010
0000
0000
0100
0000
1000
0000
0200
0000
0000
1300
0000
0000
0001
0000
,
1000
0100
0000
0000
0010
0000
0010
0000
0100
0000
0100
0010
0001
1000
0001
0100
,
1000
0100
0000
0000
0000
0000
0000
0000
0000
0000
0000
0000
0000
0000
0000
0000
,
0000
0000
0000
0000
,
0000
0000
0000
0000
,
0000
0000
0000
0000
,
0000
0000
0000
0000
;
