#TITLE:Big Energy (remix);
#SUBTITLE:with one line from DJ Khaled;
#ARTIST:Latto, Mariah Carey;
#TITLETRANSLIT:;
#SUBTITLETRANSLIT:;
#ARTISTTRANSLIT:;
#GENRE:Pop;
#CREDIT:Vndt;
#MUSIC:BigEnergyRemix.ogg;
#BANNER:BigEnergyRemix_bn.png;
#BACKGROUND:BigEnergyRemix_bg.png;
#CDTITLE:777;
#SAMPLESTART:67.924;
#SAMPLELENGTH:18.113;
#SELECTABLE:YES;
#OFFSET:0.000;
#BPMS:0.000=106.001
,23.000=105.997
,24.000=106.001
,27.000=105.997
,28.000=106.001
,31.000=105.997
,32.000=106.001
,35.000=105.997
,36.000=106.001
,39.000=105.997
,40.000=106.001
,42.000=105.997
,43.000=106.001
,46.000=105.997
,47.000=106.001
,50.000=105.997
,51.000=106.001
,54.000=105.997
,55.000=106.001
,58.000=105.997
,59.000=106.001
,62.000=105.997
,63.000=106.001
,66.000=105.997
,67.000=106.001
,70.000=105.997
,71.000=106.001
,74.000=105.997
,75.000=106.001
,78.000=105.997
,79.000=106.001
,82.000=105.997
,83.000=106.001
,86.000=105.997
,87.000=106.001
,90.000=105.997
,91.000=106.001
,94.000=105.997
,95.000=106.001
,98.000=105.997
,99.000=106.001
,102.000=105.997
,103.000=106.001
,106.000=105.997
,107.000=106.001
,110.000=105.997
,111.000=106.001
,114.000=105.997
,115.000=106.001
,118.000=105.997
,119.000=106.001
,122.000=105.997
,123.000=106.001
,126.000=105.997
,127.000=106.001
,130.000=105.997
,131.000=106.001
,134.000=105.997
,135.000=106.001
,138.000=105.997
,139.000=106.001
,142.000=105.997
,143.000=106.001
,146.000=105.997
,147.000=106.001
,150.000=105.997
,151.000=106.001
,154.000=105.997
,155.000=106.001
,158.000=105.997
,159.000=106.001
,162.000=105.997
,163.000=106.001
,166.000=105.997
,167.000=106.001
,169.000=105.997
,170.000=106.001
,171.000=105.997
,172.000=106.001
,173.000=105.997
,174.000=106.001
,175.000=105.997
,176.000=106.001
,177.000=105.997
,178.000=106.001
,179.000=105.997
,180.000=106.001
,181.000=105.997
,182.000=106.001
,183.000=105.997
,184.000=106.001
,185.000=105.997
,186.000=106.001
,187.000=105.997
,188.000=106.001
,189.000=105.997
,190.000=106.001
,191.000=105.997
,192.000=106.001
,193.000=105.997
,194.000=106.001
,195.000=105.997
,196.000=106.001
,197.000=105.997
,198.000=106.001
,199.000=105.997
,200.000=106.001
,201.000=105.997
,202.000=106.001
,203.000=105.997
,204.000=106.001
,205.000=105.997
,206.000=106.001
,207.000=105.997
,208.000=106.001
,209.000=105.997
,210.000=106.001
,211.000=105.997
,212.000=106.001
,213.000=105.997
,214.000=106.001
,215.000=105.997
,216.000=106.001
,217.000=105.997
,218.000=106.001
,219.000=105.997
,220.000=106.001
,221.000=105.997
,222.000=106.001
,223.000=105.997
,224.000=106.001
,225.000=105.997
,226.000=106.001
,227.000=105.997
,228.000=106.001
,229.000=105.997
,230.000=106.001
,231.000=105.997
,232.000=106.001
,233.000=105.997
,234.000=106.001
,235.000=105.997
,236.000=106.001
,237.000=105.997
,238.000=106.001
,239.000=105.997
,240.000=106.001
,241.000=105.997
,242.000=106.001
,243.000=105.997
,244.000=106.001
,245.000=105.997
,246.000=106.001
,247.000=105.997
;
#STOPS:;
#BGCHANGES:;
#FGCHANGES:;

//--------------- dance-single - ----------------
#NOTES:
     dance-single:
     :
     Beginner:
     2:
     0,0,0,0,0:
0000
0000
0000
0000
,
0000
0000
0000
0000
,
0000
0000
0000
0000
,
0000
0000
0000
0000
,
0001
0000
0000
0000
,
1000
0000
0002
0000
,
0003
1001
0000
1000
,
0000
0000
0000
0000
0100
0100
0200
0000
,
0300
0000
1000
1000
,
0000
0000
0010
0010
,
0000
0100
0100
0000
,
0000
0001
0001
0000
,
0000
0000
1000
1000
,
0000
1001
0000
0001
,
0010
0000
0010
0000
,
0100
0100
0000
1000
,
0000
0000
0010
2000
,
0000
0000
0000
0000
0000
0000
0000
3000
0000
0000
0000
0000
1000
0000
0000
0000
,
0010
0000
0010
0000
,
0100
0100
0000
0001
,
0000
0000
0010
0002
,
0000
0000
0000
0000
0000
0000
0000
0003
0000
0000
0000
0000
0000
0000
0000
0000
,
0001
0001
0010
0000
,
0001
0000
0100
0000
,
0010
0000
0000
0000
1000
0000
0000
0220
,
0000
0000
0000
0000
0000
0000
0000
0000
0000
0000
0000
0330
0000
0000
0000
0000
,
1001
0000
0001
0000
0200
0000
0000
0300
,
0001
0000
0001
0000
0020
0000
0000
0030
,
0000
0000
0000
0000
0100
0000
0000
0000
2000
0000
0000
3000
0000
0000
0010
0000
,
0000
0100
0000
0000
0110
0000
0000
0000
,
0000
1001
0000
0001
,
0000
0000
0000
0000
0100
0100
0200
0000
,
0300
0000
0001
0001
,
0000
0000
0010
0010
,
0000
0100
0100
0000
,
0000
1000
0001
0000
,
0000
0000
0001
1000
,
0000
1001
0000
1000
,
0000
0000
1000
0000
,
0010
0010
0010
0000
1000
0000
0000
0000
,
0020
0000
0030
0000
0000
0000
0000
0000
0000
0000
0000
0000
0010
0000
0000
0000
0000
0000
0200
0000
0000
0300
0000
0000
,
0000
0000
0000
0001
0000
0000
0002
0003
0000
0000
0000
0000
,
0010
0000
0100
0100
,
0000
1000
0000
0010
,
0010
0000
1000
0000
,
1001
0000
0010
0000
,
1001
0000
1000
0000
0200
0000
0000
0300
,
1000
0000
0001
0000
0020
0000
0000
0030
,
0000
0000
0001
0000
1000
0000
0000
0010
,
0000
0100
0000
0000
0110
0000
0000
0000
,
0000
0002
0000
0000
,
0023
0000
0000
0030
0001
0000
0100
0000
,
0000
0000
0100
0000
0220
0000
M000
0330
,
0200
0000
0000
0000
0310
0010
0010
0000
,
0000
2000
0000
0000
,
3020
0000
0000
0030
1000
0000
0100
0000
,
0000
0000
0100
0000
0220
0000
000M
0330
,
0200
0000
0000
0000
0310
0010
0010
0000
,
0000
0000
0001
0000
,
0100
0000
0010
0000
,
0010
0000
0000
0000
;

//--------------- dance-single - ----------------
#NOTES:
     dance-single:
     :
     Easy:
     6:
     0,0,0,0,0:
0000
0000
0000
0000
,
0000
0000
0000
0000
,
0000
0000
0000
0000
,
0000
0000
0000
4000
0000
0000
0000
3000
,
0010
0000
0000
0000
0000
0000
0200
0000
0000
0000
0000
0300
0000
0000
0000
0000
,
0000
0020
0000
0030
1002
0000
0000
0000
,
0013
0000
0001
0001
1000
0000
0020
0030
,
0100
0000
0001
0000
0100
0001
0102
0000
,
0013
0000
0010
0000
0001
0000
1000
1000
,
0100
0000
0010
0000
0010
0000
0001
0001
,
0010
0000
0002
0003
0100
0000
0010
0010
,
0100
0000
0110
0000
0001
0000
1000
1000
,
0010
0000
1000
0000
0100
0000
0010
0010
,
0100
0000
1000
1000
0001
0000
0010
0010
,
0001
0000
1000
0000
0001
1000
0020
0030
,
0100
0000
0100
0000
0100
0010
1000
0000
,
0010
0010
0010
2000
,
0000
0000
0000
0000
0000
0000
0000
3000
0000
0000
0000
0000
0001
0000
0000
0000
,
1001
0000
1000
0000
1000
0001
0020
0030
,
0100
0000
0100
0000
0100
0010
0001
0000
,
0010
0000
0010
0000
0010
0000
0001
0020
,
0000
0000
0000
0030
0001
0000
0100
0000
,
0110
0210
0000
0310
,
1000
0010
1000
0001
,
0010
0010
0001
0000
1000
0001
0000
0220
,
0000
0000
0000
0000
0000
0000
0000
0000
0000
0000
0000
0330
0000
0000
0000
0000
,
1001
0000
0001
0001
0200
0000
0000
0300
,
0001
0010
M001
0000
0020
0000
0000
0030
,
0100
0000
0000
0000
0100
0000
0000
0000
2000
0000
0000
3000
0000
0000
0020
0000
,
0000
0200
0000
0000
1000
0000
0000
0330
,
0010
0000
1000
1000
0001
0000
0020
0030
,
0100
0000
1000
0000
0100
1000
2100
0000
,
3010
0000
0010
0000
1000
0000
0001
0001
,
0100
0000
0010
0000
0010
0000
1000
1000
,
0010
0000
2000
3000
0100
0000
0010
0010
,
0100
0000
0110
0000
1000
0000
0001
0001
,
0010
0000
0001
0000
0100
0000
0010
0010
,
0100
0000
0001
0001
1000
0000
0010
0010
,
0000
0000
1000
0100
,
0010
0010
0010
0000
0001
0000
0100
0000
,
0020
0000
0030
0000
0000
0000
1000
0000
0000
0000
0000
0000
0010
0000
0000
0000
0000
0000
0200
0000
0000
0300
0000
0000
,
0010
0000
0000
1000
0000
0000
0002
0003
0000
0001
0000
0000
,
0100
0100
0110
1001
,
0001
0001
0010
0110
,
1001
1000
1000
0100
,
0110
0000
0001
0000
0010
0010
0000
0000
,
1001
0000
1000
1000
0200
0000
0000
0300
,
1000
0010
100M
0000
0020
0000
0000
0030
,
0100
0000
0000
0000
0100
0000
0000
0000
0002
0000
0000
0003
0000
0000
0010
0000
,
0000
0100
0000
0000
0110
0000
0000
0000
,
0010
0002
0000
0000
,
0023
0000
0000
0030
0001
0000
0100
0100
,
0010
0000
0100
0000
0220
0000
M000
0330
,
0100
0000
0001
0001
0100
0100
0010
0000
,
0010
2000
0000
0000
,
3020
0000
0000
0030
1000
0000
0100
0100
,
0010
0000
0100
0000
0220
0000
000M
0330
,
0100
0000
1000
1000
0100
0100
0010
0000
,
0010
0000
0000
0001
0001
0000
0000
0000
,
0100
0000
0000
0010
0010
0010
0000
0000
,
0010
0000
0000
0000
;

//--------------- dance-single - ----------------
#NOTES:
     dance-single:
     :
     Medium:
     10:
     0,0,0,0,0:
0000
0000
0000
0000
,
0000
0000
0000
0000
,
0000
0000
0000
0000
,
0000
0000
0000
4000
0000
0000
0000
3000
,
0010
0000
0000
0000
1000
0000
0200
0000
0320
0000
0000
0030
0000
0000
0000
0000
,
0100
0010
0001
1000
1002
0000
0000
0000
,
0013
0000
0001
1100
1000
0100
1000
0001
,
0100
0100
0001
1000
1100
0011
0010
0001
,
0010
0000
0001
0100
1000
0100
0001
0100
,
0100
0001
1000
0001
0010
0001
1000
0010
,
0010
0100
0002
0103
0010
1000
0200
1300
,
0100
0010
0110
0010
0001
0100
0020
1030
,
0010
0000
0001
0010
1000
0010
0001
0010
,
0100
0000
0110
1001
0001
0100
0010
1000
,
1010
0000
0012
1003
0001
0100
0020
0130
,
0001
0010
0100
1000
0100
1000
1002
0103
,
0010
0100
0010
0100
0010
1000
0001
2000
,
3400
0000
0000
0300
0000
0000
1000
0010
,
0011
0000
2010
3001
1000
0100
0020
0130
,
1000
0010
0100
0001
0100
0001
2001
3100
,
0010
0100
0010
0100
0010
0001
1000
0002
,
0403
0000
0000
0300
0001
0010
0100
0010
,
0110
1000
0100
0010
0100
0100
0010
0100
,
1000
1000
0010
0100
0001
0010
0001
1000
,
0010
0000
0010
0000
0100
0000
0001
0000
0010
0000
0010
0000
0000
0000
0200
0020
,
0000
0000
0000
0000
0000
0000
0000
0000
0000
0000
0000
0330
0001
0000
0100
0000
,
0001
1010
1001
0001
0200
0000
0000
0301
,
0001
0010
M001
0010
0020
0000
0000
0130
,
1000
0000
0010
0000
0100
0000
0010
0000
2000
0000
0000
3000
0000
0000
0100
0000
,
0010
0110
MMMM
0002
2000
0020
0030
0003
,
3010
0000
1000
0101
0001
0100
0001
1000
,
0100
0100
1000
0001
0101
1010
0010
1000
,
0010
0000
1000
0100
0001
0100
1000
0100
,
0100
1000
0001
1000
0010
1000
0001
0010
,
0010
0100
2000
3100
0010
0001
0200
0301
,
0100
0010
0110
0010
1000
0100
0020
0031
,
0010
0000
1000
0010
0001
0010
1000
0010
,
0100
0000
0110
1001
1000
0100
0010
0001
,
0001
0000
0001
0000
1000
0100
0010
0000
,
0010
0000
0010
0000
0011
0000
0001
0000
0040
0000
0000
0030
0001
0000
0100
0000
,
0020
0000
0030
0000
0000
0000
1000
0000
0000
1010
0000
0000
0010
0000
0000
1000
0000
0000
0200
0000
0000
1300
0000
0000
,
1000
0000
0000
0010
0000
0000
0010
0000
0000
0100
0000
0000
0002
0000
0003
0000
0000
0000
0001
0000
0000
0010
0000
0000
,
0100
0000
0100
0010
0110
1001
1100
0101
,
0001
1000
0002
1003
0010
0100
0110
1001
,
0101
1100
1000
0001
1000
0010
0100
0100
,
0110
1000
1000
0010
0200
0301
1000
0100
,
1000
0011
1001
1000
0200
0000
0000
1300
,
0100
0010
M001
0010
0020
0000
0000
0031
,
0001
0000
0010
0000
0100
0000
0010
0000
0002
0000
0000
0003
0000
0000
0100
0000
,
0010
0110
MMMM
1000
2001
0000
0000
3000
,
0010
0100
0000
0000
0002
0000
0000
0000
0200
0000
0003
0000
2000
0000
0300
0000
,
0020
3000
0000
0030
0001
0010
0001
0100
,
0010
0100
0000
0000
0001
0000
0010
0000
0220
0000
0000
0000
000M
0000
0330
0000
,
0100
0010
0000
0000
0001
0000
0001
0000
0101
0000
1010
0000
1000
0000
0001
0000
,
0010
0100
0000
0000
2000
0000
0000
0000
0200
0000
3000
0000
0002
0000
0300
0000
,
0020
0003
0000
0030
1000
0010
1000
0100
,
0010
0100
0000
0000
1000
0000
0010
0000
0220
0000
0000
0000
M000
0000
0330
0000
,
0100
0010
0000
0000
1000
0000
1000
0000
1100
0000
0011
0000
0001
0000
1000
0000
,
0001
1000
0000
0001
0000
0000
0001
0000
0001
0000
0000
0100
0000
0000
0001
0000
,
1000
0001
0000
1000
0000
0000
0010
0000
0010
0000
0100
0000
0100
0000
0000
0000
,
0001
1000
0000
0000
0000
0000
0000
0000
0000
0000
0000
0000
0000
0000
0000
0000
;

//--------------- dance-single - ----------------
#NOTES:
     dance-single:
     :
     Hard:
     13:
     0,0,0,0,0:
0000
0000
0000
0000
,
0000
0000
0000
0000
,
0000
0000
0000
0000
,
0000
0000
0000
0000
0000
0000
0001
0100
0001
1000
0100
0010
0002
0000
0000
0000
,
0013
0100
0000
0000
1000
0000
0200
0000
0320
0000
0000
0031
0000
0000
0100
0000
,
0100
0010
1000
0001
0100
0010
1000
0000
1000
0002
0000
0000
0000
0000
0000
0000
,
0013
0100
0000
0000
1100
0000
0101
0000
1000
0001
0100
0001
1000
0010
1000
0000
,
0100
0010
0001
0010
0001
1000
0010
0000
0101
0000
1010
0000
0010
0100
0010
0000
,
0010
0100
0000
0100
0001
0010
0001
0100
0001
0010
0001
0100
0001
0010
0001
0000
,
0100
0010
1000
0001
1000
0000
1000
0100
1000
0001
1000
0100
1000
0100
0010
0000
,
0010
0000
0000
0100
0000
0000
0010
0000
0000
0001
0000
0000
0010
0000
0000
0000
0000
0000
0010
0000
0000
0001
0000
0000
0100
0000
0000
0000
0010
0000
0100
0000
0000
0000
0001
0000
0200
0000
0000
0000
0310
0000
0100
0000
0000
0000
0000
0000
,
0100
0000
0000
0010
0000
0000
0100
0000
0000
0001
0000
0000
0101
0000
0000
0000
0000
0000
2100
0000
0000
0000
0000
0000
3010
0000
0000
0000
0100
0000
0010
0000
0000
0000
1000
0000
0020
0000
0000
0000
0130
0000
0010
0000
0000
0000
0000
0000
,
0010
0100
0000
0100
0001
0010
0001
0100
0001
0010
0001
0100
0001
0010
0001
0000
,
0100
0010
0000
0000
1010
0000
0011
0000
0001
0010
0001
0010
0100
0010
0001
0000
,
0110
0000
0000
0000
1002
0000
0103
0000
0001
0010
0100
0000
0020
0000
0130
0000
,
1000
0000
0010
0000
1000
0000
0100
0000
0100
0010
0001
0000
1002
0000
0103
0000
,
0010
0000
0100
0000
0010
0000
0100
0000
0010
0100
0001
0000
0001
0000
2000
0000
,
3200
0320
0230
2300
0000
0000
3001
0000
0000
0000
0000
0000
0001
0000
0010
0000
,
0110
0000
0000
0000
2001
0000
3100
0000
1000
0010
0100
0000
0020
0000
0130
0000
,
0001
0000
0010
0000
0001
0000
0100
0000
0100
0010
1000
0000
2001
0000
3100
0000
,
0010
0000
0100
0000
0010
0000
0100
0000
0010
0100
1000
0000
1000
0000
0002
0000
,
0203
0320
0230
0302
0000
0000
1003
0000
1000
0000
0010
0000
0100
0000
0010
0000
,
0110
0000
1000
0010
0100
0001
0100
0000
0010
0000
0010
0000
0100
0001
0100
0000
,
1010
0000
0010
0000
1000
0000
0010
0000
0101
0000
0100
0000
0001
0010
0100
1000
,
0100
0010
0100
0000
0100
0010
0001
1000
0001
0000
1001
0000
0000
0000
0200
0020
,
0000
0000
0000
0000
0000
0000
0000
0000
0000
0000
0000
0330
0001
0100
0010
0100
,
0001
0000
1010
0000
1001
0001
0100
0000
0200
0000
0000
0000
0000
0000
0301
0000
,
0001
0010
0100
0010
0001
0000
0010
0001
0020
0000
0000
0000
0000
0000
0130
1000
,
0100
0000
0010
0000
0001
0000
0010
0000
0100
0000
0000
0000
0100
0000
1000
0000
0001
0000
0000
0001
0000
0000
0001
0000
0000
0000
0000
0000
0001
0000
0100
0000
,
0010
0000
1000
0000
1001
0000
0001
0100
0010
0100
0000
0220
0000
0000
0330
0000
,
0010
0100
0000
0000
0101
0000
1100
0000
0001
1000
0100
1000
0001
0010
0001
0000
,
0100
0010
1000
0010
1000
0001
0010
0000
1100
0000
0011
0000
0010
0100
0010
0000
,
0010
0100
0000
0100
1000
0010
1000
0100
1000
0010
1000
0100
1000
0010
1000
0000
,
0100
0010
0001
1000
0001
0000
0001
0100
0001
1000
0001
0100
0001
0100
0010
0000
,
0010
0000
0000
0100
0000
0000
0010
0000
0000
1000
0000
0000
0010
0000
0000
0000
0000
0000
0010
0000
0000
1000
0000
0000
0100
0000
0000
0000
0010
0000
0100
0000
0000
0000
1000
0000
0200
0000
0000
0000
0310
0000
0100
0000
0000
0000
0000
0000
,
0100
0000
0000
0010
0000
0000
0100
0000
0000
1000
0000
0000
1100
0000
0000
0000
0000
0000
0102
0000
0000
0000
0000
0000
0013
0000
0000
0000
0100
0000
0010
0000
0000
0000
0001
0000
0020
0000
0000
0000
0130
0000
0010
0000
0000
0000
0000
0000
,
0010
0100
0000
0100
1000
0010
1000
0100
1000
0010
1000
0100
1000
0010
1000
0000
,
0100
0010
0000
0000
0011
0000
1010
0000
1000
0010
1000
0010
0100
0010
1000
0000
,
0001
0000
0000
0000
0000
0000
0000
0000
0000
0000
0000
0000
0001
0000
0000
0000
0000
0000
0000
0000
0000
0000
0000
0000
1000
0000
0000
0100
0000
0000
0010
0000
0000
0001
0000
0000
2000
0000
0000
0000
3100
0000
0000
0000
0000
0000
0000
0000
,
0010
0000
0010
0000
0011
0000
0001
1000
0040
0400
0000
0030
0301
1000
0010
0000
,
0020
0000
0000
0000
0130
0000
0000
0000
0000
0000
0000
0000
0110
0000
0000
0000
0000
0000
1001
0000
0000
0001
0000
0000
0010
0000
0000
0100
0000
0000
1000
0000
0000
0000
0000
0000
0200
0000
0000
0000
0000
0000
1300
0000
0000
0010
0000
0000
,
1000
0000
0000
0000
0000
0000
0010
0000
0000
0000
0000
0000
0010
0000
0000
0100
0000
0000
0010
0000
0000
0100
0000
0000
0002
0000
0000
0000
0013
0000
0000
0000
0000
0000
0000
0000
0001
0000
0000
0010
0000
0000
0100
0000
0000
1000
0000
0000
,
0020
0000
0000
0000
0130
0000
0000
0000
0000
0000
0000
0000
0100
0000
0000
0010
0000
0000
0100
0000
0000
0000
0000
0000
0110
0000
0000
0000
0000
0000
1001
0000
0000
0000
0000
0000
1100
0000
0000
0000
0000
0000
0101
0000
0000
0000
0000
0000
,
0001
0100
0010
0100
0002
0000
1003
0100
0010
0000
0100
0000
0110
0000
1001
0000
,
0101
0000
1100
0000
0100
0010
0100
0010
0100
0000
0011
0000
1000
0010
0100
0010
,
1000
0000
1000
0001
1000
0010
0100
0001
0020
0000
0130
0000
1000
0100
0010
0100
,
1000
0000
0011
0000
1001
1000
0100
0000
0200
0000
0000
0000
0000
0000
1300
0000
,
0001
0100
0010
0100
0001
0000
0010
0001
0020
0000
0000
0000
0000
0000
0130
1000
,
0100
0000
0000
0010
0000
0000
0001
0000
0000
0010
0000
0000
0100
0000
0000
1000
0000
0000
0100
0000
0000
1000
0000
0000
0002
0000
0000
0000
0103
0000
0001
0000
0000
2000
0000
0000
0000
0000
0000
3000
0000
0000
1000
0000
0000
0100
0000
0000
,
0010
0000
0100
0000
0110
0000
1000
0100
0010
0001
0000
2001
0000
0000
0000
0000
,
3010
0100
0000
0000
0002
0000
0000
0000
0200
0000
0003
0000
0020
0000
0300
0000
,
2000
0000
0030
0000
0001
0000
3001
0000
0001
1000
0010
1000
0100
0010
0001
0000
,
0010
0100
0000
0000
1000
0000
0100
0000
1100
0000
0000
0000
0021
0000
0000
0000
,
0130
0010
0000
0000
0001
0000
0001
0000
0010
0000
0010
0001
0010
0100
0010
0001
,
0010
0100
0000
0000
2000
0000
0000
0000
0200
0000
3000
0000
0020
0000
0300
0000
,
0002
0000
0030
0000
1000
0000
1003
0000
1000
0001
0010
0001
0100
0010
1000
0000
,
0010
0100
0000
0000
0001
0000
0100
0000
0101
0000
0000
0000
1020
0000
0000
0000
,
0130
0010
0000
0000
1000
0000
1000
0000
0010
0000
0010
1000
0010
0100
0010
1000
,
0010
0100
0000
0001
0000
0000
0001
0000
0001
0000
0000
0100
0000
0000
0001
0000
,
0100
0010
0000
0010
1000
0000
0100
0000
0100
0000
0010
0000
0010
0000
0000
0000
,
0010
0100
0000
0000
0000
0000
0000
0000
0000
0000
0000
0000
0000
0000
0000
0000
;

//--------------- dance-single - ----------------
#NOTES:
     dance-single:
     :
     Challenge:
     14:
     0,0,0,0,0:
0000
0000
0000
0000
,
0000
0000
0000
0000
,
0000
0000
0000
0000
,
0000
0000
0000
0000
0000
0000
0001
0100
0001
1000
0100
0010
0002
0000
0000
0000
,
0013
0100
0000
0000
1000
0000
0200
0000
0320
0000
0000
0031
0000
0000
0100
0000
,
0100
0010
1000
0001
0100
0010
1000
0000
1000
0002
0000
0000
0000
0000
0000
0000
,
0013
0100
0000
0000
1100
0000
0101
0000
1000
0001
0100
0001
1000
0010
1000
0000
,
0100
0010
0001
0010
0001
1000
0010
0000
0220
0000
M000
0030
0310
0100
0010
0000
,
0010
0100
0000
0100
0001
0100
1000
0100
0001
0100
1000
0100
0001
0100
1000
0000
,
0100
0010
1000
0001
1000
0000
1000
0100
1000
0001
1000
0100
1000
0100
0010
0000
,
0010
0000
0000
0100
0000
0000
0010
0000
0000
0001
0000
0000
0010
0000
0000
0000
0000
0000
0010
0000
0000
0001
0000
0000
0100
0000
0000
0000
0010
0000
0100
0000
0000
0000
0001
0000
0200
0000
0000
0000
0310
0000
0100
0000
0000
0000
0000
0000
,
0100
0000
0000
0010
0000
0000
0100
0000
0000
0001
0000
0000
0101
0000
0000
0000
0000
0000
2100
0000
0000
0000
0000
0000
3010
0000
0000
0000
0100
0000
0010
0000
0000
0000
1000
0000
0020
0000
0000
0000
0130
0000
0010
0000
0000
0000
0000
0000
,
0010
0100
0000
0100
1000
0100
0001
0100
1000
0100
0001
0100
1000
0100
0001
0000
,
0100
0010
0000
0000
1010
0000
0011
0000
0001
0010
0001
0010
0100
0010
0001
0000
,
0110
0000
0000
0000
1002
0000
0103
0000
0001
0010
0100
0000
0020
0000
0130
0000
,
1000
0000
0010
0000
1000
0000
0100
0000
0100
0010
0001
0000
1002
0000
0103
0000
,
0010
0000
0100
0000
0010
0000
0100
0000
0010
0100
0001
0000
0001
0000
2000
0000
,
3200
0320
0230
2300
0000
0000
3001
0000
0000
0000
0000
0000
0001
0000
0010
0000
,
0110
0000
0000
0000
2001
0000
3100
0000
1000
0010
0100
0000
0020
0000
0130
0000
,
0001
0000
0010
0000
0001
0000
0100
0000
0100
0010
1000
0000
2001
0000
3100
0000
,
0010
0000
0100
0000
0010
0000
0100
0000
0010
0100
1000
0000
1000
0000
0002
0000
,
0203
0320
0230
0302
0000
0000
1003
0000
1000
0000
0010
0000
0100
0000
0010
0000
,
0110
0000
1000
0010
0100
0001
0100
0000
0010
0000
0010
0000
0100
0001
0100
0000
,
1010
0000
0010
0000
1000
0000
0010
0000
0101
0000
0100
0000
0001
0010
0100
1000
,
0100
0010
0100
0000
0100
0010
0001
1000
0001
0000
1001
0000
0000
0000
0200
0020
,
0000
0000
0000
0000
0000
0000
0000
0000
0000
0000
0000
0330
0001
0100
0010
0100
,
0001
0000
1010
0000
1001
0001
0100
0000
0200
0000
0000
0000
0000
0000
0301
0000
,
0001
0010
0100
0010
M001
0000
0010
0001
0020
0000
0000
0000
0000
0000
0130
1000
,
0100
0000
0010
0000
0001
0000
0010
0000
0100
0000
0000
0000
0100
0000
1000
0000
0001
0000
0000
0001
0000
0000
0001
0000
0000
0000
0000
0000
0001
0000
0100
0000
,
0010
0000
0100
0000
0110
0000
0010
0100
0020
0200
0000
1000
0000
0000
0330
0000
,
0010
0100
0000
0000
0101
0000
1100
0000
0001
1000
0100
1000
0001
0010
0001
0000
,
0100
0010
1000
0010
1000
0001
0010
0000
0220
0000
000M
0030
0310
0100
0010
0000
,
0010
0100
0000
0100
1000
0100
0001
0100
1000
0100
0001
0100
1000
0100
0001
0000
,
0100
0010
0001
1000
0001
0000
0001
0100
0001
1000
0001
0100
0001
0100
0010
0000
,
0010
0000
0000
0100
0000
0000
0010
0000
0000
1000
0000
0000
0010
0000
0000
0000
0000
0000
0010
0000
0000
1000
0000
0000
0100
0000
0000
0000
0010
0000
0100
0000
0000
0000
1000
0000
0200
0000
0000
0000
0310
0000
0100
0000
0000
0000
0000
0000
,
0100
0000
0000
0010
0000
0000
0100
0000
0000
1000
0000
0000
1100
0000
0000
0000
0000
0000
0102
0000
0000
0000
0000
0000
0013
0000
0000
0000
0100
0000
0010
0000
0000
0000
0001
0000
0020
0000
0000
0000
0130
0000
0010
0000
0000
0000
0000
0000
,
0010
0100
0000
0100
0001
0100
1000
0100
0001
0100
1000
0100
0001
0100
1000
0000
,
0100
0010
0000
0000
0011
0000
1010
0000
1000
0010
1000
0010
0100
0010
1000
0000
,
0001
0000
0000
0000
0000
0000
0000
0000
0000
0000
0000
0000
0001
0000
0000
0000
0000
0000
0000
0000
0000
0000
0000
0000
1000
0000
0000
0100
0000
0000
0010
0000
0000
0001
0000
0000
2000
0000
0000
0000
3100
0000
0000
0000
0000
0000
0000
0000
,
0010
0000
0010
0000
0011
0000
0001
1000
0040
0400
0000
0030
0301
1000
0010
0000
,
0020
0000
0000
0000
0130
0000
0000
0000
0000
0000
0000
0000
0110
0000
0000
0000
0000
0000
1001
0000
0000
0001
0000
0000
0010
0000
0000
0100
0000
0000
1000
0000
0000
0000
0000
0000
0200
0000
0000
0000
0000
0000
1300
0000
0000
0010
0000
0000
,
1000
0000
0000
0000
0000
0000
0010
0000
0000
0000
0000
0000
0010
0000
0000
0100
0000
0000
0010
0000
0000
0100
0000
0000
0002
0000
0000
0000
0013
0000
0000
0000
0000
0000
0000
0000
0001
0000
0000
0010
0000
0000
0100
0000
0000
1000
0000
0000
,
0020
0000
0000
0000
0130
0000
0000
0000
0000
0000
0000
0000
0100
0000
0000
0010
0000
0000
0100
0000
0000
0000
0000
0000
0110
0000
0000
0000
0000
0000
1001
0000
0000
0000
0000
0000
1100
0000
0000
0000
0000
0000
0101
0000
0000
0000
0000
0000
,
0001
0100
0010
0100
0002
0000
1003
0100
0010
0000
0100
0000
0110
0000
1001
0000
,
0101
0000
1100
0000
0100
0010
0100
0010
0100
0000
0011
0000
1000
0010
0100
0010
,
1000
0000
1000
0001
1000
0010
0100
0001
0020
0000
0130
0000
1000
0100
0010
0100
,
1000
0000
0011
0000
1001
1000
0100
0000
0200
0000
0000
0000
0000
0000
1300
0000
,
0001
0100
0010
0100
M001
0000
0010
0001
0020
0000
0000
0000
0000
0000
0130
1000
,
0100
0000
0000
0010
0000
0000
0001
0000
0000
0010
0000
0000
0100
0000
0000
1000
0000
0000
0100
0000
0000
1000
0000
0000
0002
0000
0000
0000
0103
0000
0001
0000
0000
2000
0000
0000
0000
0000
0000
3000
0000
0000
1000
0000
0000
0100
0000
0000
,
0010
0000
0100
0000
0110
0000
1000
0100
0010
0001
0000
2001
0000
0000
0000
0000
,
3010
0100
0000
0000
0002
0000
0000
0000
0200
0000
0003
0000
2000
0000
0300
0000
,
0020
0000
3000
0000
0001
0000
0031
0000
0001
1000
0010
1000
0100
0010
0001
0000
,
0010
0100
0000
0000
1000
0000
0100
0000
0220
0000
0000
0000
000M
0000
0330
0000
,
0100
0010
0000
0000
0001
0000
0001
0000
0010
0000
0010
0001
0010
0100
0010
0001
,
0010
0100
0000
0000
2000
0000
0000
0000
0200
0000
3000
0000
0002
0000
0300
0000
,
0020
0000
0003
0000
1000
0000
1030
0000
1000
0001
0010
0001
0100
0010
1000
0000
,
0010
0100
0000
0000
0001
0000
0100
0000
0220
0000
0000
0000
M000
0000
0330
0000
,
0100
0010
0000
0000
1000
0000
1000
0000
0010
0000
0010
1000
0010
0100
0010
1000
,
0010
0100
0000
0001
0000
0000
0001
0000
0001
0000
0000
0100
0000
0000
0001
0000
,
0100
0010
0000
0010
1000
0000
0100
0000
0100
0000
0010
0000
0010
0000
0000
0000
,
0010
0100
0000
0000
0000
0000
0000
0000
0000
0000
0000
0000
0000
0000
0000
0000
;
