#TITLE:Bagsakan;
#SUBTITLE:;
#ARTIST:Parokya ni Edgar ft. Francis M & Gloc-9;
#CREDIT:;
#MUSIC:Bagsakan_audio.ogg;
#SELECTABLE:YES;
#BACKGROUND:bagsakan_bn.png;
#BANNER:bagsakan_bn.png;
#CDTITLE:;
#OFFSET:-0.29;
#SAMPLESTART:27.390;
#SAMPLELENGTH:15.757;
#BPMS:0=135.002,2=134.996,3=135.002,5=134.996,6=135.002,8=134.996,9=135.002,11=134.996,12=135.002,14=134.996,15=135.002,17=134.996,18=135.002,20=134.996,21=135.002,23=134.996,24=135.002,26=134.996,27=135.002,29=134.996,30=135.002,33=134.996,34=135.002,36=134.996,37=135.002,39=134.996,40=135.002,42=134.996,43=135.002,45=134.996,46=135.002,48=134.996,49=135.002,51=134.996,52=135.002,54=134.996,55=135.002,56=134.996,57=135.002,59=134.996,60=135.002,62=134.996,63=135.002,64=141.802,65=136.642,66=135.002,67=136.635,68=135.002,70=134.996,71=135.002,72=133.395,73=135.002,75=134.996,76=135.002,78=134.996,79=135.002,80=134.996,81=135.002,83=134.996,84=135.002,86=134.996,87=135.002,88=134.996,89=135.002,91=134.996,92=135.002,94=134.996,95=135.002,96=131.832,97=135.002,100=134.996,101=135.002,104=134.996,105=135.002,108=134.996,109=135.002,112=134.996,113=135.002,116=134.996,117=135.002,120=134.996,121=135.002,124=134.996,125=135.002,128=133.395,129=135.002,132=136.635,133=135.002,136=134.996,137=135.002,140=134.996,141=135.002,144=133.395,145=135.002,148=134.996,149=135.002,152=134.996,153=135.002,156=134.996,157=135.002,160=134.996,161=135.002,164=134.996,165=135.002,168=134.996,169=135.002,172=134.996,173=135.002,176=134.996,177=135.002,180=134.996,181=135.002,184=134.996,185=135.002,188=134.996,189=135.002,192=134.996,193=135.002,195=134.996,196=135.002,197=134.996,198=135.002,199=134.996,200=135.002,201=134.996,202=135.002,203=134.996,204=135.002,205=134.996,206=135.002,207=134.996,208=135.002,209=134.996,210=135.002,211=134.996,212=135.002,213=134.996,214=135.002,215=134.996,216=135.002,217=134.996,218=135.002,219=134.996,220=135.002,221=134.996,222=135.002,223=134.996,224=135.002,225=134.996,226=135.002,227=134.996,228=135.002,229=134.996,230=135.002,231=134.996,232=135.002,233=134.996,234=135.002,235=134.996,236=135.002,237=134.996,238=135.002,239=134.996,240=135.002,241=134.996,242=135.002,243=134.996,244=135.002,245=134.996,246=135.002,247=134.996,248=135.002,249=134.996,250=135.002,251=134.996,252=135.002,253=134.996,254=135.002,255=134.996,256=135.002,257=134.996,258=135.002,259=134.996,260=135.002,261=134.996,262=135.002,263=134.996,264=135.002,265=134.996,266=135.002,267=134.996,268=135.002,269=134.996,270=135.002,271=134.996,272=135.002,273=134.996,274=135.002,275=134.996,276=135.002,277=134.996,278=135.002,279=134.996,280=135.002,281=134.996,282=135.002,283=134.996,284=135.002,285=134.996,286=135.002,287=134.996,288=135.002,289=134.996,290=135.002,291=134.996,292=135.002,293=134.996,294=135.002,295=134.996,296=135.002,297=134.996,298=135.002,299=134.996,300=135.002,301=134.996,302=135.002,303=134.996,304=135.002,305=134.996,306=135.002,307=134.996,308=135.002,309=134.996,310=135.002,311=134.996,312=135.002,313=134.996,314=135.002,315=134.996,316=135.002,317=134.996,318=135.002,319=134.996,320=135.002,321=133.395,322=135.002,323=134.996,324=135.002,325=134.996,326=135.002,327=134.996,328=135.002,329=134.996,330=135.002,331=134.996,332=135.002,333=134.996,334=135.002,335=134.996,336=135.002,337=134.996,338=135.002,339=134.996,340=135.002,341=134.996,342=135.002,343=134.996,344=135.002,345=134.996,346=135.002,347=134.996,348=135.002,349=134.996,350=135.002,351=134.996,352=135.002,353=134.996,354=135.002,355=134.996,356=135.002,357=134.996,358=135.002,359=134.996,360=135.002,361=134.996,362=135.002,363=134.996,364=135.002,365=134.996,366=135.002,367=134.996,368=135.002,369=134.996,370=135.002,371=134.996,372=135.002,373=134.996,374=135.002,375=134.996,376=135.002,377=134.996,378=135.002,379=134.996,380=135.002,381=134.996,382=135.002,383=134.996,384=135.002,385=134.996,386=135.002,387=134.996,388=135.002,389=134.996,390=135.002,391=134.996,392=135.002,417=133.401,418=135.002;
#STOPS:;
#BGCHANGES:-0.50=Bagsakan_video.mp4=1.000=1=0=0=StretchNoLoop==CrossFade==,

//---------------dance-single - ----------------
#NOTES:
     dance-single:
     :
     Beginner:
     3:
     0.000,0.000,0.000,0.000,0.000:
0000
0000
0000
0000
,
0000
0000
0000
0000
,
0000
0000
0000
0000
,
0000
0000
0000
0000
,
0000
0000
0000
0000
,
0000
0000
0000
0000
,
0000
0000
0000
0000
,
0000
0000
0000
0000
,
0000
0010
0000
0000
,
0000
0010
0000
0000
,
0000
0010
0000
0000
,
0000
0010
0000
0000
,
0000
1000
0000
0000
,
0000
1000
0000
0000
,
0000
1000
0000
0000
,
0000
0001
0000
0001
,
0000
1000
0000
0000
,
0000
1000
0000
0000
,
0000
0001
0000
0000
,
0000
0001
0000
0000
,
0000
0100
0000
0000
,
0000
0100
0000
0000
,
0000
0010
0000
0000
,
0000
0010
0000
0000
,
0000
0001
0000
0001
,
0000
0010
0000
0010
,
0000
0100
0000
0100
,
0000
1000
0000
1000
,
0000
1001
0000
0001
,
0000
0100
0000
0100
,
0000
0010
0000
0010
,
0000
1000
0000
1000
,
0000
1000
0000
0010
,
0000
1000
0000
0010
,
0000
0100
0000
0001
,
0000
0100
0000
0001
,
0000
0001
0000
0100
,
0000
0001
0000
0100
,
0000
0010
0000
1000
,
0000
0010
0000
1000
,
0000
0100
0100
0100
,
0100
0000
0000
0000
,
0000
0010
0010
0010
,
0010
0000
0000
0000
,
1001
0000
0000
0000
0000
0000
1000
0001
,
0000
0000
0000
0000
,
0000
0000
0000
0000
0000
0000
0001
1000
,
0000
0000
0000
0000
,
0000
0000
0000
0000
0000
0000
0010
0100
,
0000
0000
0000
0000
,
0000
0000
0000
0000
0000
0000
0100
0010
,
0000
0000
0000
0000
,
0000
1000
0000
1000
,
0000
0010
0000
0010
,
0000
0100
0000
0100
,
0000
0001
0000
0001
,
0000
1001
0000
1000
,
0000
0100
0000
0100
,
0000
0010
0000
0010
,
0000
0001
0000
0001
,
0000
0001
0000
0010
,
0000
0001
0000
0010
,
0000
0100
0000
1000
,
0000
0100
0000
1000
,
0000
1000
0000
0100
,
0000
1000
0000
0100
,
0000
0010
0000
0001
,
0000
0010
0000
0001
,
0000
0100
0100
0100
,
0100
0000
0000
0000
,
0000
0010
0010
0010
,
0010
0000
0000
0000
,
1001
0000
0000
0000
0000
0000
0001
1000
,
0000
0000
0000
0000
,
0000
0000
0000
0000
0000
0000
1000
0001
,
0000
0000
0000
0000
,
0000
0000
0000
0000
0000
0000
0010
0100
,
0000
0000
0000
MMMM
,
MMMM
0000
0000
0000
0000
0000
0100
0010
,
0000
0000
0000
MMMM
,
MMMM
0000
0000
0000
0000
0000
0010
0001
,
0000
0000
0000
0000
,
0000
0000
0000
0000
0000
0000
0010
1000
,
0000
0000
0000
0000
,
0000
1000
0000
0100
,
0000
1000
0000
0100
,
0000
0001
0000
0100
,
0000
0001
0000
0100
,
0000
0010
0000
1000
,
0000
0010
0000
1000
,
0000
0010
0000
0100
,
0000
0001
0000
0100
,
0000
0001
0000
1000
,
0000
0010
0000
0001
,
0000
0010
0000
0100
,
0000
0001
0000
0100
,
0000
1000
0000
0100
,
0000
0001
0000
0010
,
0000
1000
0000
0010
,
0000
0100
0000
1000
,
0000
0100
0100
0100
,
0100
1000
1000
1000
,
1000
0001
0001
0001
,
0001
0010
0010
0010
,
0110
1000
0000
0100
,
0000
0010
0000
0001
,
0000
1000
0000
0100
,
0000
0010
0000
0001
,
0000
MMMM
0000
0000
,
0000
0000
0000
0000
,
0000
0000
0000
0000
,
0000
0000
0000
0000
;

//---------------dance-single - ----------------
#NOTES:
     dance-single:
     :
     Easy:
     6:
     0.000,0.000,0.000,0.000,0.000:
0000
0000
0000
0000
,
0000
0000
0000
0000
,
0000
0000
0000
0000
,
0000
0000
0000
0000
,
0000
0000
0000
0000
,
0000
0000
0000
0000
,
0000
0000
0000
0000
,
0000
0000
0000
MMMM
0000
0000
0000
MMMM
0000
0000
0000
MMMM
0000
0000
0000
MMMM
,
0000
0000
1000
0100
0000
0000
0000
0000
,
0000
0000
0000
0000
,
0000
0000
0010
0001
0000
0000
0000
0000
,
0000
0000
0000
0000
,
0000
0000
1000
0010
0000
0000
0000
0000
,
0000
0000
1000
0010
0000
0000
0000
0000
,
0000
0000
0100
0001
0000
0000
0000
0000
,
0000
0001
0001
0001
,
0001
0000
0000
0000
0000
0000
1000
0001
,
0000
1000
0001
0100
,
0000
0000
0000
0000
0000
0000
0001
1000
,
0000
0001
0100
0001
,
0000
0000
0000
0000
0000
0000
0100
0010
,
0000
0000
1000
0010
,
0000
0100
0100
0100
,
0000
0010
0010
0010
,
0000
1000
0100
0010
,
0001
1000
0100
0010
,
0001
1000
1001
0001
,
1000
0100
0010
0100
,
1000
1001
1000
0001
,
0100
0010
0100
0001
,
1000
0001
0100
0010
,
1000
0001
0100
0010
,
1000
1000
0001
1000
,
0001
0100
0010
0100
,
0010
1000
0001
0100
,
0001
1000
0001
1000
,
0010
1000
0001
1000
,
0001
0010
0001
1000
,
0001
1000
0100
1000
,
0001
0010
0100
1000
,
0100
0100
0100
0100
,
0100
1000
1000
1000
,
1000
0010
0010
0010
,
0010
0100
0100
0100
,
0101
0000
0000
0000
0000
0000
0001
1000
,
0000
0001
1000
0100
,
0000
0000
0000
0000
0000
0000
1000
0001
,
0000
1000
0100
1000
,
0000
0000
0000
0000
0000
0000
0100
0010
,
0000
0000
0001
0010
,
0000
0100
0100
0100
,
0000
0010
0010
0010
,
0000
0001
0100
0010
,
1000
0001
0100
0010
,
1000
0001
1001
1000
,
0001
0100
0010
0100
,
0001
1001
0001
1000
,
0100
0110
0100
1000
,
1001
1000
0100
0010
,
0001
1000
0100
0010
,
0001
0001
1000
0001
,
1000
0100
0010
0100
,
0010
0001
1000
0100
,
1000
0001
1000
0001
,
0010
0001
1000
0001
,
1000
0010
1000
0001
,
1000
0001
0100
0001
,
1000
0010
0100
0001
,
0100
0100
0100
0100
,
0100
0001
0001
0001
,
0001
0010
0010
0010
,
0010
0100
0100
0100
,
1100
0000
0000
0000
0000
0000
0001
1000
,
0000
0001
1000
0010
,
0000
0000
0000
0000
0000
0000
1000
0001
,
0000
1000
0010
1000
,
0000
0000
0000
0000
0000
0000
0010
0100
,
0000
0000
0000
MMMM
,
MMMM
0000
0000
0000
0000
0000
0100
0010
,
0000
0000
0000
MMMM
,
MMMM
0000
0000
0000
0000
0000
0010
0001
,
0000
1000
1000
1000
,
0000
0000
0000
0000
0000
0000
0010
1000
,
0000
0001
0001
0001
,
0000
1000
0100
1000
,
0100
0010
0001
0010
,
0001
1000
0010
0100
,
0010
0100
0001
0010
,
0100
0010
0100
1000
,
0100
0010
0010
0001
,
0010
0100
0100
0010
,
0010
0100
1000
0001
,
1000
MMMM
0000
1000
,
0100
0010
0100
1000
,
0100
0010
0100
1000
,
0010
1000
0100
1000
,
0010
1000
0100
1000
,
0001
0100
0010
0100
,
0001
0100
0010
0100
,
0001
0010
0001
0100
,
0001
0010
0010
0010
,
0010
0001
0001
0001
,
0001
1000
1000
1000
,
1000
0010
0010
0010
,
0110
1000
0100
0010
,
0001
1000
0100
0010
,
0001
0100
1000
0100
,
0001
0010
1000
0010
,
0100
MMMM
0000
0000
,
0000
0000
0000
0000
,
0000
0000
0000
0000
,
0000
0000
0000
0000
;

//---------------dance-single - ----------------
#NOTES:
     dance-single:
     :
     Medium:
     9:
     0.000,0.000,0.000,0.000,0.000:
0000
0000
0000
0000
,
0000
0000
0000
0000
,
0000
0000
0000
0000
,
0000
0000
0000
0000
,
0000
0000
0000
0000
,
0000
0000
0000
0000
,
0000
0000
0000
0000
,
0000
0000
0000
1000
0000
0000
0000
0001
0000
0000
0000
1000
0000
0000
0000
0001
,
0000
0000
1000
0100
0000
0000
0000
0000
,
0000
0000
1000
0100
0000
0000
0000
0000
,
0000
0000
0010
0001
0000
0000
0000
0000
,
0000
0000
0010
0001
0000
0000
0000
0000
,
0000
0000
1000
0010
0000
0000
0000
0000
,
0000
0000
1000
0010
0000
0000
0000
0000
,
0000
0000
0100
0001
0000
0000
0000
0000
,
0000
0001
1001
1000
,
1001
0000
0000
0000
0000
0000
1000
0001
,
0000
0000
0000
0000
1000
0000
0100
0000
0010
0000
0001
0000
0010
0000
0000
0100
,
0000
0000
0000
0000
0000
0000
1000
0001
,
0000
0000
0000
0000
1000
0000
0010
0000
0100
0000
0001
0000
0100
0000
0000
0010
,
0000
0000
0000
0000
0000
0000
0100
0010
,
0000
0000
0100
0000
0001
0000
0010
0000
0100
0000
1000
0000
0010
0000
0000
1000
,
0000
0000
0100
0010
0100
0010
0100
0000
,
0000
0010
0100
0010
0100
0010
0100
0010
,
0000
0000
0001
0100
0010
1000
0010
0100
,
0001
0000
0001
1000
0100
0000
0010
0000
,
0101
1010
0101
1000
,
0001
0000
0100
0000
0010
0000
0100
0001
,
0010
0000
0011
0000
0000
1100
0000
0000
,
0000
0011
0000
0000
1000
0000
0100
0000
,
0001
0200
1000
0010
,
0301
0020
1000
0100
,
0031
0011
1100
1001
,
0110
0001
1000
0010
,
1000
0001
0000
0000
1000
0000
0100
0010
,
0001
1000
0001
0000
1000
0000
0010
0000
,
0000
1000
0001
0000
0000
0000
0000
0000
1000
0000
0001
0000
0010
0000
0100
0000
,
0010
0100
1000
0000
0001
1000
0010
0100
,
0010
0100
0001
0000
0100
0000
0001
0000
,
1000
0010
0100
0001
,
0100
0100
0100
0100
,
0100
0001
0001
0001
,
0001
0000
0010
0001
0010
0001
0010
0001
,
0010
0001
0010
0100
1000
0100
1000
0100
,
1000
0000
0000
0000
0000
0000
0001
1000
,
0000
0000
0000
0000
0001
0000
0100
0000
0010
0000
1000
0000
0010
0000
0000
0100
,
0000
0000
0000
0000
0000
0000
0001
1000
,
0000
0000
0000
0000
0001
0000
0010
0000
0100
0000
1000
0000
0100
0000
0000
0010
,
0000
0000
0000
0000
0000
0000
0100
0010
,
0000
0000
0100
0000
1000
0000
0010
0000
0100
0000
0001
0000
0010
0000
0000
0001
,
0000
0000
0100
0010
0100
0010
0100
0000
,
0000
0010
0100
0010
0100
0010
0100
0010
,
0000
0000
1000
0100
0010
0001
0010
0100
,
1000
0000
1000
0001
0100
0000
0010
0000
,
1100
0000
0001
0010
1000
0010
0001
1000
,
1001
0000
0100
0000
0010
0000
0100
1000
,
0010
1000
0101
1000
,
0101
0000
1001
1001
0000
0001
0100
1000
,
0110
0110
0200
0000
0001
0000
0010
0000
,
1000
0320
0001
0100
,
1030
1010
0101
1001
,
0001
0010
0001
0010
,
0001
0010
0001
0000
0100
0000
0001
0000
,
0100
0000
0001
0100
0010
1000
0010
0000
,
1000
0010
0000
0000
0001
1000
0010
0100
,
0110
1001
0000
0000
1000
0001
0010
0100
,
0110
1001
1000
0000
0100
0000
1000
0000
,
0001
0010
0100
1000
,
0100
0100
0100
0100
,
0100
1000
1000
1000
,
1000
0000
0010
1000
0010
1000
0010
1000
,
0010
1000
0010
0100
0001
0100
0101
0101
,
0101
0000
0000
0000
0000
0000
0001
1000
,
0000
0000
0000
0000
0001
0000
0100
0000
0010
0000
1000
0000
0010
0000
0000
0100
,
0000
0000
0000
0000
0000
0000
0001
1000
,
0000
0000
0000
0000
0001
0000
0010
0000
0100
0000
1000
0000
0100
0000
0000
0010
,
0000
0000
0000
0000
0000
0000
0100
0020
,
0000
0000
0000
MM0M
,
MM0M
0000
0000
0000
0030
0000
0100
0020
,
0000
0000
0000
MM0M
,
MM0M
0000
0030
0000
0000
0000
0010
0001
,
0000
0000
1000
0000
0100
0000
1000
0000
0001
0000
1000
0000
0010
0000
0000
1000
,
0000
0000
0000
0000
0000
0000
0010
1000
,
0000
0001
0100
0001
1000
0001
0010
0001
,
0000
0000
1000
0100
1000
0100
0010
0001
,
0010
0001
0010
0100
0010
0100
1000
0010
,
1000
0010
1010
0000
0001
0100
0001
0100
,
0010
1000
0010
1000
0010
0100
0010
0100
,
0001
0010
0001
0010
0011
0000
1000
0100
,
0010
0001
1000
0100
0110
0110
0000
0000
,
0001
0010
0110
0000
0110
0000
0001
0010
,
0100
1000
0100
1000
0100
0010
0001
0010
,
0001
0000
MMMM
0000
0000
0000
1000
0010
,
0100
0001
0010
0100
1000
1100
0000
0000
,
1000
0001
1000
0001
0010
0001
0010
0001
,
0100
0001
0100
0001
1000
0001
1000
0001
,
0010
0001
1000
0000
0110
0000
1001
0000
,
0110
0000
0001
1000
0001
1000
0010
1000
,
0010
1000
0100
1000
0100
1000
0001
1000
,
0001
1000
0010
1000
0001
1000
0100
1000
,
1001
0010
0010
0010
,
0010
0001
0001
0001
,
0001
0000
0000
1000
0010
1000
0010
1000
0010
1000
0010
1000
,
0010
1000
0010
0100
0001
0100
0001
0100
0001
0100
0001
0100
,
0001
0001
0100
0010
,
1000
1000
0100
0010
,
0001
0100
1000
0100
,
0001
0000
0010
0000
1000
0010
0001
0100
,
1000
0100
0101
0000
0000
0000
0000
0000
,
0000
0000
0000
0000
,
0000
0000
0000
0000
,
0000
0000
0000
0000
;

//---------------dance-single - ----------------
#NOTES:
     dance-single:
     :
     Hard:
     15:
     0.000,0.000,0.000,0.000,0.000:
0000
0000
0000
0000
,
0000
0000
0000
0000
,
0000
0000
0000
0000
,
0000
0000
0000
0000
,
0000
0000
0000
0000
,
0000
0000
0000
0000
,
0000
0000
0000
0000
,
0000
0000
0000
1000
0000
0000
0000
0001
0000
0000
0000
1000
0000
0000
0000
0001
,
0000
0000
1001
0110
0000
0000
0000
0000
,
0000
0000
1000
0100
0000
0000
0000
0000
,
0000
0000
0110
1001
0000
0000
0000
0000
,
0000
0000
0010
0001
0000
0000
0000
0000
,
0000
0000
1001
0110
0000
0000
0000
0000
,
0000
0000
1001
0110
0000
0000
0000
0000
,
0000
0000
0110
1001
0000
0000
0000
0000
,
0000
0000
0001
0001
1000
1000
0010
0010
,
0100
0100
0000
0000
0000
0000
1000
0001
,
0000
0000
0000
0000
1000
0000
0100
0000
0010
0000
0001
0000
0010
0000
0000
0100
,
0000
0000
0000
0000
0000
0000
1000
0001
,
0000
0000
0000
0000
1000
0000
0010
0000
0100
0000
0001
0000
0100
0000
0000
0010
,
0000
0000
0000
0000
0000
0000
0100
0010
,
0000
0000
0100
0000
0001
0000
0010
0000
0100
0000
1000
0000
0010
0000
0000
1000
,
0000
0000
0100
0010
0100
0010
0100
0000
,
0000
0010
0100
0010
0100
0010
0110
0110
,
0000
0000
0000
0000
0002
0000
0103
0010
1000
0010
0100
0001
0100
0010
1000
0010
,
0100
0000
0001
0000
1000
0001
1000
0001
0100
0010
1000
0001
0100
0010
1000
0001
,
0100
0010
1000
0001
0101
0000
1000
0000
1100
0000
0100
1000
0010
1000
0100
0010
,
0001
0000
1000
0010
1000
0010
0100
0001
0100
0000
0001
0010
0100
1000
0001
0000
,
0010
0000
0110
0000
0011
0000
0001
0010
0100
0000
1100
0000
1000
0010
0100
0001
,
0011
0000
0011
0000
1000
0100
0010
0100
1000
0100
0010
0100
1000
0000
0010
0001
,
0010
0100
0000
0000
0020
0000
0000
0000
1000
0000
0000
0000
0100
0000
0000
0000
,
0031
0200
1000
0010
,
0301
0000
0000
0000
0101
0000
1000
0100
0000
1100
0000
0001
1000
0000
0001
0010
,
0000
0011
0000
1000
0001
0000
0100
0010
0000
0110
0000
0010
0100
0000
0010
0100
,
0000
0010
0100
0000
0000
0000
0001
0100
0001
0000
1000
0010
0100
0010
1000
0010
,
0100
0000
0001
0100
1000
0000
0100
0010
0100
0010
0001
0010
1000
0000
0010
1000
,
0000
0010
1000
0000
0000
0000
1000
0010
1000
0000
0001
0100
0010
0100
0001
0100
,
0010
1000
0100
0010
0001
0000
0001
0010
0001
0000
1000
0100
0010
0100
1000
0100
,
0010
0001
0100
0010
1000
0000
0001
1000
0100
1000
0001
1000
0100
0000
1000
0010
,
0100
0001
0010
0100
0010
0100
0000
1000
0100
0001
0100
1000
0100
0001
0100
1000
,
0010
0001
0010
1000
0010
0000
M0M0
0000
0010
0000
0000
0000
0010
0000
0000
0000
,
0010
0001
0001
0001
,
0001
0000
0100
0001
0100
0001
0100
0001
,
0100
0001
0100
0010
1000
0010
1000
0010
,
1000
MMMM
0000
0000
0000
0000
0000
0000
0000
0000
0000
0000
0001
0000
1000
0000
,
0000
0000
0000
0000
0001
0000
0100
0000
0010
0000
1000
0000
0010
0000
0000
0100
,
0000
0000
0000
0000
0000
0000
0001
1000
,
0000
0000
0000
0000
0001
0000
0010
0000
0100
0000
1000
0000
0100
0000
0000
0010
,
0000
0000
0000
0000
0000
0000
0100
0010
,
0000
0000
0100
0000
1000
0000
0010
0000
0100
0000
0001
0000
0010
0000
0000
0001
,
0000
0000
0100
0010
0100
0010
0100
0000
,
0000
0010
0100
0010
0100
0010
0110
0110
,
0100
0001
0010
0001
0010
0100
1000
0000
1100
0000
0011
0000
0001
0100
0010
1000
,
0100
1000
0010
0000
1000
0100
1000
0100
1000
0000
0001
0100
0001
0100
0001
0000
,
0101
0000
1010
0000
0001
0100
1000
0000
0100
0001
0010
0000
0011
0000
0110
0000
,
1100
0000
0000
0000
1000
0000
0010
0000
0001
0000
0010
1000
1010
0000
0001
0000
,
0010
0100
1000
0000
0001
0100
0010
1000
0001
0100
0010
1000
0001
0100
0010
1000
,
0001
0100
0010
1000
1001
0000
1001
0000
0000
1000
0100
0000
0010
0000
0001
0110
,
0000
0110
0000
0000
1000
0100
0010
0001
1000
0100
0010
0001
1000
0100
0010
0001
,
1000
0100
0010
0001
1000
0001
1000
0001
0000
0010
0100
0000
0110
0000
0100
0010
,
0000
1000
0000
0010
1000
0000
0010
0000
0001
0010
0100
1000
1001
0000
1001
1000
,
0010
0100
0010
1000
0010
0100
0010
1000
0010
0000
0100
0001
0100
0010
0100
0001
,
0100
0000
0010
0000
0001
0010
0001
0100
0001
1000
0001
1000
0010
1000
0100
1000
,
0001
1000
0001
0000
1001
0000
0110
0010
0100
0010
0110
0000
1001
1000
0100
0010
,
1001
0000
0110
0000
0001
0010
0001
0010
0001
0000
1000
0000
0010
1000
0010
0000
,
0110
0000
1001
0000
0000
0000
0100
0000
1000
0000
0100
1000
0000
0100
1000
0100
,
0110
0000
1001
0000
0001
0010
0100
1000
0001
0010
0100
1000
0001
0010
0100
1000
,
1100
0000
0101
0000
1000
0010
0100
0001
1000
0010
0100
0001
1000
0010
0100
0000
,
0001
0100
0101
0000
0100
0000
0000
0000
0100
0000
0000
0000
0100
0000
0000
0000
,
0100
1000
1000
1000
,
1000
0000
0010
1000
0010
1000
0010
1000
,
0010
1000
1010
1010
0101
0101
0011
0110
,
1001
0000
0000
0000
0000
0000
0001
1000
,
0000
0000
0000
0000
0001
0000
0100
0000
0010
0000
1000
0000
0010
0000
0000
0100
,
0000
0000
0000
0000
0000
0000
0001
1000
,
0000
0000
0000
0000
0001
0000
0010
0000
0100
0000
1000
0000
0100
0000
0000
0010
,
0000
0000
0000
0000
0000
0000
0000
0000
0000
0000
0001
0000
0010
0000
0000
0002
,
MM00
0000
00M0
0000
M0M0
0000
00M0
0000
M0M0
0M00
0000
0000
M000
0000
0M00
0000
M0M0
0000
00M0
0000
M0M0
0000
00M0
0000
M0M3
0000
0000
0000
0000
0000
0000
0000
,
0M00
0000
0M00
0000
0M00
0000
0M00
0000
1M00
0000
0M01
0000
1M00
0000
0000
0002
,
MM00
00M0
M0M0
0000
M0M0
0M00
M000
0000
M000
0000
M000
0000
M003
0000
0000
0000
,
0000
0000
0000
0000
0000
0000
0000
0000
MMM0
0000
M000
0000
M010
0M00
M001
0000
,
M000
0000
M000
0000
M000
0000
0000
0000
M0M0
0000
M0M0
0M00
MMM1
0M00
MMM1
0000
,
M0M0
M0M0
M0M0
0000
0000
0000
1000
0010
,
0000
0000
0000
0000
0000
0011
1001
1100
,
0000
0000
1000
0100
0010
0001
0100
0010
1000
0100
0010
0001
0100
0010
1000
0001
,
0100
0010
1000
0100
0010
0001
0100
0010
1000
0100
0010
0001
1000
0100
0010
0001
,
0100
0010
1000
0100
0010
0001
0202
0303
0001
0010
0100
1000
0010
0100
0001
0010
,
0100
1000
0010
0100
0001
1000
0010
0100
0001
0010
0100
1000
0010
0100
0001
0010
,
0100
1000
0001
0010
0200
M000
0310
0100
2000
3000
2020
3030
0000
1000
0100
1000
,
0100
0010
0001
0010
0001
0010
0100
0010
0220
0330
0220
0330
0000
1000
0010
1000
,
0002
0003
0020
0030
1000
0010
0002
0003
1000
0100
0002
0003
1000
0010
0001
0010
,
0200
0300
1000
0010
0100
0010
1000
0010
0100
0001
0100
0010
0100
0001
0100
0010
,
1000
0000
MMMM
0000
1000
0020
0030
0100
0002
0003
0200
0300
0000
0010
0100
0001
,
0100
0010
1000
0010
0100
0010
2000
3000
0200
0300
0022
0033
0000
1000
0010
0100
,
0010
1000
0100
0010
0100
1000
0001
0100
0001
1000
0100
0010
0100
1000
0010
0100
,
0002
0000
0013
0100
0010
0001
0100
0010
0100
0001
1000
0100
1000
0001
0100
0010
,
0200
0000
0301
0100
1000
0001
0010
1000
0001
0100
1000
0001
0010
1000
0001
0100
,
0202
0303
0001
0010
0100
1000
0010
0100
0001
0010
0100
1000
0010
0100
0001
1000
,
0010
0100
0001
0010
0100
1000
0010
0100
0001
0010
0100
1000
0001
0010
0100
1000
,
0010
1000
0100
0010
0100
1000
0001
0010
0100
0010
0001
1000
0010
0100
0010
1000
,
2020
3030
0000
0000
0010
0000
0000
0000
0110
0000
0000
0000
0100
0000
0000
0000
,
0110
1000
1001
0001
,
1001
0000
0000
1000
0100
0001
0100
1000
0001
0100
1000
0100
,
0001
1000
0010
0001
0010
1000
0001
0010
1000
0010
0001
0010
,
0100
0000
1000
0001
0000
0000
0001
0000
0000
0000
0000
0000
0100
0000
0000
0000
0000
0000
0010
0000
0000
0000
0000
0000
,
1000
1000
0100
0010
,
0001
0100
1000
0100
,
0001
0000
0000
0000
0010
0000
0000
0000
0001
0100
1000
0100
0001
0010
1000
0010
,
0001
0100
1000
0100
0001
0000
0000
0000
0000
0000
0000
0000
0000
0000
0000
0000
,
0000
0000
0000
0000
,
0000
0000
0000
0000
,
0000
0000
0000
0000
;
