#TITLE:About Damn Time;
#SUBTITLE:;
#ARTIST:Lizzo;
#TITLETRANSLIT:;
#SUBTITLETRANSLIT:;
#ARTISTTRANSLIT:;
#GENRE:Post-disco;
#CREDIT:Vndt;
#MUSIC:AboutDamnTime_audio.ogg;
#BANNER:AboutDamnTime_bn.png;
#BACKGROUND:AboutDamnTime_bg.png;
#CDTITLE:Special;
#SAMPLESTART:51.743;
#SAMPLELENGTH:26.147;
#SELECTABLE:YES;
#OFFSET:0.000;
#BPMS:0.000=109.001
,4.000=108.997
,5.000=109.001
,8.000=108.997
,9.000=109.001
,12.000=108.997
,13.000=109.001
,17.000=108.997
,18.000=109.001
,21.000=108.997
,22.000=109.001
,25.000=108.997
,26.000=109.001
,29.000=108.997
,30.000=109.001
,33.000=108.997
,34.000=109.001
,37.000=108.997
,38.000=109.001
,41.000=108.997
,42.000=109.001
,45.000=108.997
,46.000=109.001
,49.000=108.997
,50.000=109.001
,53.000=108.997
,54.000=109.001
,57.000=108.997
,58.000=109.001
,61.000=108.997
,62.000=109.001
,65.000=108.997
,66.000=109.001
,69.000=108.997
,70.000=109.001
,73.000=108.997
,74.000=109.001
,77.000=108.997
,78.000=109.001
,81.000=108.997
,82.000=109.001
,85.000=108.997
,86.000=109.001
,89.000=108.997
,90.000=109.001
,93.000=108.997
,94.000=109.001
,97.000=108.997
,98.000=109.001
,101.000=108.997
,102.000=109.001
,105.000=108.997
,106.000=109.001
,109.000=108.997
,110.000=109.001
,113.000=108.997
,114.000=109.001
,117.000=108.997
,118.000=109.001
,121.000=108.997
,122.000=109.001
,125.000=108.997
,126.000=109.001
,129.000=108.997
,130.000=109.001
,133.000=108.997
,134.000=109.001
,137.000=108.997
,138.000=109.001
,141.000=108.997
,142.000=109.001
,145.000=108.997
,146.000=109.001
,149.000=108.997
,150.000=109.001
,153.000=108.997
,154.000=109.001
,157.000=108.997
,158.000=109.001
,161.000=108.997
,162.000=109.001
,165.000=108.997
,166.000=109.001
,169.000=108.997
,170.000=109.001
;
#STOPS:170.021=0.550;
#JACKET:AboutDamnTime_jk.png;
#BGCHANGES:0.000=AboutDamnTime_video.mov=1.000=1=0=0=StretchNoLoop==CrossFade==,
99999.000=-nosongbg-=1.000=0=0=0=StretchNoLoop====
;
#FGCHANGES:;

//--------------- dance-single - ----------------
#NOTES:
     dance-single:
     :
     Beginner:
     2:
     0,0,0,0,0:
0000
0000
0000
0000
,
0000
0000
0000
0000
,
0000
0000
0000
0000
,
0000
0000
0000
0000
0000
0001
0000
0000
,
0002
0000
0000
0003
0000
0000
0000
0000
0000
0000
1000
0000
0000
0000
0000
0000
,
2000
0000
0000
3000
0000
0000
0000
0000
0000
0000
0100
0000
0000
0000
0000
0000
,
0200
0000
0000
0300
0000
0000
0000
0000
0000
0000
0010
0000
0000
0000
0000
0000
,
0040
0030
0001
0000
,
0020
0030
0000
0000
0001
0000
0001
0000
,
0000
0000
1000
0000
,
0020
0030
0000
0000
1000
0000
1000
0000
,
0040
0030
1000
0000
,
1000
0000
0001
0000
,
0001
0000
0001
0000
,
0200
0300
0200
0300
,
0020
0030
0000
2001
,
0000
0000
0000
3000
0001
0000
0000
0000
,
0010
0000
0100
0000
,
2000
0000
0000
3000
0000
0000
0000
0000
1000
0000
0000
0000
0000
0000
0000
0000
,
0010
0000
0000
1002
,
0000
0000
0000
0003
1000
0000
0000
0000
,
0010
0000
0200
0000
,
0000
0000
0000
0000
0300
0100
0000
0020
,
0000
0000
0000
0030
0000
0000
0010
0000
,
0000
1000
0000
0100
,
0000
1000
0000
0001
,
0000
0000
0001
0000
0000
0000
0000
0001
,
0001
2000
0000
3002
,
0000
0023
0000
0030
,
2002
3003
0000
0010
,
0000
0001
0000
0100
,
0000
0001
0000
1000
,
0000
0000
1000
0000
0000
0000
0000
1000
,
1000
0002
0000
2003
,
0000
3020
0000
0030
,
2002
0000
3003
0000
1000
0000
0000
0100
,
0000
0000
0010
0000
0000
0001
0000
0000
,
0110
0000
0000
0000
0001
0000
0000
0100
,
0000
0000
0010
0000
0000
1000
0000
0000
,
0110
0000
1000
0000
,
0001
0000
0100
0000
,
0010
0000
0010
0000
0000
0000
0020
0030
,
0000
0000
0000
0000
0000
0000
0000
0000
0000
0000
0000
0000
0000
0000
0000
0000
0000
0000
0000
0000
0000
0000
0000
0000
0200
0000
0000
0000
0000
0000
0000
0000
0000
0000
0000
0000
0300
0000
0000
0000
0000
0000
0000
0000
0000
0000
0000
0000
2000
3000
0000
0000
0000
0000
0000
0000
0000
0000
0000
0000
0000
0000
0000
0000
0000
0000
0000
0000
0000
0000
0000
0000
0001
0000
0000
0000
0000
0000
0000
0000
0000
0000
0000
0000
0000
0000
0000
0000
0000
0000
0000
0000
0000
0000
0000
0000
,
0002
0003
2001
0000
,
0000
3000
0001
0000
0000
0000
0100
0000
,
0000
0000
0000
0000
0010
0000
0000
0000
0000
0000
0000
0000
2000
0000
0000
3000
,
0000
1000
0000
0100
,
0000
0000
1002
0000
,
0000
0003
1000
0000
0000
0000
0100
0000
,
0000
0020
0000
0000
,
0000
0000
0030
0010
0000
0200
0000
0000
,
0000
0300
0000
0000
0010
0000
0000
0000
,
0001
0000
0100
0000
,
0001
0000
1000
0000
,
0001
0000
0000
0000
0000
0001
0001
0000
,
2000
0000
3002
0000
,
0203
0000
0300
2002
,
3003
0000
0010
0000
,
1000
0000
0100
0000
,
1000
0002
0000
0000
,
0000
0000
0003
0000
0000
0001
0001
0000
,
2000
0000
3002
0000
,
0023
0000
0030
2002
,
3003
0000
0010
0000
,
0010
0000
0000
0000
0000
0110
0000
0000
,
0000
0000
0001
0000
0000
1000
0000
0000
,
0000
1000
0000
0000
0000
0000
0220
0000
,
0000
0000
0000
0000
,
0000
0000
0000
0330
;

//--------------- dance-single - ----------------
#NOTES:
     dance-single:
     :
     Easy:
     5:
     0,0,0,0,0:
0000
0000
0000
0000
,
0000
0000
0000
0000
,
0000
0000
0000
0000
,
0000
0000
0000
0000
0000
0001
0000
0000
,
0004
0000
0000
0003
0000
0000
0000
0000
0000
0000
1000
0000
0000
0000
0000
0000
,
4000
0000
0000
3000
0000
0000
0000
0000
0000
0000
0100
0000
0000
0000
0000
0000
,
0400
0000
0000
0300
0000
0000
0000
0000
0000
0000
0010
0000
0000
0000
0000
0000
,
0010
0010
0010
0000
1100
0000
0001
0000
,
0020
0030
0100
0000
1000
0000
0100
0000
,
0010
0001
0101
1000
,
0020
0030
0110
0000
0001
0000
0100
0000
,
0010
0010
0010
0000
1000
0000
0100
0000
,
1000
0000
0001
0100
,
0001
0000
0001
0010
,
0100
0100
0000
0000
0100
0100
0000
0000
,
0010
0010
0020
0000
0031
0000
2001
0000
,
0000
0000
0000
3000
0001
0000
0100
0000
,
0010
0100
0001
0000
,
4000
0000
0000
3000
0000
0000
0000
0000
1000
0000
0000
0000
0100
0000
0000
0000
,
0010
0100
1000
1002
,
0000
0000
0000
0003
0001
0000
0010
0000
,
0100
0010
0001
0010
,
0100
0000
0010
0000
0100
0100
0000
0220
,
0000
0000
0000
0330
1000
0000
0010
0000
,
0010
0010
1000
0100
,
0100
0100
1000
0010
,
1000
0000
0001
0000
0001
0000
0001
0010
,
0001
1000
1100
0001
,
0101
0000
1000
0000
0002
0000
0000
0003
,
1000
0001
1001
0000
0002
0000
0010
0000
,
0010
0000
0000
0000
0010
0000
0000
0000
0000
0000
0000
0000
0100
0000
0000
0003
,
0100
0100
0002
0010
,
0010
0000
0010
0000
0000
0000
1003
0001
,
1000
0001
0101
1000
,
1100
0000
0001
0000
2000
0000
0000
3000
,
0001
1000
1001
0000
1000
0100
0000
0100
,
0010
0000
0010
0001
0000
0001
0100
0000
,
0010
0010
0010
0000
1000
0010
0000
0010
,
0100
0000
0100
0001
0000
0001
0010
0000
,
0100
0100
0100
0000
0010
0000
0110
0000
,
0001
0000
0001
0000
0100
0000
0000
2001
,
0000
3010
0010
0000
1000
0000
0020
0030
,
1000
0000
0000
0000
0000
0000
0000
0000
0000
0000
0000
0000
0000
0000
0000
0000
0000
0000
0000
0000
0000
0000
0000
0000
0200
0000
0000
0000
0000
0000
0000
0000
0000
0000
0000
0000
0300
0000
0000
0000
0000
0000
0000
0000
0000
0000
0000
0000
0220
0330
0000
0000
0000
0000
0000
0000
0000
0000
0000
0000
0000
0000
0000
0000
0000
0000
0000
0000
0000
0000
0000
0000
0001
0000
0000
0000
0000
0000
0000
0000
0000
0000
0000
0000
0001
0000
0000
0000
0000
0000
0000
0000
0000
0000
0000
0000
,
0002
1003
1200
0001
,
1300
1000
0100
0010
,
0100
0000
0000
0000
1000
0000
0000
0000
0000
0000
0000
0000
0002
0000
0000
0003
,
0000
0001
0100
0010
,
0100
0001
0201
1000
,
0301
1000
0010
0100
,
0010
2000
0010
0010
,
0010
0000
3010
1000
0000
0220
0000
0000
,
0000
0330
0001
0000
0010
0000
0010
0000
,
0010
0001
0100
0100
,
0100
0001
0010
0100
,
1000
0000
1000
0000
0001
0001
0001
0000
,
0001
0101
1000
1100
,
1000
0000
0002
0000
0000
0003
0001
1000
,
1001
0002
0010
0100
,
0100
0000
0000
0000
0000
0000
0000
0000
0010
0000
0000
0003
0010
0000
0000
0000
,
0010
0002
0010
0100
,
0100
0000
0000
0000
1003
0001
1000
0000
,
0001
0011
1000
1010
,
1000
0000
0001
0000
0000
0000
0001
1000
,
1001
0000
0010
0010
,
0010
0000
0100
0000
0000
0110
0000
0000
,
0100
0000
0001
0000
0000
0011
0000
0000
,
0000
1010
0000
0000
0000
0000
0010
0010
,
0220
0000
0000
0000
,
0000
0000
0000
0000
0000
0000
0000
0000
0000
0000
0000
0330
0000
0000
0000
0000
;

//--------------- dance-single - ----------------
#NOTES:
     dance-single:
     :
     Medium:
     9:
     0,0,0,0,0:
0000
0000
0000
0000
,
0000
0000
0000
0000
,
0000
0000
0000
0000
,
0000
0000
0000
0000
0000
0000
0000
0000
1000
0000
0001
0000
0010
0001
0000
0000
,
0010
0000
0010
0001
0000
0000
0000
0000
0001
0000
1000
0000
0010
1000
0000
0000
,
0010
0000
0010
1000
0000
0000
0010
0000
1000
0000
0001
0000
0100
0001
0000
0000
,
0100
0000
0100
0001
0000
0000
0000
0000
0001
0000
1000
0000
0100
1000
0000
0000
,
0100
0000
0100
0000
0100
0000
1000
0000
1100
0000
0000
0101
0000
0000
1000
0000
,
0020
0000
0030
0000
0110
0000
0100
0000
0010
0000
0000
0000
0010
0100
0000
0000
,
0001
0000
0001
0100
0000
0000
0001
0000
0101
0000
0000
1100
0000
0000
0001
0000
,
0020
0000
0030
0000
0110
0000
0100
0000
0010
0000
0000
0000
0010
0100
0000
0000
,
0011
0010
0010
0000
0001
0100
0010
1000
,
0100
0100
0000
0000
1000
0100
0010
0001
,
0100
0100
0000
0000
0001
0010
0100
1000
,
0010
0010
0000
0100
0010
0010
0000
0100
,
0010
0010
0020
0000
1030
0000
1200
0000
,
0001
0000
0000
0000
1300
0001
0000
0100
0000
0010
0000
0100
0000
0001
0000
1000
,
0000
0001
0000
1000
0000
0000
0100
0000
1000
0000
0010
0000
0000
0010
0000
0000
,
2000
0000
3000
1000
0000
1000
0000
0100
0000
0010
0000
0100
0000
1000
0000
0001
,
0000
1000
0000
0001
0000
0000
0100
0000
0001
0000
0000
0000
1020
0000
0000
0000
,
0001
0000
0000
0000
1030
0001
0000
0010
0000
0100
0000
0010
0000
0001
0000
1000
,
0000
0001
0000
1000
0000
2000
0000
0000
3002
0000
0000
0000
0010
0000
0000
0000
,
1000
0000
0000
0000
0010
0000
0000
0000
1003
0000
0220
0000
0000
0330
1000
0000
,
0010
0000
0010
0000
0010
0000
0100
0000
1001
0000
1000
0000
0010
0000
0100
0020
,
0000
0000
1030
0000
0001
0000
0000
0000
0001
0000
1000
0000
0100
0000
0010
0200
,
0000
0000
0300
0000
1000
0000
0000
0000
1000
0000
0001
0000
0010
0000
0100
0020
,
0000
0000
0031
0000
0010
0000
0000
0020
0030
0000
0001
0000
0010
0000
0001
0000
,
0001
0000
1000
0100
0110
0000
0001
0100
,
0110
0000
1000
0100
0002
0000
0000
1003
,
1001
0000
0110
0000
1001
0000
0000
0000
1001
0000
0001
0000
0010
0000
0100
0020
,
0000
0000
0031
0000
1000
0000
0000
0000
1000
0000
0001
0000
0100
0000
0010
0200
,
0000
0000
0300
0000
0001
0000
0000
0001
0000
0000
1000
0000
0010
0000
0100
0020
,
0000
0000
1030
0000
0010
0000
0000
0020
0030
0000
1000
0000
0010
0000
1000
0000
,
1000
0000
0001
0100
0110
0000
1000
0100
,
0110
0000
1000
0010
0002
0000
0000
1003
,
1001
0000
0110
0000
1001
0000
0000
0000
1000
0000
0100
1000
0000
0000
0001
0000
,
0100
0001
0000
0000
0001
0000
0100
0001
0000
0000
1000
0000
0100
1000
0000
0000
,
0011
0000
0110
0000
1100
0000
0000
0000
1000
0000
0010
1000
0000
0000
0001
0000
,
0010
0001
0000
0000
0001
0000
0010
0100
0000
0000
1000
0000
0001
0000
0100
0000
,
0101
0110
1010
0000
0010
0100
0101
0000
,
1100
0001
0001
0000
0001
0010
0001
1001
,
1000
0010
0010
0000
1000
1000
0020
0030
,
1000
0000
0000
0000
0000
0000
0000
0000
0000
0000
0000
0000
1000
0000
0000
0000
0000
0000
0000
0000
0000
0000
0000
0000
0200
0000
0000
0000
0000
0000
0000
0000
0000
0000
0000
0000
0300
0000
0000
0000
0000
0000
0000
0000
0000
0000
0000
0000
0220
0330
0000
0000
0000
0000
0000
0000
0000
0000
0000
0000
0001
0000
0000
0000
0000
0000
0000
0000
0000
0000
0000
0000
0010
0000
0000
0000
0000
0000
0000
0000
0000
0000
0000
0000
0010
0000
0000
0000
0000
0000
0000
0000
0000
0000
0000
0000
,
0020
0030
0201
1000
,
0301
1000
0000
0100
0000
0010
0000
0100
0000
1000
0000
0001
0000
1000
0000
0001
,
0000
0000
0100
0000
0001
0000
0010
0000
0000
0010
0000
0000
0002
0000
0003
0001
,
0000
0001
0000
0100
0000
0010
0000
0100
0000
0001
0000
1000
0000
0001
0000
1000
,
0000
0100
1000
0000
0021
0000
1000
0000
,
0031
1000
0000
0010
0000
0100
0000
0010
0000
1000
0000
0001
0000
1000
0000
0001
,
0000
0002
0000
0000
2003
0000
0000
0000
0010
0000
0000
0000
0001
0000
0000
0000
,
0010
0000
0000
0000
3001
0000
0200
0040
0000
0000
0000
0000
0000
0000
0000
0000
,
0000
0000
0330
0000
1001
0000
1000
0000
0010
0000
0010
0200
0000
0000
0301
0000
,
0001
0000
0000
0000
0001
0000
1000
0000
0100
0000
0100
0020
0000
0000
0030
0000
,
0001
0000
0000
0000
1000
0000
0001
0000
0100
0000
0010
0200
0000
0000
0301
0000
,
0100
0000
0000
0200
0300
0000
0001
0000
0100
0000
0001
0000
0001
0000
0000
0000
,
1000
0010
0110
0000
0001
0010
0110
0000
,
1000
0010
0002
0000
0000
1003
1001
0110
,
1001
0000
0000
0000
1001
0000
0001
0000
0010
0000
0010
0200
0000
0000
1300
0000
,
1000
0000
0000
0000
1000
0000
0001
0000
0100
0000
0100
0020
0000
0000
0030
0000
,
1000
0000
0000
0002
0000
0000
1000
0000
0100
0000
0000
0010
0000
0000
1000
0000
,
0100
0000
0000
0200
0303
0000
1000
0000
0100
0000
1000
0000
1000
0000
0000
0000
,
1000
0100
0101
0000
0001
0100
1100
0000
,
0001
0010
2010
0000
0000
3001
1001
0110
,
1001
0000
0000
0000
1000
0000
0001
0000
0010
0000
0001
0000
0010
0000
0001
1000
,
0000
1000
0100
0000
0000
0000
1000
0000
0010
0000
1010
0000
0010
0000
0100
0001
,
0000
0001
1000
0000
0000
0000
1000
0000
0010
0000
1000
0000
0010
0000
1000
0001
,
0000
0001
0100
0000
0000
0000
0001
0000
0010
0000
0001
0000
1001
0000
0110
0000
,
2002
0000
0000
0000
,
0000
0000
0000
0000
0000
3003
0000
0000
;

//--------------- dance-single - ----------------
#NOTES:
     dance-single:
     :
     Hard:
     13:
     0,0,0,0,0:
0000
0000
0000
0000
,
0000
0000
0000
0000
,
0000
0000
0000
0000
,
0000
0000
0000
0000
0000
0000
1000
0100
1000
0000
0001
0100
0001
1000
0000
0000
,
1000
0010
1000
0010
0000
0000
0010
0100
0001
0000
0010
0000
0001
0010
0000
0001
,
1000
0001
2000
3001
0100
0000
0010
0000
1000
0000
0001
0010
0001
1000
0000
0000
,
1000
0100
1000
0100
0000
0000
0100
0010
0001
0000
0100
0000
0001
0100
0000
0001
,
1001
0000
0110
0000
1001
0000
1000
0000
1100
0000
0000
0101
0000
0000
1000
0000
,
0020
0000
0130
0000
0110
0000
0100
0000
0010
0000
0000
0000
0010
0100
0000
0000
,
0001
0100
0001
0100
0000
0000
0001
0000
0101
0000
0000
1100
0000
0000
0001
0000
,
0020
0000
0130
0000
0110
0000
0100
0000
0010
0000
0000
0000
0010
0100
1000
0001
,
0011
0000
0010
0000
0010
0000
0000
0001
1000
0010
0100
0001
1000
0010
0100
0001
,
1000
0000
1000
0000
0100
0000
0000
1000
0001
0010
0100
1000
0001
0010
0100
1000
,
0001
0000
0001
0000
0100
0000
0000
0001
1000
0100
0010
0001
1000
0100
0010
0001
,
0100
0000
0100
0000
0000
0000
0100
0010
1000
0000
1000
0000
0000
0000
0100
0010
,
0001
0000
0001
0000
2001
0000
0000
0000
3001
0010
0100
0000
0100
1000
0000
0000
,
1000
0001
1000
0001
0000
0001
0000
0100
0000
0010
0000
0100
0000
0001
0000
1000
,
0000
0001
0000
1000
0000
0000
0100
0000
1000
0000
0010
0000
0100
0010
0000
0000
,
1000
0010
1000
0010
0000
1000
0000
0100
0000
0010
0000
0100
0000
1000
0000
0001
,
0000
1000
0000
0001
0000
0000
0100
0000
0001
0100
0010
0000
0010
1000
0000
0000
,
1000
0001
1000
0001
0000
0001
0000
0010
0000
0100
0000
0010
0000
0001
0000
1000
,
0000
0001
0000
1000
0000
0020
2030
0000
3002
0000
0000
0000
0010
0000
0000
0000
,
1000
0000
0000
0000
0010
0000
0000
0000
1003
0000
0220
0000
0000
0330
1000
0100
,
0010
0000
0010
0000
0010
0000
0100
0000
1001
0000
1000
0000
0010
0000
0100
0020
,
2030
0000
3001
0010
0001
0010
0100
0000
0100
0000
1000
0000
0100
0000
0010
0100
,
1000
0001
0100
0010
1000
0000
0100
0000
1000
0000
0001
0000
0010
0000
0100
0020
,
0032
0000
1003
0010
1000
0010
0100
0020
1030
0000
0001
0000
0010
0000
0001
0000
,
0001
0000
0100
0010
1000
0000
1000
0001
0100
0000
0100
0010
1000
0000
0001
1000
,
0100
0000
0100
1000
0010
0000
0010
0100
0001
0000
1000
0000
0001
1000
0001
1000
,
0001
0000
0110
0000
1001
0000
0000
0000
1001
0000
1000
0000
0010
0000
0100
0020
,
2030
0000
3001
0010
0001
0010
0100
1000
0100
0000
1000
0000
0100
0000
0010
0100
,
1000
0001
0100
0010
0000
1000
0010
1000
0001
0000
0001
0000
0010
0000
0100
0020
,
0032
0000
1003
0010
1000
0010
0100
0020
1030
0000
0001
0000
0010
0000
0001
0000
,
0001
0000
0100
0010
1000
0000
1000
0001
0100
0000
0100
0010
1000
0000
0001
1000
,
0100
0000
0100
1000
0010
0000
0010
0100
0001
0000
1000
0000
0001
1000
0001
1000
,
0001
0000
0110
0000
1001
0000
0000
0000
1000
0010
0100
0001
0000
0000
0001
0010
,
0100
1000
0000
0000
1000
0100
0010
0001
0000
0000
0001
0100
0010
1000
0000
0001
,
0011
0000
0110
0000
1100
0000
1000
0000
1000
0100
1000
0100
0000
0000
0010
0100
,
0010
0100
0000
0010
0001
0010
0001
0010
0000
0000
0001
0100
0001
1000
0001
0100
,
0101
0000
0110
0000
1010
0000
0000
1000
0100
0010
0100
1000
0001
0000
0000
0000
,
1100
0000
0001
0000
0101
0000
0000
0000
0001
0010
0001
0000
0001
0000
1001
0000
,
1000
0000
0010
0100
0010
0000
0000
0000
1000
0001
1000
0000
0020
0000
0130
0000
,
0001
0000
0000
0000
0000
0000
1000
0000
0000
0000
0000
0000
0001
0000
0000
0000
0000
0000
0000
0000
0000
0000
0000
0000
0200
0000
0000
0000
0000
0000
0000
0000
0000
0000
0000
0000
0310
0000
0000
0000
0000
0000
0000
0000
0000
0000
0000
0000
0220
0330
0000
0000
0000
0000
1000
0000
0000
0000
0000
0000
0001
0000
0000
0000
0000
0000
1000
0000
0000
0000
0000
0000
0020
0000
0000
0000
0000
0000
0130
0000
0000
0000
0000
0000
0001
0000
0000
0000
0000
0000
0000
0000
0000
0000
0000
0000
,
0002
0000
0000
0000
1003
0010
0100
0000
0100
0001
0000
0000
0001
1000
0001
1000
,
0000
1000
0000
0100
0000
0010
0000
0100
0000
1000
0000
0001
0000
1000
0000
0001
,
0000
0000
0100
0000
0001
0000
0010
0000
0100
0010
0000
0000
0001
0010
0001
0010
,
0000
0001
0000
0100
0000
0010
0000
0100
0000
0001
0000
1000
0000
0001
0000
1000
,
0000
0000
0100
0000
1000
0100
0010
0000
0010
0001
0000
0000
0001
1000
0001
1000
,
0000
1000
0000
0010
0000
0100
0000
0010
0000
1000
0000
0001
0000
1000
0000
0001
,
0000
0020
0032
0000
2003
0000
0000
0000
0010
0000
0000
0000
0001
0000
0000
0000
,
0010
0000
0000
0000
3001
0000
0220
0000
0000
0330
0001
0100
0010
0000
0010
0000
,
0010
0000
0100
0000
1001
0000
0001
0000
0010
0000
0100
0020
0032
0000
1003
0010
,
1000
0010
0100
0000
0100
0000
0001
0000
0100
0000
0010
0100
0001
1000
0100
0010
,
0001
0000
0100
0000
0001
0000
1000
0000
0010
0000
0100
0020
2030
0000
3001
0010
,
0001
0010
0100
0020
0031
0000
1000
0000
0010
0000
1000
0000
0001
0000
0001
0010
,
0001
0000
0010
0100
1000
0000
0001
0100
0001
0000
0100
0010
1000
0000
1000
0010
,
1000
0000
0010
0100
0001
0000
1001
0000
1000
0001
0100
0010
1000
0000
0110
0000
,
1001
0000
0000
0000
1000
0000
0001
0000
0010
0000
0100
0020
0032
0000
1003
0010
,
0000
0010
0100
0001
0100
0000
0001
0000
1000
0000
0100
0010
0001
1000
0100
0010
,
0001
0000
0100
0002
0000
0000
1000
0000
0010
0000
0103
0020
2030
0000
3001
0010
,
0001
0010
0100
0020
0031
0000
1000
0000
0001
0000
1100
0000
0101
0000
1000
0010
,
1000
0000
0010
0100
0001
0000
1000
0100
1000
0000
0100
0010
0001
0000
0001
0010
,
0001
0000
0010
0100
1000
0000
0001
1000
0001
0010
0001
1000
0001
0000
0110
0000
,
4001
0000
0000
0000
0000
3000
0001
0000
0010
0000
0001
0000
0010
0000
0001
1000
,
0000
1000
0100
0010
0000
0000
0001
0000
0010
0000
0001
0000
0010
0000
0001
1000
,
0000
1000
0010
0100
0000
0000
0010
0000
1000
0000
0010
0000
1000
0000
0010
0100
,
0000
0100
0001
1000
0000
0000
0100
0000
0010
0000
0001
1000
0001
0000
0110
0000
,
2002
0000
0000
0000
,
0000
0000
0000
0000
0000
0000
0000
0000
0000
0000
0000
3003
0000
0000
0000
0000
;

//--------------- dance-single - ----------------
#NOTES:
     dance-single:
     :
     Challenge:
     14:
     0,0,0,0,0:
0000
0000
0000
0000
,
0000
0000
0000
0000
,
0000
0000
0000
0000
,
0000
0000
0000
0000
0000
0000
1000
0100
1000
0000
0001
0100
0001
1000
0000
0000
,
1000
0010
1000
0010
0000
0000
0010
0100
0001
0000
0010
0000
0001
0010
0000
0001
,
1000
0001
2000
3001
0100
0000
0010
0000
1000
0000
0001
0010
0001
1000
0000
0000
,
1000
0100
1000
0100
0000
0000
0100
0010
0001
0000
0100
0000
0001
0100
0000
0001
,
1001
0000
0110
0000
1001
0000
1000
0000
1100
0000
0000
0101
0000
0000
1000
0000
,
0020
0000
0130
0000
0110
0000
0100
0000
0010
0000
0000
0000
0010
0100
0000
0000
,
0001
0100
0001
0100
0000
0000
0001
0000
0101
0000
0000
1100
0000
0000
0001
0000
,
0020
0000
0130
0000
0110
0000
0100
0000
0010
0000
0000
0000
0010
0100
1000
0001
,
0011
0000
0010
0000
0010
0000
0000
0001
1000
0010
0100
0001
1000
0010
0100
0001
,
1000
0000
1000
0000
0100
0000
0000
1000
0001
0010
0100
1000
0001
0010
0100
1000
,
0001
0000
0001
0000
0100
0000
0000
0001
1000
0100
0010
0001
1000
0100
0010
0001
,
0100
0000
0100
0000
0000
0000
0100
0010
1000
0000
1000
0000
0000
0000
0100
0010
,
0001
0000
0001
0000
2001
0000
0000
0000
3001
0010
0100
0000
1200
0000
0000
0000
,
0001
0000
0000
0000
1300
0001
0000
0100
0000
0010
0000
0100
0000
0001
0000
1000
,
0000
0001
0000
1000
0000
0000
0100
0000
1000
0000
0010
0000
0100
0010
0000
0000
,
1000
0010
1000
0010
0000
1000
0000
0100
0000
0010
0000
0100
0000
1000
0000
0001
,
0000
1000
0000
0001
0000
0000
0100
0000
0001
0100
0010
0000
1020
0000
0000
0000
,
0001
0000
0000
0000
1030
0001
0000
0010
0000
0100
0000
0010
0000
0001
0000
1000
,
0000
0001
0000
1000
0000
0020
2030
0000
3002
0000
0000
0000
0010
0000
0000
0000
,
1000
0000
0000
0000
0010
0000
0000
0000
1003
0000
0220
0000
0000
0330
1000
0100
,
0010
0000
0010
0000
0010
0000
0100
0000
1001
0000
1000
0000
0010
0000
0100
0020
,
2030
0000
3001
0010
0001
0010
0100
0000
0100
0000
1000
0000
0100
0000
0010
0100
,
1000
0001
0100
0010
1000
0000
0100
0000
1000
0000
0001
0000
0010
0000
0100
0020
,
0032
0000
1003
0010
1000
0010
0100
0020
1030
0000
0001
0000
0010
0000
0001
0000
,
0001
0000
0100
0010
1000
0000
1000
0001
0100
0000
010M
0010
0001
0000
0001
1000
,
0100
0000
M100
0001
0010
0000
0010
0100
0001
0000
1000
0000
0001
1000
0001
1000
,
0001
0000
0110
0000
1001
0000
0000
0000
1001
0000
1000
0000
0010
0000
0100
0020
,
2030
0000
3001
0010
0001
0010
0100
1000
0100
0000
1000
0000
0100
0000
0010
0100
,
1000
0001
0100
0010
0000
1000
0010
1000
0001
0000
0001
0000
0010
0000
0100
0020
,
0032
0000
1003
0010
1000
0010
0100
0020
1030
0000
0001
0000
0010
0000
0001
0000
,
0001
0000
0100
0010
1000
0000
1000
0001
0100
0000
010M
0010
0001
0000
0001
1000
,
0100
0000
M100
0001
0010
0000
0010
0100
0001
0000
1000
0000
0001
1000
0001
1000
,
0001
0000
0110
0000
1001
0000
0000
0000
1000
0010
0100
1000
0000
0000
0001
0010
,
0100
0001
0000
0000
0001
0010
0100
0001
0000
0000
1000
0010
0100
1000
0000
0001
,
0011
0000
0110
0000
1100
0000
1000
0000
1000
0100
0010
1000
0000
0000
0001
0100
,
0010
0001
0000
1000
0001
0100
0010
0001
0000
0000
1000
0100
0010
1000
0001
0100
,
0101
0000
0110
0000
1010
0000
0000
1000
0100
1000
0100
1000
0001
0000
0000
0000
,
1100
0000
0001
0000
0101
0000
0000
0000
0001
0010
0001
0000
0001
0000
1001
0000
,
1000
0000
0010
0100
0010
0000
0000
0000
1000
0001
1000
0000
0020
0000
0130
0000
,
0001
0000
0000
0000
1000
0000
0000
0000
0001
0000
0000
0000
0000
0000
0000
0000
0200
0000
0000
0000
0000
0000
0000
0000
0310
0000
0000
0000
0000
0000
0000
0000
0000
MMMM
0000
0000
1000
0000
0000
0000
0001
0000
0000
0000
1000
0000
0000
0000
0020
0000
0000
0000
0130
0000
0000
0000
0001
0000
0000
0000
0000
0000
0000
0000
,
0002
0000
0000
0000
1003
0010
0100
0000
0201
0000
0000
0000
1000
0000
0000
0000
,
0301
1000
0000
0100
0000
0010
0000
0100
0000
1000
0000
0001
0000
1000
0000
0001
,
0000
0000
0100
0000
0001
1000
0100
0000
0100
0010
0000
0000
0001
0010
0001
0010
,
0000
0001
0000
0100
0000
0010
0000
0100
0000
0001
0000
1000
0000
0001
0000
1000
,
0000
0000
0100
0000
1000
0100
0010
0000
0021
0000
0000
0000
1000
0000
0000
0000
,
0031
1000
0000
0010
0000
0100
0000
0010
0000
1000
0000
0001
0000
1000
0000
0001
,
0000
0020
0032
0000
2003
0000
0000
0000
0010
0000
0000
0000
0001
0000
0000
0000
,
0010
0000
0000
0000
3001
0000
0400
0040
0000
0000
0000
0000
0000
0000
0000
0000
,
0000
0000
0000
0330
1001
0000
0001
0000
0010
0000
0100
0020
0032
0000
1003
0010
,
1000
0010
0100
0000
0100
0000
0001
0000
0100
0000
0010
0100
0001
1000
0100
0010
,
0001
0000
0100
0000
0001
0000
1000
0000
0010
0000
0100
0020
2030
0000
3001
0010
,
0001
0010
0100
0020
0031
0000
1000
0000
0010
0000
1000
0000
0001
0000
0100
0010
,
1000
0000
1000
0010
0001
0000
00M1
0100
0010
0000
1000
0100
0001
0000
0M01
0010
,
0100
0000
0010
0100
0001
0000
1000
0000
0001
1000
0001
1000
0001
0000
0110
0000
,
1001
0000
0000
0000
1000
0000
0001
0000
0010
0000
0100
0020
0032
0000
1003
0010
,
0000
0010
0100
0001
0100
0000
0001
0000
1000
0000
0100
0010
0001
1000
0100
0010
,
0001
0000
0100
0002
0000
0000
1000
0000
0010
0000
0103
0020
2030
0000
3001
0010
,
0001
0010
0100
0020
0001
0000
1000
0000
0001
0000
1000
0000
0031
0000
0010
0100
,
1000
0000
1000
0100
0001
0000
0M01
0010
0100
0000
1000
0010
0001
0000
00M1
0100
,
0010
0000
0100
0010
0001
0000
1000
0001
1000
0001
1000
0001
1000
0000
0110
0000
,
4001
0000
0000
0000
0000
0000
3001
0000
0010
0000
0001
0000
0010
0000
0001
1000
,
0000
1000
0100
0010
0000
0000
0001
0000
0010
0000
MMMM
0000
0010
0000
0001
1000
,
0000
1000
0010
0100
0000
0000
0010
0000
1000
0000
0010
0000
1000
0000
0010
0100
,
0000
0100
0001
1000
0000
0000
0100
0000
0010
0000
0001
1000
0001
0000
0110
0000
,
2002
0000
0000
0000
,
0000
0000
0000
0000
0000
0000
0000
0000
0000
0000
0000
3003
0000
0000
0000
0000
;
