#VERSION:0.82;
#TITLE:Your Best Nightmare;
#SUBTITLE:and Finale;
#ARTIST:Toby Fox;
#TITLETRANSLIT:;
#SUBTITLETRANSLIT:;
#ARTISTTRANSLIT:;
#GENRE:;
#ORIGIN:;
#CREDIT:;
#BANNER:banner.png;
#BACKGROUND:approach.png;
#PREVIEWVID:;
#JACKET:jacket.png;
#CDIMAGE:;
#DISCIMAGE:finale.png;
#LYRICSPATH:;
#CDTITLE:;
#MUSIC:ybnfinale.mp3;
#OFFSET:-0.115000;
#SAMPLESTART:208.456039;
#SAMPLELENGTH:15.157898;
#SELECTABLE:YES;
#DISPLAYBPM:190.000000;
#BPMS:0.000=95.000,
26.000=380.000,
28.000=190.000,
124.000=380.000,
132.000=190.000,
180.000=380.000,
188.000=190.000,
236.000=380.000,
244.000=190.000,
332.000=380.000,
340.000=190.000,
388.000=380.000,
396.000=190.000,
444.000=380.000,
452.000=190.000,
532.000=380.000,
540.000=190.000,
588.000=380.000,
596.000=190.000,
644.000=380.000,
652.000=190.000,
748.000=375.000,
756.000=190.000;
#STOPS:26.000=5.960;
#DELAYS:;
#WARPS:;
#TIMESIGNATURES:0.000=4=4;
#TICKCOUNTS:0.000=4;
#COMBOS:0.000=1;
#SPEEDS:0.000=1.000=0.000=0;
#SCROLLS:0.000=1.000;
#FAKES:;
#LABELS:0.000=Song Start;
#BGCHANGES:0.000=approach.png=1.000=0=0=1=====,
28.000=omega.jpg=1.000=0=0=1=====,
124.000=static.avi=1.000=0=0=1=====,
132.000=omega.jpg=1.000=0=0=1=====,
180.000=static.avi=1.000=0=0=1=====,
188.000=omega.jpg=1.000=0=0=1=====,
236.000=static.avi=1.000=0=0=1=====,
244.000=omega.jpg=1.000=0=0=1=====,
332.000=static.avi=1.000=0=0=1=====,
340.000=omega.jpg=1.000=0=0=1=====,
388.000=static.avi=1.000=0=0=1=====,
396.000=omega.jpg=1.000=0=0=1=====,
444.000=static.avi=1.000=0=0=1=====,
452.000=omega.jpg=1.000=0=0=1=====,
532.000=static.avi=1.000=0=0=1=====,
540.000=omega.jpg=1.000=0=0=1=====,
588.000=static.avi=1.000=0=0=1=====,
596.000=omega.jpg=1.000=0=0=1=====,
644.000=static.avi=1.000=0=0=1=====,
652.000=omega.jpg=1.000=0=0=1=====,
748.000=static.avi=1.000=0=0=1=====,
756.000=finale.png=1.000=0=0=1=====,
99999=-nosongbg-=1.000=0=0=0 // don't automatically add -songbackground-
;
#KEYSOUNDS:;
#ATTACKS:
;

//---------------dance-single - bblum----------------
#NOTEDATA:;
#CHARTNAME:bblum;
#STEPSTYPE:dance-single;
#DESCRIPTION:bblum;
#CHARTSTYLE:;
#DIFFICULTY:Challenge;
#METER:16;
#RADARVALUES:1.000000,1.000000,0.181522,0.550239,1.000000,2445.000000,64.000000,194.000000,688.000000,61.000000,51.000000,0.000000,0.000000,1.000000,1.000000,0.181522,0.550239,1.000000,2445.000000,64.000000,194.000000,688.000000,61.000000,51.000000,0.000000,0.000000;
#CREDIT:bblum;
#DISPLAYBPM:190.000000;
#NOTES:
// measure 0
2000
0200
0020
0000
,  // measure 1
0000
0000
3332
2000
,  // measure 2
0200
0000
0000
0000
,  // measure 3
3323
2000
0002
0000
,  // measure 4
0000
0000
3233
0002
,  // measure 5
0040
0000
0000
0000
,  // measure 6
0000
0000
0000
0000
0000
0000
0000
0000
0000
0000
0000
0000
0000
0000
0000
0000
0000
0000
0000
0000
0000
0000
0000
0000
0000
0000
0000
0000
0000
0000
0000
0000
0000
0333
0M0M
0000
M0M0
0000
0M0M
0000
M0M0
0000
0M0M
0000
M0M0
0000
0M0M
0000
M0M0
0000
0M0M
0000
M0M0
0000
0M0M
0000
M0M0
0000
0M0M
0000
M0M0
0000
0M0M
0000
,  // measure 7
1000
0000
0010
0000
0100
0000
0001
0010
0001
0010
0100
0000
1000
0000
0010
0000
,  // measure 8
1000
0000
0100
0000
1000
0000
0010
0100
0010
1000
0010
0000
0100
0000
0010
0100
,  // measure 9
0001
0000
0010
0000
0100
0000
1000
0010
1000
0001
1000
0000
0100
0000
0010
0000
,  // measure 10
0100
0000
1000
0000
0010
0000
0100
0001
0100
0010
0100
0000
0001
0000
1000
0100
,  // measure 11
0010
0000
0001
0000
0100
0000
0001
0010
0100
0010
0001
0000
1000
0000
0001
0000
,  // measure 12
0100
0000
0010
0000
1000
0000
0001
0100
0010
0100
0001
0000
0010
0000
0100
1000
,  // measure 13
0100
0000
0010
0000
1000
0000
0010
0001
0010
0100
0010
0000
0001
0000
1000
0000
,  // measure 14
0001
0000
0100
0000
1000
0000
0100
0010
0100
0001
1000
0000
0010
0000
0100
0001
,  // measure 15
1000
0000
0100
0000
0010
0000
0100
0001
0100
0001
0100
0000
0010
0000
0001
0000
,  // measure 16
0100
0000
0010
0000
0100
0000
0010
0001
0010
0001
0010
0000
0100
0000
0001
1000
,  // measure 17
0010
0000
1000
0000
0100
0000
1000
0010
1000
0010
0100
0000
0001
0000
0010
0000
,  // measure 18
0001
0000
0100
0000
0001
0000
0010
0100
0010
0001
0010
0000
0100
0000
0010
0100
,  // measure 19
1000
0000
0010
0000
0100
0000
0001
0010
0001
1000
0001
0000
0100
0000
0010
0000
,  // measure 20
0100
0000
0001
0000
0010
0000
0100
1000
0100
0010
0100
0000
1000
0000
0001
0100
,  // measure 21
0010
0000
1000
0000
0100
0000
1000
0010
0100
0010
1000
0000
0001
0000
1000
0000
,  // measure 22
0100
0000
0010
0000
0001
0000
1000
0100
0010
0100
1000
0000
0010
0000
0100
0001
,  // measure 23
0100
0000
0010
0000
0001
0000
0010
1000
0010
0100
0010
0000
1000
0000
0001
0000
,  // measure 24
1000
0000
0100
0000
0001
0000
0100
0010
0100
1000
0001
0000
0010
0000
0100
1000
,  // measure 25
0001
0000
0100
0000
0010
0000
0100
1000
0100
1000
0100
0000
0010
0000
1000
0000
,  // measure 26
0100
0000
0010
0000
0100
0000
0010
1000
0010
0100
1000
0000
0001
0000
0010
0100
,  // measure 27
4000
0001
0000
0010
0000
0001
0000
0100
0000
0100
0000
0001
3200
0000
0000
0000
,  // measure 28
0340
1000
0000
1000
0000
0100
0000
1000
0000
0100
0000
0100
0032
0000
0000
0000
,  // measure 29
0403
0010
0000
0001
0000
0010
0000
0010
0000
0001
0000
0001
0320
0000
0000
0000
,  // measure 30
0034
0000
0000
0000
0000
0000
0000
0000
0000
0000
0000
0000
1000
0000
0000
0000
0000
0000
0000
0000
0000
0000
0000
0000
0000
0000
0000
0000
0000
0000
0000
0000
0000
0000
0000
0000
0100
0000
0000
0000
0000
0000
0000
0000
0000
0000
0000
0000
0000
0000
0000
0000
0000
0000
0000
0000
0000
0000
0000
0000
1000
0000
0000
0000
0000
0000
0000
0000
0000
0000
0000
0000
0000
0000
0000
0000
0000
0000
0000
0000
0000
0000
0000
0000
0010
0000
0000
0000
0000
0000
0000
0000
0000
0000
0000
0000
0000
0000
0000
0000
0000
0000
0000
0000
0000
0000
0000
0000
0010
0000
0000
0000
0000
0000
0000
0000
0000
0000
0000
0000
0000
0000
0000
0000
0000
0000
0000
0000
0000
0000
0000
0000
1000
0000
0000
0000
0000
0000
0000
0000
0000
0000
0000
0000
0203
0000
0000
0000
0000
0000
0000
0000
0000
0000
0000
0000
0000
0000
0000
0000
0000
0000
0000
0000
0000
0000
0000
0000
0000
0000
0000
0000
0000
0000
0000
0000
0000
0000
0000
0000
0000
0000
0000
0000
0000
0000
0000
0000
0000
0000
0000
0300
,  // measure 31
MMMM
MMMM
MMMM
MMMM
MMMM
MMMM
MMMM
MMMM
,  // measure 32
MMMM
MMMM
MMMM
MMMM
MMMM
MMMM
MMMM
MMMM
,  // measure 33
1000
0100
0001
0010
,  // measure 34
1000
0100
0001
0010
,  // measure 35
1000
0010
0001
0100
,  // measure 36
1000
0010
0001
0100
,  // measure 37
1000
0100
0010
0100
0001
0100
0010
0001
,  // measure 38
0010
0100
0010
1000
0001
0100
1000
0001
,  // measure 39
0100
0001
1000
0010
0001
0010
0100
0001
,  // measure 40
1000
0100
1000
0100
1000
0100
1000
0100
0011
0000
0000
0000
1000
0000
0000
0000
,  // measure 41
0001
0100
0010
0100
1000
0100
0001
0100
,  // measure 42
0010
0100
0001
0010
1000
0010
0100
1000
,  // measure 43
0001
1000
0010
0001
1000
0100
0001
1000
,  // measure 44
0001
0010
0001
0010
0001
0010
0001
0010
1100
0000
0000
0000
0000
0000
0000
0000
,  // measure 45
MMMM
MMMM
MMMM
MMMM
MMMM
MMMM
MMMM
MMMM
,  // measure 46
MMMM
MMMM
MMMM
MMMM
MMMM
MMMM
MMMM
MMMM
,  // measure 47
0100
0000
0000
1000
0000
0000
0100
0010
0100
0010
0000
0000
0001
0000
0000
0100
0000
0000
0010
1000
0010
1000
0000
0000
,  // measure 48
0001
0000
0000
0100
0000
0000
0010
1000
0001
0010
0000
0000
0001
0000
0000
1000
0000
0000
0010
0100
0001
1000
0000
0000
,  // measure 49
0010
0000
0000
1000
0000
0000
0001
0100
0010
0100
0000
0000
0001
0000
0000
0010
0000
0000
0100
1000
0001
1000
0000
0000
,  // measure 50
0001
0000
0000
0010
0000
0000
0100
1000
0100
0010
0000
0000
0001
0000
0000
1000
0000
0000
0001
0010
0100
1000
0000
0000
,  // measure 51
0400
0300
4000
3040
4030
3000
0400
0300
,  // measure 52
0004
0003
0400
0300
0040
0030
0004
0003
,  // measure 53
4000
3000
0004
0043
0430
0300
0004
0003
,  // measure 54
0400
0001
0000
1000
0000
0010
0000
1000
0311
0000
0000
0000
0000
0000
0000
0000
,  // measure 55
4000
3000
0040
0430
0304
0003
0040
0030
,  // measure 56
4000
3000
0004
0003
0400
0300
0040
0030
,  // measure 57
0004
0003
4000
3400
0340
0030
4000
3000
,  // measure 58
0040
1000
0000
0100
0000
0100
0000
0001
1130
0000
0000
0000
0000
0000
0000
0000
,  // measure 59
MMMM
MMMM
MMMM
MMMM
MMMM
MMMM
MMMM
MMMM
,  // measure 60
MMMM
MMMM
MMMM
MMMM
MMMM
MMMM
MMMM
MMMM
,  // measure 61
0010
0001
1000
0100
0010
0001
0010
0100
1000
0100
1000
0010
0100
0001
1000
0001
,  // measure 62
0100
0010
1000
0001
0100
0010
1000
0010
0100
0001
0100
0010
1000
0010
0100
0001
,  // measure 63
0010
0100
1000
0001
1000
0100
0010
0001
0010
0001
1000
0010
1000
0001
0100
0001
,  // measure 64
1000
0100
0010
0100
1000
0001
0010
0100
0010
0001
0100
0001
1000
0010
1000
0001
,  // measure 65
1000
0100
0010
0001
1000
0010
0100
0001
1000
0100
1000
0001
0010
0001
1000
0010
,  // measure 66
1000
0001
0010
0100
1000
0001
1000
0100
0010
0100
0010
0100
1000
0001
1000
0001
,  // measure 67
0100
0010
0100
0001
0100
0010
0100
0001
0100
0010
1000
0100
1000
0001
0010
0001
,  // measure 68
1000
0100
0010
0100
1000
0100
0010
0100
1000
0001
0100
0001
1000
0010
1000
0001
,  // measure 69
0100
0001
1000
0010
0100
0001
0100
0010
1000
0010
1000
0100
0010
0001
1000
0001
,  // measure 70
0010
0100
1000
0001
0010
0100
1000
0100
0010
0001
0010
0100
1000
0100
0010
0001
,  // measure 71
0100
0010
1000
0001
1000
0010
0100
0001
0100
0001
1000
0100
1000
0001
0010
0001
,  // measure 72
1000
0010
0100
0010
1000
0001
0100
0010
0100
0001
0010
0001
1000
0100
1000
0001
,  // measure 73
1000
0010
0100
0001
1000
0100
0010
0001
1000
0010
1000
0001
0100
0001
1000
0100
,  // measure 74
1000
0001
0100
0010
1000
0001
1000
0010
0100
0010
0100
0010
1000
0001
1000
0001
,  // measure 75
0010
0100
0010
0001
0010
0100
0010
0001
0010
0100
1000
0010
1000
0001
0100
0001
,  // measure 76
1000
0010
0100
0010
1000
0010
0100
0010
1000
0001
0010
0001
1000
0100
1000
0001
,  // measure 77
0010
0000
0100
0000
1000
0000
0010
0100
0010
1000
0010
0000
0100
0000
0001
0000
,  // measure 78
0010
0000
0001
0000
1000
0000
0001
0010
0100
0010
0001
0000
0100
0000
0010
0000
,  // measure 79
4000
0001
0000
0100
0000
0001
0000
0010
0000
0100
0000
0001
3200
0000
0000
0000
,  // measure 80
0340
1000
0000
1000
0000
0100
0000
1000
0000
0100
0000
0100
0032
0000
0000
0000
,  // measure 81
0403
0010
0000
0010
0000
0001
0000
0001
0000
0010
0000
0001
0320
0000
0000
0000
,  // measure 82
0034
0000
0000
0000
0000
0000
0000
0000
0000
0000
0000
0000
1000
0000
0000
0000
0000
0000
0000
0000
0000
0000
0000
0000
0000
0000
0000
0000
0000
0000
0000
0000
0000
0000
0000
0000
0010
0000
0000
0000
0000
0000
0000
0000
0000
0000
0000
0000
0000
0000
0000
0000
0000
0000
0000
0000
0000
0000
0000
0000
0100
0000
0000
0000
0000
0000
0000
0000
0000
0000
0000
0000
0000
0000
0000
0000
0000
0000
0000
0000
0000
0000
0000
0000
1000
0000
0000
0000
0000
0000
0000
0000
0000
0000
0000
0000
0000
0000
0000
0000
0000
0000
0000
0000
0000
0000
0000
0000
0010
0000
0000
0000
0000
0000
0000
0000
0000
0000
0000
0000
0000
0000
0000
0000
0000
0000
0000
0000
0000
0000
0000
0000
1000
0000
0000
0000
0000
0000
0000
0000
0000
0000
0000
0000
0023
0000
0000
0000
0000
0000
0000
0000
0000
0000
0000
0000
0000
0000
0000
0000
0000
0000
0000
0000
0000
0000
0000
0000
0000
0000
0000
0000
0000
0000
0000
0000
0000
0000
0000
0000
0000
0000
0000
0000
0000
0000
0000
0000
0000
0000
0000
0030
,  // measure 83
MMMM
MMMM
MMMM
MMMM
MMMM
MMMM
MMMM
MMMM
,  // measure 84
MMMM
MMMM
MMMM
MMMM
MMMM
MMMM
MMMM
MMMM
,  // measure 85
0010
0100
1000
0001
0010
0100
0010
0001
,  // measure 86
1000
0100
1000
0010
0100
0001
0010
0001
,  // measure 87
1000
0010
1000
0001
0010
0100
1000
0010
,  // measure 88
0100
0001
1000
0010
0100
0010
1000
0001
,  // measure 89
1010
0100
1000
0010
1100
0001
1000
0100
,  // measure 90
1001
0010
0100
1000
0101
0010
0100
1000
,  // measure 91
0011
0100
0001
1000
0101
0010
0001
1000
,  // measure 92
0040
0400
0000
0000
0000
0000
0000
0000
0000
0330
0000
0000
0022
0000
0000
0000
0000
0000
0033
0000
0000
0000
0000
0000
,  // measure 93
1100
0001
0010
0100
1010
0001
0010
0100
,  // measure 94
1001
0100
0010
1000
0101
1000
0010
0100
,  // measure 95
0011
1000
0001
1000
0101
0010
0001
0100
,  // measure 96
0040
4000
0000
0000
0000
0000
0000
0000
0000
3030
0000
0000
0220
0000
0000
0000
0000
0000
0330
0000
0000
0000
0000
0000
,  // measure 97
MMMM
MMMM
MMMM
MMMM
MMMM
MMMM
MMMM
MMMM
,  // measure 98
MMMM
MMMM
MMMM
MMMM
MMMM
MMMM
MMMM
MMMM
,  // measure 99
0100
0000
0001
0010
0001
0000
1000
0000
0001
0000
0100
0000
0010
0000
0100
0000
,  // measure 100
0001
0000
1000
0010
1000
0000
0001
0000
0100
0000
0010
0000
1000
0100
0010
0000
,  // measure 101
0100
0000
0010
0001
0010
0000
0100
0000
1000
0000
0010
0000
0100
0000
0010
0000
,  // measure 102
1000
0000
0010
0100
0001
0000
0100
0000
0010
0000
1000
0000
0001
0100
0001
0000
,  // measure 103
2000
0000
0000
0000
0000
3000
2000
0000
0000
0200
0000
0000
3002
0000
0000
0000
0000
0300
0200
0000
0000
0000
0000
0003
,  // measure 104
0020
0000
0000
0000
0000
0030
0320
0000
0000
2000
0000
0000
0032
0000
0000
0000
0000
0000
3200
0000
0000
0000
0000
0000
,  // measure 105
2003
0000
0000
0000
0000
3000
2000
0000
0000
0320
0000
3000
0002
0000
0000
0000
0000
0030
0020
0000
0000
0000
0000
0000
,  // measure 106
4033
0040
0000
0000
0000
0000
0000
0000
0000
0000
0000
0000
0202
0000
0000
0000
0000
0000
0000
0000
0000
0000
0000
0003
,  // measure 107
3332
0000
0000
0000
0000
0003
0002
0000
0000
0020
0000
0000
2003
0000
0000
0000
0000
0030
0020
0000
0000
0000
0000
0000
,  // measure 108
3200
0000
0000
0000
0000
0300
0200
0000
0000
0032
0000
0000
2300
0000
0000
0000
0000
0000
0023
0000
0000
0000
0000
0000
,  // measure 109
3002
0000
0000
0000
0000
0003
0002
0000
0000
0230
0000
0000
2003
0000
0000
0000
0000
0300
3200
0000
0000
0000
0000
0000
,  // measure 110
0304
0000
0000
0000
0000
0000
0000
0000
0040
0000
0000
0000
0000
0000
0000
0000
0000
0000
0000
0000
0000
0000
0000
0000
0000
0000
0000
0000
0000
0000
0000
0000
0000
0000
0000
0000
0000
0000
0000
0000
0000
0000
0000
0000
0000
0000
0000
0000
0000
0000
0000
0000
0000
0000
0000
0000
0000
0000
0000
0000
0000
0000
0000
0000
0000
0000
0000
0000
0000
0000
0000
0000
0000
0000
0000
0000
0000
0000
0000
0000
0000
0000
0000
0000
0000
0000
0000
0000
0000
0000
0000
0000
0000
0000
0000
0000
2200
0000
0000
0000
0000
0000
0000
0000
0000
0000
0000
0000
0000
0000
0000
0000
0000
0000
0000
0000
0000
0000
0000
0000
0000
0000
0000
0000
0000
0000
0000
0000
0000
0000
0000
0000
0000
0000
0000
0000
0000
0000
0000
0000
0000
0000
0000
0000
0000
0000
0000
0000
0000
0000
0000
0000
0000
0000
0000
0000
0000
0000
0000
0000
0000
0000
0000
0000
0000
0000
0000
0000
0000
0000
0000
0000
0000
0000
0000
0000
0000
0000
0000
0000
0000
0000
0000
0000
0000
0000
0000
0000
0000
0000
0000
3333
,  // measure 111
MMMM
MMMM
MMMM
MMMM
MMMM
MMMM
MMMM
MMMM
,  // measure 112
MMMM
MMMM
MMMM
MMMM
MMMM
MMMM
MMMM
MMMM
,  // measure 113
0001
0010
0100
0010
0001
0010
0100
0010
0001
0100
0001
1000
0001
0010
0001
1000
,  // measure 114
0010
0100
0001
0100
0010
0100
0001
0100
0010
1000
0010
0100
0010
1000
0010
0100
,  // measure 115
0001
0010
0001
0010
0001
1000
0001
1000
0100
0010
0100
0010
0100
1000
0100
1000
,  // measure 116
0001
0010
0100
1000
0001
0010
0100
1000
0001
0100
0010
1000
0001
0100
0010
1000
,  // measure 117
0001
1000
0010
1000
0001
1000
0100
1000
0001
0010
0100
0010
0001
0010
0100
0010
,  // measure 118
0001
0100
0001
0100
0010
1000
0010
1000
0001
0010
0001
0010
0100
1000
0100
1000
,  // measure 119
0001
0010
0100
0010
0001
1000
0100
1000
0001
0100
0010
0100
0001
1000
0010
1000
,  // measure 120
0001
0100
0010
0100
0001
0100
0010
0100
0001
0010
0001
1000
0001
0100
0001
1000
,  // measure 121
0100
0010
0001
0100
0010
0100
0001
0010
0100
1000
0100
0010
0100
1000
0100
0010
,  // measure 122
0001
0100
0001
0100
0001
1000
0001
1000
0010
0100
0010
0100
0010
1000
0010
1000
,  // measure 123
0001
0100
0010
1000
0001
0100
0010
1000
0001
0010
0100
1000
0001
0010
0100
1000
,  // measure 124
0001
1000
0100
1000
0001
1000
0010
1000
0001
0100
0010
0100
0001
0100
0010
0100
,  // measure 125
0001
0010
0001
0010
0100
1000
0100
1000
0001
0100
0001
0100
0010
1000
0010
1000
,  // measure 126
0001
0100
0001
1000
0010
0100
0010
1000
0001
0010
0001
1000
0100
0010
0100
1000
,  // measure 127
0002
0003
0020
0030
0202
0000
0000
0303
,  // measure 128
2000
3000
0002
0003
2020
0000
0000
3030
,  // measure 129
2222
0000
0000
0000
,  // measure 130
0000
0000
0000
0000
,  // measure 131
3333
0000
0000
0000
,  // measure 132
0000
0000
0000
0000
,  // measure 133
MMMM
MMMM
MMMM
MMMM
MMMM
MMMM
MMMM
MMMM
,  // measure 134
MMMM
MMMM
MMMM
MMMM
MMMM
MMMM
MMMM
MMMM
,  // measure 135
1000
0100
0002
0M03
0001
0010
2000
30M0
,  // measure 136
1000
0010
0002
00M3
0001
0100
2000
3M00
,  // measure 137
1000
0100
0002
0M03
0001
0010
2000
30M0
,  // measure 138
1000
0010
0002
00M3
0001
0100
2000
3M00
,  // measure 139
1000
0100
0002
0M03
0001
0010
2000
30M0
,  // measure 140
1000
0010
0002
00M3
0001
0100
2000
3M00
,  // measure 141
1000
0010
1000
0100
0010
0001
0100
0010
,  // measure 142
1000
0100
0100
0001
0100
0100
1000
0100
0202
0000
0000
0000
0303
0000
0000
0000
,  // measure 143
0001
0100
2000
3M00
1000
0010
0002
00M3
,  // measure 144
0001
0010
2000
30M0
1000
0100
0002
0M03
,  // measure 145
0001
1000
0001
0010
0100
1000
0010
0100
,  // measure 146
0001
0010
0010
1000
0010
0010
0001
0010
2020
0000
0000
0000
3030
0000
0000
0000
,  // measure 147
MMMM
MMMM
MMMM
MMMM
MMMM
MMMM
MMMM
MMMM
,  // measure 148
MMMM
0000
0000
0000
0000
0000
0000
0000
MMMM
0000
0000
0000
0000
0000
0000
0000
MMMM
0000
0000
0000
0000
0000
0000
0000
MMMM
0000
0000
0000
0000
0000
0000
0000
MMMM
0000
0000
0000
0000
0000
0000
0000
MMMM
0000
0000
0000
0000
0000
0000
0000
MMMM
0000
0000
0000
0000
0000
0000
0000
MMMM
0000
0000
0000
0000
0000
0000
0100
,  // measure 149
0001
0000
0000
0000
0000
0000
0000
0000
0010
0000
0000
0000
0000
0000
0000
0000
0100
0000
0000
0000
0000
0000
0000
0000
1000
0000
0000
0000
0000
0000
0000
0010
0100
0000
0000
0000
0000
0000
0000
0000
0001
0000
0000
0000
0000
0000
0000
0000
1000
0000
0000
0000
0000
0000
0000
0000
0010
0000
0000
0000
0000
0000
0000
1000
,  // measure 150
0100
0000
0000
0000
0000
0000
0000
0000
0010
0000
0000
0000
0000
0000
0000
0000
0100
0000
0000
0000
0000
0000
0000
0000
1000
0000
0000
0000
0000
0000
0000
0001
0100
0000
0000
0000
0000
0000
0000
0000
0001
0000
0000
0000
0000
0000
0000
0000
1000
0000
0000
0000
0000
0000
0000
0000
0100
0000
0000
0000
0000
0000
0000
0010
,  // measure 151
0001
0000
0000
0000
0000
0000
0000
0000
0100
0000
0000
0000
0000
0000
0000
0000
0010
0000
0000
0000
0000
0000
0000
0000
1000
0000
0000
0000
0000
0000
0000
0100
0010
0000
0000
0000
0000
0000
0000
0000
0001
0000
0000
0000
0000
0000
0000
0000
0010
0000
0000
0000
0000
0000
0000
0000
0100
0000
0000
0000
0000
0000
0000
1000
,  // measure 152
0001
0000
0000
0000
0000
0000
0000
0000
0100
0000
0000
0000
0000
0000
0000
0000
0010
0000
0000
0000
0000
0000
0000
0000
1000
0000
0000
0000
0000
0000
0000
0001
0010
0000
0000
0000
0000
0000
0000
0000
0100
0000
0000
0000
0000
0000
0000
0000
1000
0000
0000
0000
0000
0000
0000
0000
0100
0000
0000
0000
0000
0000
0000
0000
,  // measure 153
0022
0000
0100
1000
0100
0000
1100
0033
,  // measure 154
2020
0000
0001
0100
0001
0000
0101
3030
,  // measure 155
0200
0000
0011
1010
0011
0000
1010
0000
,  // measure 156
1311
0000
0000
0001
0000
0000
0001
0000
1110
0000
0000
1000
0000
0000
1000
0000
,  // measure 157
0202
0000
0010
1000
0010
0000
1010
0303
,  // measure 158
2200
0000
0001
0010
0001
0000
0011
3300
,  // measure 159
0020
0000
0101
1100
0101
0000
1100
0030
,  // measure 160
0111
0000
0000
0010
0000
0000
0010
0000
1101
0000
0000
0000
0001
0000
0000
0000
,  // measure 161
MMMM
MMMM
MMMM
MMMM
MMMM
MMMM
MMMM
MMMM
,  // measure 162
MMMM
MMMM
MMMM
MMMM
MMMM
MMMM
MMMM
MMMM
,  // measure 163
0010
1000
0001
0100
0010
1000
0010
0100
0001
0100
0001
0010
0100
1000
0001
1000
,  // measure 164
0100
0010
0001
1000
0100
0010
0001
0010
0100
1000
0100
0010
0001
0010
0100
1000
,  // measure 165
0010
0100
0001
1000
0001
0100
0010
1000
0010
1000
0001
0010
0001
1000
0100
1000
,  // measure 166
0001
0100
0010
0100
0001
1000
0010
0100
0010
1000
0100
1000
0001
0010
0001
1000
,  // measure 167
0001
0100
0010
1000
0001
0010
0100
1000
0001
0100
0001
1000
0010
1000
0001
0010
,  // measure 168
0001
1000
0010
0100
0001
1000
0001
0100
0010
0100
0010
0100
0001
1000
0001
1000
,  // measure 169
0100
0010
0100
1000
0100
0010
0100
1000
0100
0010
0001
0100
0001
1000
0010
1000
,  // measure 170
0001
0100
0010
0100
0001
0100
0010
0100
0001
1000
0100
1000
0001
0010
0001
1000
,  // measure 171
0100
1000
0001
0010
0100
1000
0100
0010
0001
0010
0001
0100
0010
1000
0001
1000
,  // measure 172
0010
0100
0001
1000
0010
0100
0001
0100
0010
1000
0010
0100
0001
0100
0010
1000
,  // measure 173
0100
0010
0001
1000
0001
0010
0100
1000
0100
1000
0001
0100
0001
1000
0010
1000
,  // measure 174
0001
0010
0100
0010
0001
1000
0100
0010
0100
1000
0010
1000
0001
0100
0001
1000
,  // measure 175
0001
0010
0100
1000
0001
0100
0010
1000
0001
0010
0001
1000
0100
1000
0001
0100
,  // measure 176
0001
1000
0100
0010
0001
1000
0001
0010
0100
0010
0100
0010
0001
1000
0001
1000
,  // measure 177
0010
0100
0010
1000
0010
0100
0010
1000
0010
0100
0001
0010
0001
1000
0100
1000
,  // measure 178
0001
0010
0100
0010
0001
0010
0100
0010
0001
1000
0010
1000
0001
0100
0001
1000
,  // measure 179
0001
0010
0100
1000
0010
1000
0100
0010
0001
1000
0100
1000
0100
0010
0100
0010
,  // measure 180
0001
0100
0010
1000
0100
1000
0010
0100
0001
1000
0010
1000
0010
0100
0001
0100
,  // measure 181
0001
0000
1000
0000
0001
0000
0010
0100
0010
0100
0010
0000
0001
0000
0100
0000
,  // measure 182
0010
0000
1000
0000
0100
0000
1000
0100
0010
0001
0010
0000
0100
0000
0010
0000
,  // measure 183
0004
1000
0000
0010
0000
1000
0000
0100
0000
0010
0000
1000
0023
0000
0000
0000
,  // measure 184
0430
0001
0000
0001
0000
0010
0000
0001
0000
0010
0000
0010
2300
0000
0000
0000
,  // measure 185
3040
0100
0000
1000
0000
1000
0000
0100
0000
0100
0000
1000
0230
0000
0000
0000
,  // measure 186
4300
0000
0000
0000
0000
0000
0000
0000
0000
0000
0000
0000
0001
0000
0000
0000
0000
0000
0000
0000
0000
0000
0000
0000
0000
0000
0000
0000
0000
0000
0000
0000
0000
0000
0000
0000
0100
0000
0000
0000
0000
0000
0000
0000
0000
0000
0000
0000
0000
0000
0000
0000
0000
0000
0000
0000
0000
0000
0000
0000
0010
0000
0000
0000
0000
0000
0000
0000
0000
0000
0000
0000
0000
0000
0000
0000
0000
0000
0000
0000
0000
0000
0000
0000
0001
0000
0000
0000
0000
0000
0000
0000
0000
0000
0000
0000
0000
0000
0000
0000
0000
0000
0000
0000
0000
0000
0000
0000
0100
0000
0000
0000
0000
0000
0000
0000
0000
0000
0000
0000
0000
0000
0000
0000
0000
0000
0000
0000
0000
0000
0000
0000
0001
0000
0000
0000
0000
0000
0000
0000
0000
0000
0000
0000
3200
0000
0000
0000
0000
0000
0000
0000
0000
0000
0000
0000
0000
0000
0000
0000
0000
0000
0000
0000
0000
0000
0000
0000
0000
0000
0000
0000
0000
0000
0000
0000
0000
0000
0000
0000
0000
0000
0000
0000
0000
0000
0000
0000
0000
0000
0000
0300
,  // measure 187
MMMM
MMMM
MMMM
MMMM
MMMM
MMMM
MMMM
MMMM
,  // measure 188
MMMM
MMMM
MMMM
MMMM
MMMM
MMMM
MMMM
MMMM
,  // measure 189
1100
0000
0001
0010
0100
0000
0001
0000
,  // measure 190
0100
0000
1000
0010
1000
0000
0100
0000
,  // measure 191
0011
0000
1000
0100
0001
0000
1000
0000
,  // measure 192
0020
0100
1000
0001
,  // measure 193
1030
0000
0001
0100
0001
0000
0010
0000
,  // measure 194
0100
0000
1000
0010
0001
0000
0010
0000
,  // measure 195
1100
0000
0001
0010
0100
0000
1000
0000
,  // measure 196
0002
0000
0010
0000
0200
0000
0300
0M00
,  // measure 197
1103
0000
0010
0100
0010
0000
0100
0000
,  // measure 198
0001
0000
1000
0010
1000
0000
0100
0000
,  // measure 199
1010
0000
0001
0010
1000
0000
0001
0000
,  // measure 200
0200
0010
0001
1000
,  // measure 201
0301
0000
0010
1000
0010
0000
0100
0000
,  // measure 202
1000
0000
0001
0010
0100
0000
0001
0000
,  // measure 203
1010
0000
0100
1000
0001
0000
1000
0000
,  // measure 204
0002
0000
1000
0000
0020
0000
0030
00M0
,  // measure 205
0013
0100
0001
0100
0010
1000
0001
1000
0100
0010
0100
1000
0001
0010
0100
0010
,  // measure 206
0100
1000
0001
0100
0001
1000
0010
0100
0010
0100
0010
1000
0100
0010
0001
1000
,  // measure 207
0001
1000
0001
1000
0100
0010
0100
1000
0010
1000
0010
0100
0001
1000
0100
1000
,  // measure 208
0002
0023
2030
3200
,  // measure 209
0301
0010
0100
1000
0001
0010
0100
0010
0001
1000
0001
1000
0010
0100
0010
1000
,  // measure 210
0001
0010
0001
0010
0001
0100
0010
1000
0001
0010
0100
0010
0100
0010
0001
1000
,  // measure 211
0100
0010
0100
0010
0100
1000
0010
0100
0001
0100
0001
0100
0010
0100
0010
0100
,  // measure 212
0002
2003
3220
0330
,  // measure 213
1000
0001
1000
0001
0100
0010
0100
0001
0010
0001
0010
0100
1000
0001
0100
0001
,  // measure 214
0100
0001
1000
0100
1000
0001
0010
0100
0010
0100
0010
0001
0100
0010
1000
0001
,  // measure 215
0100
0001
1000
0100
1000
0001
0010
0100
0010
0100
0010
0001
0100
0010
1000
0001
,  // measure 216
2000
3200
0302
0023
,  // measure 217
1030
0010
0100
0001
1000
0010
0100
0010
1000
0001
1000
0001
0010
0100
0010
0001
,  // measure 218
1000
0010
1000
0010
1000
0100
0010
0001
1000
0010
0100
0010
0100
0010
1000
0001
,  // measure 219
0100
0010
0100
0010
0100
0001
0010
0100
1000
0100
1000
0100
0010
0100
0010
0100
,  // measure 220
2000
3002
0223
0000
,  // measure 221
0330
0000
0002
0000
,  // measure 222
0203
0000
0320
0000
,  // measure 223
0032
1000
1000
1000
,  // measure 224
0203
0010
2300
0000
,  // measure 225
3200
0010
0010
0010
,  // measure 226
0000
0000
0000
0000
,  // measure 227
2300
0000
0000
0000
,  // measure 228
0001
0000
0000
0001
0000
0000
0001
0000
0000
0001
0000
0000
0001
0000
0000
0000
,  // measure 229
3200
0300
0020
0030
0200
0000
0000
0000
,  // measure 230
2300
0000
3002
0000
,  // measure 231
0023
0000
0000
0000
,  // measure 232
2030
0000
3002
0000
,  // measure 233
0203
0000
0000
0000
,  // measure 234
0000
0000
0000
0000
,  // measure 235
1310
0000
0001
1000
0100
0000
0010
0000
,  // measure 236
0200
0000
0000
0000
0311
0011
0011
0011
,  // measure 237
1000
0100
0010
0001
0010
0100
0010
0001
1000
0010
1000
0010
0100
0010
1000
0001
,  // measure 238
0010
0100
0010
0100
0010
0001
1000
0010
1000
0010
0100
0001
1000
0100
1000
0010
,  // measure 239
1000
0001
1000
0010
0100
0001
1000
0010
0100
0001
1000
0010
0100
0001
0100
0001
,  // measure 240
2000
3200
0302
0023
,  // measure 241
1030
0001
1000
0001
1000
0001
1000
0100
0010
0001
0100
0010
0100
0001
1000
0001
,  // measure 242
0010
0001
1000
0100
1000
0100
0010
0001
1000
0100
0010
0100
1000
0001
0100
0010
,  // measure 243
0100
0010
1000
0010
1000
0001
0010
0001
1000
0001
0100
0010
0100
0001
0100
0010
,  // measure 244
1000
0100
1000
0100
1000
0100
0010
0100
0010
0100
0010
0001
0010
0001
0010
0001
,  // measure 245
0100
0001
1000
0010
0100
0001
0100
0010
1000
0001
1000
0001
1000
0100
0010
0100
,  // measure 246
1000
0001
1000
0010
0100
0010
1000
0001
1000
0010
1000
0010
0100
0001
0100
0001
,  // measure 247
0010
0100
1000
0010
0100
0001
0100
0001
1000
0001
0010
0100
0010
0100
1000
0010
,  // measure 248
0200
2300
3020
0032
,  // measure 249
1003
0100
1000
0100
1000
0100
1000
0010
0100
0001
0010
0100
0010
0100
1000
0001
,  // measure 250
1000
0010
0100
0001
1000
0001
0100
0010
0100
0001
1000
0010
1000
0001
1000
0010
,  // measure 251
1000
0010
0100
0001
1000
0001
0100
0010
1000
0001
0100
0001
0100
0010
1000
0010
,  // measure 252
0200
0000
0320
0000
,  // measure 253
1030
0000
0100
0000
1000
0000
0100
0000
0000
0010
0000
0000
0001
0000
0000
1000
0000
0000
0100
0000
0000
1000
0000
0000
0001
0000
0000
0010
0000
0000
0001
0000
0000
0010
0000
0000
0100
0000
0000
1000
0000
0000
0100
0000
0000
0010
0000
0000
,  // measure 254
0001
0000
0100
0000
0010
0000
1000
0000
0000
0001
0000
0000
0100
0000
0000
0001
0000
0000
0100
0000
0000
0010
0000
0000
0100
0000
0000
0010
0000
0000
1000
0000
0000
0001
0000
0000
1000
0000
0000
0100
0000
0000
0010
0000
0000
0001
0000
0000
,  // measure 255
0100
0010
0100
0001
1000
0010
0100
0001
1000
0010
0100
0001
1000
0010
1000
0010
,  // measure 256
0100
0001
0010
0100
1000
0001
1000
0010
0100
0001
1000
0001
0010
0100
0010
0100
,  // measure 257
1000
0001
1000
0001
1000
0100
0010
0001
1000
0100
1000
0100
0010
0100
0010
0001
,  // measure 258
1000
0100
0010
0001
1000
0010
1000
0100
1000
0001
0100
0010
1000
0001
0100
0001
,  // measure 259
0100
1000
0001
0010
0001
1000
0100
0001
,  // measure 260
2000
3000
0020
0030
2000
3000
0020
0030
2000
3000
0002
0003
2000
3000
0002
0003
0200
0300
0020
0030
0200
0300
0020
0030
0200
0300
0002
0003
0200
0300
0002
0003
,  // measure 261
1000
0000
0100
0000
0010
0000
0001
0000
0000
1000
0000
0000
0100
0000
0000
1000
0000
0000
0001
0000
0000
0010
0000
0000
0100
0000
0000
0010
0000
0000
0100
0000
0000
0010
0000
0000
0001
0000
0000
1000
0000
0000
0001
0000
0000
0100
0000
0000
,  // measure 262
0010
0000
1000
0000
0001
0000
0100
0000
0000
0001
0000
0000
1000
0000
0000
0001
0000
0000
0010
0000
0000
0100
0000
0000
0010
0000
0000
0100
0000
0000
1000
0000
0000
0001
0000
0000
0100
0000
0000
0001
0000
0000
1000
0000
0000
0001
0000
0000
,  // measure 263
0010
0001
0100
0001
1000
0010
1000
0010
0100
0010
1000
0001
1000
0001
0100
0001
,  // measure 264
0010
0100
0010
0100
0010
0001
0010
0001
1000
0100
1000
0100
1000
0010
1000
0010
,  // measure 265
0100
0001
1000
0100
0010
0100
1000
0001
1000
0010
0100
0001
0100
0010
0100
0001
,  // measure 266
0100
0001
1000
0100
0010
0100
1000
0001
0010
0100
1000
0010
1000
0001
0010
0001
,  // measure 267
0010
1000
0001
1000
0010
0100
0001
0100
,  // measure 268
2000
3000
0020
0030
0200
0300
0002
0003
2000
3000
0020
0030
0200
0300
0002
0003
2000
3000
0200
0300
0020
0030
0200
0300
2000
3000
0200
0300
0020
0030
0200
0300
,  // measure 269
0011
0000
1000
0100
0010
0000
0001
0000
,  // measure 270
1100
0000
0010
0100
0010
0000
0001
0000
,  // measure 271
0110
0000
0001
1000
0100
0000
1000
0100
,  // measure 272
0002
0203
2300
3020
,  // measure 273
0032
0003
1000
0010
1100
0000
0001
0000
,  // measure 274
0010
0000
0100
0001
0100
0000
0010
0000
,  // measure 275
1000
0000
0100
0001
1000
0000
0010
0000
,  // measure 276
0202
0000
2020
0000
,  // measure 277
3333
0000
0000
0000
;
