#TITLE:Spider Dance;
#SUBTITLE:;
#ARTIST:Toby Fox;
#TITLETRANSLIT:;
#SUBTITLETRANSLIT:;
#ARTISTTRANSLIT:;
#GENRE:;
#CREDIT:;
#BANNER:banner.png;
#BACKGROUND:muffet.jpg;
#LYRICSPATH:;
#CDTITLE:;
#MUSIC:toby fox - UNDERTALE Soundtrack - 59 Spider Dance.mp3;
#OFFSET:-0.055000;
#SAMPLESTART:0.062331;
#SAMPLELENGTH:12.000000;
#SELECTABLE:YES;
#BPMS:0.000000=230.000000
;
#STOPS:
;
#BGCHANGES:;
#KEYSOUNDS:;
#ATTACKS:;

//---------------dance-single - bblum----------------
#NOTES:
     dance-single:
     bblum:
     Challenge:
     13:
     1.000000,1.000000,0.103285,0.610323,1.000000,705.000000,11.000000,65.000000,377.000000,0.000000,0.000000,1.000000,1.000000,0.103285,0.610323,1.000000,705.000000,11.000000,65.000000,377.000000,0.000000,0.000000:
2000
3000
0100
0000
0010
0000
0001
0000
,
0100
0010
1000
0000
0001
0100
0001
0100
,
0000
0010
1000
0100
0010
0100
1000
0010
,
0100
0000
0001
0000
1000
0000
0200
0000
0300
0000
0010
0000
0001
0100
0001
0100
,
0002
0000
0000
0000
0000
0000
0000
0000
0000
0MM0
0000
0MM0
0000
0MM0
0000
0MM0
0000
0000
0000
0000
0000
0000
0000
0000
0023
0000
0000
0000
0000
0000
0000
0000
0000
MM00
0000
MM00
0000
MM00
0000
MM00
0000
0000
0000
0000
0000
0000
0000
0000
,
0230
0000
0000
0000
0000
0000
0000
0000
0000
00MM
0000
00MM
0000
00MM
0000
00MM
0000
0000
0000
0000
0000
0000
0000
0000
2300
0000
0000
0000
0000
0000
0000
0000
0000
0MM0
0000
0MM0
0000
0MM0
0000
0MM0
0000
0000
0000
0000
0000
0000
0000
0000
,
3002
MMM0
M2M3
M0MM
23MM
0MMM
32MM
M0MM
,
M3M2
MMM0
MM23
MM0M
2M3M
0MMM
3000
0000
,
0010
0100
1000
0100
0010
0100
1000
0100
,
0010
0001
0010
0100
0010
0001
0010
0100
,
0010
0001
0100
0001
0010
0001
0100
0001
,
0010
0000
0100
0000
1000
0000
0010
0000
1000
0000
0100
0000
1000
0010
1000
0010
,
0200
0000
0000
0000
0000
0000
0000
0000
0000
00MM
0000
00MM
0000
00MM
0000
00MM
0000
0000
0000
0000
0000
0000
0000
0000
0320
0000
0000
0000
0000
0000
0000
0000
0000
MM00
0000
MM00
0000
MM00
0000
MM00
0000
0000
0000
0000
0000
0000
0000
0000
,
2030
0000
0000
0000
0000
0000
0000
0000
0000
0MM0
0000
0MM0
0000
0MM0
0000
0MM0
0000
0000
0000
0000
0000
0000
0000
0000
3020
0000
0000
0000
0000
0000
0000
0000
0000
MM00
0000
MM00
0000
MM00
0000
MM00
0000
0000
0000
0000
0000
0000
0000
0000
,
0230
M0MM
23M0
0MMM
32M0
M0MM
03M2
MMM0
,
2MM3
0MMM
3MM2
MMM0
2MM3
0MMM
3000
0000
,
0022
0033
0110
0000
1001
0000
0110
0000
,
0001
0010
0100
0000
1000
0100
1000
0100
,
0000
0010
0001
1000
0010
0100
0001
0010
,
0100
0000
0010
0000
0001
0000
2000
0000
3000
0000
0010
0000
1000
0100
0010
0001
,
2000
0000
0000
0000
0000
0000
0000
0000
0000
0MM0
0000
0MM0
0000
0MM0
0000
0MM0
0000
0000
0000
0000
0000
0000
0000
0000
3020
0000
0000
0000
0000
0000
0000
0000
0000
MM00
0000
MM00
0000
MM00
0000
MM00
0000
0000
0000
0000
0000
0000
0000
0000
,
0230
0000
0000
0000
0000
0000
0000
0000
0000
00MM
0000
00MM
0000
00MM
0000
00MM
0000
0000
0000
0000
0000
0000
0000
0000
0302
0000
0000
0000
0000
0000
0000
0000
0000
0MM0
0000
0MM0
0000
0MM0
0000
0MM0
0000
0000
0003
0000
0000
0000
0000
0000
,
2000
0MMM
32MM
M0MM
M3M2
MMM0
2MM3
0MMM
,
3M2M
MM0M
MM32
MMM0
M2M3
M0MM
0300
0000
,
0010
1000
0010
1000
0001
0100
0001
0100
,
0010
1000
0100
0010
0001
1000
0001
0010
,
0001
1000
0100
0010
0001
0010
0001
0100
,
0010
0000
1000
0000
0001
0000
0100
0000
0010
0000
1000
0000
0001
0100
0010
1000
,
0002
0000
0000
0000
0000
0000
0000
0000
0000
MM00
0000
MM00
0000
MM00
0000
MM00
0000
0000
0000
0000
0000
0000
0000
0000
2003
0000
0000
0000
0000
0000
0000
0000
0000
00MM
0000
00MM
0000
00MM
0000
00MM
0000
0000
0000
0000
0000
0000
0000
0000
,
3020
0000
0000
0000
0000
0000
0000
0000
0000
MM00
0000
MM00
0000
MM00
0000
MM00
0000
0000
0000
0000
0000
0000
0000
0000
0230
0000
0000
0000
0000
0000
0000
0000
0000
00MM
0000
00MM
0000
00MM
0000
00MM
0000
0000
0300
0000
0000
0000
0000
0000
,
0002
MMM0
M2M3
M0MM
23MM
0MMM
3M2M
MM0M
,
MM32
MMM0
M2M3
M0MM
M32M
MM0M
0030
0000
,
1000
0010
0100
0001
0100
0001
0100
0010
1000
0100
0010
0001
,
0010
0100
1000
0001
1000
0100
0010
0100
1000
0001
0010
0100
,
0010
0100
0010
0001
1000
0100
1000
0010
0100
0001
0100
0010
,
1000
0100
0010
0100
1000
0010
0100
0010
1000
0001
0010
0100
,
0010
0001
1000
0010
1000
0001
0100
0001
0010
0100
1000
0100
,
0010
0001
0010
0001
1000
0001
0100
0001
0100
0010
0100
0010
,
1000
0100
1000
0010
0100
0010
0100
0001
0010
0100
0010
0100
,
1000
0100
1000
0010
1000
0100
1000
0100
1000
0001
1000
0100
,
0010
0001
0010
0100
1000
0010
1000
0010
1000
0001
0010
0001
,
0010
0001
1000
0001
1000
0100
0010
0001
0100
0001
0010
0100
,
1000
0001
1000
0100
0010
0001
0100
0001
0010
0001
1000
0010
,
1000
0010
1000
0100
1000
0100
1000
0100
0010
0001
0100
0001
,
1000
0010
1000
0010
1000
0001
0100
0001
1000
0001
0100
0010
,
0100
0010
0100
0001
0100
0010
1000
0100
1000
0100
0010
0001
,
1000
0000
0100
0000
0010
0000
0000
0000
0010
0000
0000
0000
0MM1
0000
M00M
M00M
,
M10M
0000
0MM0
0000
0001
0000
0M00
0000
M0M2
00M0
00M0
00M0
M0M3
0000
0M00
0000
,
1000
0010
1000
0001
0100
0010
0100
0001
,
1000
0010
0100
0001
1000
0001
0100
0010
,
1000
0100
0010
0001
1000
0001
1000
0100
,
0010
0100
0010
0001
1000
0100
0010
0001
,
1000
0100
0010
0100
1000
0000
0001
0000
0100
0000
0010
0000
0100
0000
0001
0000
,
0010
0100
0010
0100
1000
0000
0010
0000
0100
0000
0001
0000
1000
0000
0001
0000
,
0010
0001
0100
0001
0010
0100
0010
0001
,
1000
0100
1000
0001
2000
0000
3000
0000
,
1000
0001
0010
0001
1000
0010
1000
0001
1000
0010
0100
0001
,
0010
0100
0010
0001
0010
0001
0100
0010
0100
0010
1000
0010
,
1000
0001
1000
0100
0010
0100
0010
0001
1000
0001
1000
0001
,
0100
0001
1000
0100
1000
0001
1000
0100
0010
0001
0010
0001
,
1000
0001
0010
0100
0010
0100
0010
0001
1000
0100
0010
0001
,
1000
0001
0100
0001
0010
0100
0010
0001
1000
0100
1000
0001
,
0010
0000
0100
0000
1000
0000
0MM0
0000
M01M
M00M
M00M
M00M
M10M
0000
0MM0
0000
,
0001
0000
0000
0000
10M0
0000
0M0M
0M00
2M00
0M00
0M0M
0000
30M0
0000
0000
0000
,
0001
0010
0100
1000
0001
0010
0100
1000
,
0001
0010
0001
0010
0100
1000
0100
1000
,
0001
0100
1000
0100
0001
0100
1000
0100
,
0001
0010
1000
0010
0001
0010
1000
0010
,
0100
1000
0100
1000
0100
0010
0100
0010
,
0001
0100
0010
1000
0001
0100
0010
1000
,
0001
0100
1000
0100
0010
1000
0100
1000
,
0010
0001
0010
0100
0001
0010
0100
1000
,
0202
0000
0000
0000
,
0000
0000
0000
0303
1000
0100
0010
0001
,
2020
0000
0000
0000
,
0000
0000
0000
3030
0001
0010
0100
1000
,
0022
0000
0000
0000
0000
0000
0000
0000
0000
MM00
0000
MM00
0000
MM00
0000
MM00
0000
0000
0000
0000
0000
0000
0000
0000
0000
0000
0000
0000
0000
0000
0000
0000
0000
MM00
0000
MM00
0000
MM00
0000
MM00
0000
0000
0000
0000
0000
0000
0000
0000
,
0000
0000
0000
0000
0000
0000
0000
0000
0000
MM00
0000
MM00
0000
MM00
0000
MM00
0000
0000
0033
0000
0000
0000
0000
0000
0220
0000
0000
0000
0000
0000
0000
0000
0000
0000
0000
0000
0000
0000
0000
0000
0000
0000
0330
0000
0000
0000
0000
0000
,
2200
0000
0000
0000
0000
0000
0000
0000
0000
00MM
0000
00MM
0000
00MM
0000
00MM
0000
0000
0000
0000
0000
0000
0000
0000
0000
0000
0000
0000
0000
0000
0000
0000
0000
00MM
0000
00MM
0000
00MM
0000
00MM
0000
0000
3300
0000
0000
0000
0000
0000
,
0202
0000
0000
0000
0000
0000
0000
0303
,
1000
0100
1000
0001
0100
0001
1000
0001
,
0010
0100
1000
0001
0100
0010
0100
0001
,
0010
0001
0010
0001
1000
0000
0100
0000
0010
0000
0100
0000
1000
0000
0001
0000
,
0010
0000
0100
0000
0010
0000
0001
0000
1000
0001
1000
0100
0010
0100
0010
0100
,
1000
0100
0010
0001
1000
0001
0100
0010
,
0100
0001
0010
0001
1000
0100
0010
0100
,
1000
0000
0M00
0000
M1M0
00M0
00M0
00M0
10M0
00M0
M1M0
0000
0M00
0000
0100
0000
,
0010
0001
0010
0001
1000
0100
1000
0100
1000
0000
0100
0000
0010
0000
0001
0000
,
1000
0100
0010
0100
1000
0010
1000
0100
,
1000
0010
0100
0001
0010
0100
1000
0001
,
0010
0100
0010
0100
1000
0000
0100
0000
0010
0000
0100
0000
1000
0000
0100
0000
,
1000
0000
0010
0000
0100
0000
0001
0000
1000
0001
0100
0001
0100
0010
1000
0010
,
1000
0100
0010
0100
0010
0001
0100
0010
,
1000
0100
1000
0010
0100
0001
1000
0001
,
0100
0000
0MM0
0000
M01M
M00M
M00M
M00M
M10M
M00M
M01M
0000
0MM0
0000
0010
0000
,
1000
0100
0010
0100
0010
0100
0010
0001
20M0
0000
0M0M
0M00
0M00
0M00
3M0M
0000
,
01M1
0000
0000
0000
;

//---------------dance-single - Dreamland200----------------
#NOTES:
     dance-single:
     Dreamland200:
     Hard:
     9:
     0.659954,0.721120,0.093896,0.450700,0.028169,434.000000,10.000000,48.000000,0.000000,0.000000,4.000000,0.659954,0.721120,0.093896,0.450700,0.028169,434.000000,10.000000,48.000000,0.000000,0.000000,4.000000:
// measure 0
0000
0000
0000
0000
,  // measure 1
0000
0000
0000
0000
,  // measure 2
0000
0000
0000
0000
,  // measure 3
0000
0000
0000
0000
,  // measure 4
0002
0000
0023
0000
,  // measure 5
0230
0000
2300
0000
,  // measure 6
3002
0203
0320
2030
,  // measure 7
3200
0000
0320
0000
0031
0100
0001
0100
,  // measure 8
0001
0100
0010
1000
,  // measure 9
0000
0001
0010
0000
0001
1000
0010
1000
,  // measure 10
0000
0001
0100
0001
1000
0100
1000
0001
,  // measure 11
0100
0000
0010
0000
0100
0000
0010
0000
0000
0000
0100
0000
0001
1000
0001
0000
,  // measure 12
0010
0100
1000
0001
,  // measure 13
0100
0010
1000
0001
,  // measure 14
0020
0032
0203
0320
,  // measure 15
2030
0000
3200
0000
0310
0001
0010
0001
,  // measure 16
1000
0010
0100
0001
,  // measure 17
0000
0010
0001
0000
1000
0010
1000
0001
,  // measure 18
0000
1000
0100
1000
0001
0100
0001
1000
,  // measure 19
0100
0000
0010
0000
0001
0000
1000
0000
0000
0000
0010
0000
0100
0001
0100
0000
,  // measure 20
0010
1000
0100
1000
,  // measure 21
0010
0100
0001
0100
,  // measure 22
0020
2030
3200
0320
,  // measure 23
0032
0000
0203
0000
0310
1000
0010
1000
,  // measure 24
0001
0010
0100
1000
,  // measure 25
0000
0010
0100
0000
0001
0100
0010
0100
,  // measure 26
0000
0001
0010
0001
1000
0100
1000
0001
,  // measure 27
0010
0000
0001
0000
0100
0000
0010
0000
0000
0000
0100
0000
0001
0010
0001
0000
,  // measure 28
1000
0010
0100
0001
,  // measure 29
0010
0100
1000
0001
,  // measure 30
0020
0230
2300
3020
,  // measure 31
0230
0000
0302
0000
0013
0100
0010
0100
,  // measure 32
1000
0010
0100
0001
,  // measure 33
0011
0000
0100
2000
0000
0000
3000
0000
,  // measure 34
0011
0000
0100
2000
0000
0000
3000
0000
,  // measure 35
1001
0000
0001
0100
0000
0010
1000
0010
,  // measure 36
0100
0001
0010
0100
,  // measure 37
1100
0000
1000
0020
0000
0000
0030
0100
,  // measure 38
0001
0000
0100
0020
0000
0000
0030
1000
,  // measure 39
0001
0000
1000
0100
0000
0010
0001
0010
,  // measure 40
0100
1000
0010
0100
,  // measure 41
0101
0000
0010
2000
0000
0000
3000
0000
,  // measure 42
0101
0000
0010
2000
0000
0000
3000
0000
,  // measure 43
0101
0000
0010
1000
0000
0001
0010
0001
,  // measure 44
1000
0010
0100
0001
,  // measure 45
0010
0001
0100
0010
0000
1000
0100
1000
,  // measure 46
0001
0100
0001
0100
0010
0000
1000
0000
,  // measure 47
0010
0100
0002
0000
,  // measure 48
1003
0010
1000
0100
,  // measure 49
1000
0010
1000
0001
,  // measure 50
0010
0001
0100
0001
,  // measure 51
1000
0100
1000
0001
,  // measure 52
1000
0010
1000
0010
0100
0001
0100
0001
,  // measure 53
1000
0100
1000
0100
0010
0001
0010
0001
,  // measure 54
1000
0010
1000
0001
0010
0001
1000
0100
,  // measure 55
1000
0001
0100
0001
2000
0000
0000
0000
,  // measure 56
3010
0100
0001
1000
,  // measure 57
1001
0000
0100
0020
0000
0000
0030
0000
,  // measure 58
1001
0000
0010
0200
0000
0000
0300
0000
,  // measure 59
1001
0000
0100
0010
0000
0001
0010
0001
,  // measure 60
1000
0100
1000
0010
,  // measure 61
0100
0001
0100
0010
0000
1000
0100
1000
,  // measure 62
0001
0010
0001
0010
0100
0000
1000
0000
,  // measure 63
0010
0100
0002
0000
,  // measure 64
1003
0000
0010
1000
0000
0010
1000
0000
,  // measure 65
0001
0000
0100
0001
0000
0100
0001
0000
,  // measure 66
0010
0001
0010
0000
0100
0000
1000
0002
,  // measure 67
0000
0000
0003
0000
,  // measure 68
0010
0000
0100
1000
0000
0100
1000
0000
,  // measure 69
0001
0000
0100
0010
0000
0100
0010
0000
,  // measure 70
1000
0000
0010
0000
0100
0001
0000
1000
,  // measure 71
0200
0000
0300
0000
,  // measure 72
1000
0000
0010
0100
0000
0010
1000
0000
,  // measure 73
0001
0000
0010
0100
0000
0010
0001
0000
,  // measure 74
1000
0010
0100
0000
0001
0000
0100
0020
,  // measure 75
0000
0000
0000
0030
0100
0001
1000
0010
,  // measure 76
0100
0000
0001
0010
0000
0001
0100
0000
,  // measure 77
0010
0000
1000
0100
0000
1000
0010
0000
,  // measure 78
0100
0000
0001
0000
1000
0100
0000
0010
,  // measure 79
0002
0000
0003
0000
,  // measure 80
1000
0000
0010
0100
0000
0010
1000
0000
,  // measure 81
0001
0000
0010
0100
0000
0010
0001
0000
,  // measure 82
1000
0010
1000
0000
0001
0000
0100
0002
,  // measure 83
0000
0000
0000
0000
0000
0000
1003
0000
0040
0400
0000
0000
0000
0000
0000
0000
,  // measure 84
0330
0000
0100
0001
0000
0010
0001
0000
,  // measure 85
1000
0000
0100
0010
0000
0100
1000
0000
,  // measure 86
0001
0000
0100
0000
0010
1000
0000
0010
,  // measure 87
0200
0000
0000
0300
,  // measure 88
0001
0000
0100
0010
0000
0100
0001
0000
,  // measure 89
1000
0000
0100
0010
0000
0100
1000
0000
,  // measure 90
0001
0100
0001
0000
0010
0000
0100
2000
,  // measure 91
0000
0000
0000
0000
0000
0000
3001
0000
0400
0040
0000
0000
0000
0000
0000
0000
,  // measure 92
0330
0000
0100
0010
0000
1000
0100
0000
,  // measure 93
0010
0000
0100
1000
0000
0010
0100
0000
,  // measure 94
0001
0000
0010
0000
0100
0010
0000
0001
,  // measure 95
2000
0000
0000
0000
3000
0000
0010
0100
0002
0000
0000
0000
1000
0000
0000
0000
,  // measure 96
0003
0000
0000
0000
;
