#VERSION:0.82;
#TITLE:Metal Crusher;
#SUBTITLE:;
#ARTIST:Toby Fox;
#TITLETRANSLIT:;
#SUBTITLETRANSLIT:;
#ARTISTTRANSLIT:;
#GENRE:;
#ORIGIN:;
#CREDIT:;
#BANNER:;
#BACKGROUND:;
#PREVIEWVID:;
#JACKET:jacket.png;
#CDIMAGE:;
#DISCIMAGE:;
#LYRICSPATH:;
#CDTITLE:;
#MUSIC:Metal Crusher.ogg;
#OFFSET:-0.012000;
#SAMPLESTART:4.149931;
#SAMPLELENGTH:16.551723;
#SELECTABLE:YES;
#BPMS:0.000=116.000;
#STOPS:;
#DELAYS:;
#WARPS:;
#TIMESIGNATURES:0.000=4=4;
#TICKCOUNTS:0.000=4;
#COMBOS:0.000=1;
#SPEEDS:0.000=1.000=0.000=0;
#SCROLLS:0.000=1.000;
#FAKES:;
#LABELS:0.000=Song Start;
#BGCHANGES:;
#KEYSOUNDS:;
#ATTACKS:
;

//---------------dance-single - ----------------
#NOTEDATA:;
#CHARTNAME:;
#STEPSTYPE:dance-single;
#DESCRIPTION:;
#CHARTSTYLE:;
#DIFFICULTY:Challenge;
#METER:9;
#RADARVALUES:0.765767,0.751395,0.000000,0.251513,1.000000,325.000000,0.000000,16.000000,0.000000,0.000000,0.000000,0.000000,0.000000,0.765767,0.751395,0.000000,0.251513,1.000000,325.000000,0.000000,16.000000,0.000000,0.000000,0.000000,0.000000,0.000000;
#CREDIT:;
#NOTES:
// measure 0
0000
0000
0000
0000
,  // measure 1
0000
0000
0000
0000
,  // measure 2
0010
0000
1000
0100
1000
0000
0001
0100
0001
0000
0010
0100
0010
0000
0100
1000
,  // measure 3
0100
0000
1000
0000
0001
0000
1000
0000
0100
0000
1000
0000
0001
0000
1000
0000
0010
0000
0000
0000
0100
0000
0001
0000
1000
0000
0000
0000
0100
0000
1000
0010
,  // measure 4
1000
0000
0010
0100
0001
0000
0010
0001
1000
0000
0100
1000
0001
0000
0100
0010
,  // measure 5
1000
0000
0001
0000
0010
0000
0001
0000
1000
0000
0001
0000
0010
0000
0001
0000
1000
0000
0000
0000
0001
0000
1000
0000
0010
0000
0100
0001
0100
0000
0000
0000
,  // measure 6
0010
0000
1000
0100
0010
0000
0100
1000
0010
0000
0100
0001
0010
0000
0001
0100
,  // measure 7
0010
0000
0100
0000
0001
0000
0100
0000
0010
0000
0100
0000
0001
0000
0100
0000
0010
0000
0000
0000
0100
0000
0001
0000
1000
0000
0000
0000
0100
0000
1000
0001
,  // measure 8
1000
0000
0010
0100
0010
0000
1000
0010
1000
0000
0001
1000
0001
0000
0010
0001
,  // measure 9
0010
0001
0100
0001
0010
0100
1000
0100
0010
0000
0001
0100
0001
0010
0100
1000
,  // measure 10
0020
0000
0000
0130
0002
0000
0000
1003
,  // measure 11
0200
2300
3020
0230
,  // measure 12
0320
0000
0000
1030
0002
0000
0000
0013
,  // measure 13
0100
0000
1000
0000
0100
0000
0000
0000
1000
0000
0001
0000
1000
0000
0000
0000
0001
0000
0000
0000
0000
0000
0100
0010
0100
0000
0001
0000
0100
0000
0010
0000
,  // measure 14
2000
0000
0000
3001
0020
0000
0000
0130
,  // measure 15
2000
3002
0203
0320
,  // measure 16
0230
0000
0000
0000
0000
0000
0300
0001
0010
0000
0000
0010
0100
0000
0000
0100
,  // measure 17
2000
0000
0000
0000
0000
0000
0000
0000
3000
0000
0000
0000
0000
0000
0001
0100
0001
0000
1000
0000
0010
0000
1000
0000
0001
0000
0000
0000
0000
0000
0000
0000
,  // measure 18
0100
0000
0001
0010
0001
0000
1000
0010
1000
0000
0100
0010
0100
0000
0010
0001
,  // measure 19
0010
0000
0001
0000
1000
0000
0001
0000
0010
0000
0001
0000
1000
0000
0001
0000
0100
0000
0000
0000
0010
0000
1000
0000
0001
0000
0000
0000
0010
0000
0001
0100
,  // measure 20
0001
0000
0100
0010
1000
0000
0100
1000
0001
0000
0010
0001
1000
0000
0010
0100
,  // measure 21
0001
0000
1000
0000
0100
0000
1000
0000
0001
0000
1000
0000
0100
0000
1000
0000
0001
0000
0000
0000
1000
0000
0001
0000
0100
0000
0010
1000
0010
0000
0000
0000
,  // measure 22
0100
0000
0001
0010
0100
0000
0010
0001
0100
0000
0010
1000
0100
0000
1000
0010
,  // measure 23
0100
0000
0010
0000
1000
0000
0010
0000
0100
0000
0010
0000
1000
0000
0010
0000
0100
0000
0000
0000
0010
0000
1000
0000
0001
0000
0000
0000
0010
0000
0001
1000
,  // measure 24
0001
0000
0100
0010
0100
0000
0001
0100
0001
0000
1000
0001
1000
0000
0100
1000
,  // measure 25
0100
1000
0010
1000
0100
0010
0001
0010
0100
0000
1000
0010
1000
0100
0010
0100
,  // measure 26
1000
0001
0100
0001
0010
0001
1000
0001
0100
0010
0100
0001
1000
0100
1000
0001
,  // measure 27
0010
0100
0010
0001
1000
0100
1000
0010
0100
0001
0100
0010
1000
0001
0010
0001
,  // measure 28
1000
0010
0100
0010
1000
0100
0010
0100
1000
0001
0100
0001
0010
0100
1000
0100
,  // measure 29
0010
0001
0100
0001
0010
0100
0010
0001
1000
0010
1000
0001
0100
0000
0010
0000
;
