#VERSION:0.82;
#TITLE:Megalovania;
#SUBTITLE:;
#ARTIST:Toby Fox;
#TITLETRANSLIT:;
#SUBTITLETRANSLIT:;
#ARTISTTRANSLIT:;
#GENRE:;
#ORIGIN:;
#CREDIT:;
#BANNER:banner.png;
#BACKGROUND:sans0.png;
#PREVIEWVID:;
#JACKET:jacket.png;
#CDIMAGE:;
#DISCIMAGE:sans1.png;
#LYRICSPATH:;
#CDTITLE:;
#MUSIC:toby fox - UNDERTALE Soundtrack - 100 MEGALOVANIA - radio edit.mp3;
#OFFSET:-0.080000;
#SAMPLESTART:16.059999;
#SAMPLELENGTH:16.000002;
#SELECTABLE:YES;
#DISPLAYBPM:240.000000;
#BPMS:0.000=960.000,
4.000=240000.000,
128.000=240.000,
225.500=480.000,
229.500=240.000,
233.500=480.000,
236.500=240.000,
241.500=480.000,
244.500=240.000,
257.500=480.000,
260.500=240.000,
265.500=480.000,
268.500=240.000,
269.500=480.000,
270.500=240.000,
272.000=480.000,
288.000=240.000,
291.500=480.000,
307.500=240.000,
562.000=480.000,
564.000=240.000,
566.000=480.000,
568.000=240.000,
594.000=480.000,
596.000=240.000,
598.000=480.000,
600.000=240.000,
626.000=240000.000,
629.500=240.000,
634.000=240000.000,
637.500=240.000,
642.000=240000.000,
645.500=240.000,
650.000=240000.000,
653.500=240.000,
658.000=240000.000,
661.500=240.000,
666.000=240000.000,
672.000=240.000;
#STOPS:4.000=0.249,
8.000=0.249,
12.000=0.249,
16.000=0.249,
20.000=0.249,
24.000=0.249,
28.000=0.249,
32.000=0.249,
36.000=0.249,
40.000=0.249,
44.000=0.249,
48.000=0.249,
52.000=0.249,
56.000=0.249,
60.000=0.249,
64.000=0.249,
68.000=0.249,
72.000=0.249,
76.000=0.249,
80.000=0.249,
84.000=0.249,
88.000=0.249,
92.000=0.249,
96.000=0.249,
100.000=0.249,
104.000=0.249,
108.000=0.249,
112.000=0.249,
116.000=0.249,
120.000=0.249,
124.000=0.249,
225.500=0.125,
226.500=0.125,
227.500=0.125,
228.500=0.125,
233.500=0.125,
234.500=0.125,
235.500=0.125,
241.500=0.125,
242.500=0.125,
243.500=0.125,
257.500=0.125,
258.500=0.125,
259.500=0.125,
265.500=0.125,
266.500=0.125,
267.500=0.125,
269.500=0.125,
562.000=0.062,
562.500=0.062,
563.000=0.062,
563.500=0.062,
566.000=0.062,
566.500=0.062,
567.000=0.062,
567.500=0.062,
594.000=0.062,
594.500=0.062,
595.000=0.062,
595.500=0.062,
598.000=0.062,
598.500=0.062,
599.000=0.062,
599.500=0.062,
626.000=0.375,
627.500=0.250,
628.500=0.250,
634.000=0.375,
635.500=0.250,
636.500=0.250,
642.000=0.375,
643.500=0.250,
644.500=0.250,
650.000=0.375,
651.500=0.250,
652.500=0.250,
658.000=0.375,
659.500=0.250,
660.500=0.250,
666.000=0.375,
667.500=0.250,
668.500=0.250,
669.500=0.250,
670.500=0.125,
671.000=0.125,
671.500=0.125;
#DELAYS:;
#WARPS:;
#TIMESIGNATURES:0.000=4=4;
#TICKCOUNTS:0.000=4;
#COMBOS:0.000=1;
#SPEEDS:0.000=1.000=0.000=0;
#SCROLLS:0.000=1.000;
#FAKES:;
#LABELS:0.000=Song Start;
#BGCHANGES:0.000=sans0.png=1.000=0=0=1=====,
128.000=sans1.png=1.000=0=0=1=====,
128.250=sans2.png=1.000=0=0=1=====,
128.500=sans1.png=1.000=0=0=1=====,
128.750=sans2.png=1.000=0=0=1=====,
129.000=sans1.png=1.000=0=0=1=====,
129.250=sans2.png=1.000=0=0=1=====,
129.500=sans1.png=1.000=0=0=1=====,
129.750=sans2.png=1.000=0=0=1=====,
130.000=sans1.png=1.000=0=0=1=====,
130.250=sans2.png=1.000=0=0=1=====,
130.500=sans1.png=1.000=0=0=1=====,
130.750=sans2.png=1.000=0=0=1=====,
131.000=sans1.png=1.000=0=0=1=====,
131.250=sans2.png=1.000=0=0=1=====,
131.500=sans1.png=1.000=0=0=1=====,
131.750=sans2.png=1.000=0=0=1=====,
132.000=sans1.png=1.000=0=0=1=====,
132.250=sans2.png=1.000=0=0=1=====,
132.500=sans1.png=1.000=0=0=1=====,
132.750=sans2.png=1.000=0=0=1=====,
133.000=sans1.png=1.000=0=0=1=====,
133.250=sans2.png=1.000=0=0=1=====,
133.500=sans1.png=1.000=0=0=1=====,
133.750=sans2.png=1.000=0=0=1=====,
134.000=sans1.png=1.000=0=0=1=====,
134.250=sans2.png=1.000=0=0=1=====,
134.500=sans1.png=1.000=0=0=1=====,
134.750=sans2.png=1.000=0=0=1=====,
135.000=sans1.png=1.000=0=0=1=====,
135.250=sans2.png=1.000=0=0=1=====,
135.500=sans1.png=1.000=0=0=1=====,
135.750=sans2.png=1.000=0=0=1=====,
136.000=sans3.png=1.000=0=0=1=====,
99999=-nosongbg-=1.000=0=0=0 // don't automatically add -songbackground-
;
#KEYSOUNDS:;
#ATTACKS:
;

//---------------dance-single - bblum----------------
#NOTEDATA:;
#CHARTNAME:;
#STEPSTYPE:dance-single;
#DESCRIPTION:bblum;
#CHARTSTYLE:;
#DIFFICULTY:Challenge;
#METER:13;
#RADARVALUES:0.958540,1.000000,0.642426,0.642426,1.000000,756.000000,90.000000,90.000000,773.000000,26.000000,0.000000,0.000000,0.000000,0.958540,1.000000,0.642426,0.642426,1.000000,756.000000,90.000000,90.000000,773.000000,26.000000,0.000000,0.000000,0.000000;
#CREDIT:;
#DISPLAYBPM:240.000000;
#NOTES:
// measure 0
0000
0000
0000
0000
,  // measure 1
M00M
M00M
M00M
MMMM
0MM0
0MM0
0MM0
0000
0000
0000
0000
0000
0000
0000
0000
0000
,  // measure 2
0MM0
M00M
M00M
M00M
M00M
M00M
0MM0
0000
0000
0000
0000
0000
0000
0000
0000
0000
,  // measure 3
M00M
M00M
M00M
M00M
M00M
M00M
0MM0
0000
0000
0000
0000
0000
0000
0000
0000
0000
,  // measure 4
MMM0
M00M
M00M
MMM0
M0M0
M00M
M00M
0000
0000
0000
0000
0000
0000
0000
0000
0000
,  // measure 5
MMMM
M000
M000
MMM0
M000
M000
MMMM
0000
0000
0000
0000
0000
0000
0000
0000
0000
,  // measure 6
0MM0
M000
M000
M0MM
M00M
M00M
0MM0
0000
0000
0000
0000
0000
0000
0000
0000
0000
,  // measure 7
0MM0
M00M
M00M
M00M
M00M
M00M
0MM0
0000
0000
0000
0000
0000
0000
0000
0000
0000
,  // measure 8
M00M
M00M
MM0M
MMMM
M0MM
M00M
M00M
0000
0000
0000
0000
0000
0000
0000
0000
0000
,  // measure 9
M00M
M00M
MM0M
MMMM
M0MM
M00M
M00M
0000
0000
0000
0000
0000
0000
0000
0000
0000
,  // measure 10
0MM0
M00M
M00M
MMMM
M00M
M00M
M00M
0000
0000
0000
0000
0000
0000
0000
0000
0000
,  // measure 11
M00M
M00M
M00M
MMMM
M00M
M00M
M00M
0000
0000
0000
0000
0000
0000
0000
0000
0000
,  // measure 12
0MM0
M00M
M00M
MMMM
M00M
M00M
M00M
0000
0000
0000
0000
0000
0000
0000
0000
0000
,  // measure 13
M0M0
M0M0
M0M0
M0M0
M0M0
0M00
0M00
0000
0000
0000
0000
0000
0000
0000
0000
0000
,  // measure 14
MMMM
M000
M000
MMM0
M000
M000
MMMM
0000
0000
0000
0000
0000
0000
0000
0000
0000
,  // measure 15
0MM0
M00M
M00M
MMMM
M00M
M00M
M00M
0000
0000
0000
0000
0000
0000
0000
0000
0000
,  // measure 16
MMM0
M00M
M00M
MMM0
M00M
M00M
MMM0
0000
0000
0000
0000
0000
0000
0000
0000
0000
,  // measure 17
0MM0
M00M
M00M
MMMM
M00M
M00M
M00M
0000
0000
0000
0000
0000
0000
0000
0000
0000
,  // measure 18
MMM0
M0MM
M00M
M00M
M00M
M0MM
MMM0
0000
0000
0000
0000
0000
0000
0000
0000
0000
,  // measure 19
MMMM
MMMM
0MM0
0MM0
0MM0
0MM0
0MM0
0000
0000
0000
0000
0000
0000
0000
0000
0000
,  // measure 20
MMMM
0MM0
0MM0
0MM0
0MM0
0MM0
MMMM
0000
0000
0000
0000
0000
0000
0000
0000
0000
,  // measure 21
M00M
MMMM
MMMM
MMMM
M00M
M00M
M00M
0000
0000
0000
0000
0000
0000
0000
0000
0000
,  // measure 22
MMMM
M000
M000
MMM0
M000
M000
MMMM
0000
0000
0000
0000
0000
0000
0000
0000
0000
,  // measure 23
MMMM
MMMM
MMMM
MMMM
,  // measure 24
0000
MM00
0000
0000
0000
00MM
0000
MM00
0000
0000
0000
00MM
0000
MM00
0000
0000
0000
00MM
0000
MM00
0000
0000
0000
00MM
,  // measure 25
0000
MM00
00MM
0000
MM00
00MM
0000
MM00
00MM
0000
MM00
00MM
,  // measure 26
0000
MMMM
0000
MMMM
0000
MMMM
0000
MMMM
,  // measure 27
0000
00MM
MM00
0000
00MM
MM00
0000
00MM
MM00
0000
00MM
MM00
,  // measure 28
0000
00MM
0000
0000
0000
MM00
0000
00MM
0000
0000
0000
MM00
0000
00MM
0000
0000
0000
MM00
0000
00MM
0000
0000
0000
MM00
,  // measure 29
M000
0M00
M000
0000
0000
000M
0000
0000
,  // measure 30
M000
0M00
M000
0000
000M
0000
0000
0000
,  // measure 31
M000
0M00
M000
0000
000M
0000
0000
00M0
,  // measure 32
1000
0100
1000
0000
0001
0000
0000
0010
,  // measure 33
0000
0001
0000
0200
0000
0301
0010
0100
,  // measure 34
0010
0001
1000
0000
0010
0000
0000
0100
,  // measure 35
0000
0100
0000
0020
0000
1030
0010
1000
,  // measure 36
0010
0100
0001
0000
0001
0000
0000
1000
,  // measure 37
0000
1000
0000
0002
0000
0103
0010
1000
,  // measure 38
0010
0100
0010
0000
0010
0000
0000
1000
,  // measure 39
0000
0001
0000
0200
0000
0301
0010
0100
,  // measure 40
0010
0100
1000
0000
0011
0000
1000
0011
,  // measure 41
0000
0101
0000
2200
0000
3310
0001
0010
,  // measure 42
0001
0100
0001
0000
0010
0000
0100
1001
,  // measure 43
0000
0110
0000
2020
0000
3130
0010
0001
,  // measure 44
1000
0100
0010
0000
0010
0000
0001
1100
,  // measure 45
0000
0110
0000
2200
0000
3301
0010
0001
,  // measure 46
1000
1000
0100
0000
1000
0000
0010
0101
,  // measure 47
0000
0011
0000
2002
0000
3013
0001
0100
,  // measure 48
0010
1000
0001
0000
0100
0000
0001
1010
,  // measure 49
0000
0101
0000
0220
0000
0331
1000
0010
,  // measure 50
0100
0100
0001
0000
1000
0000
0100
0011
,  // measure 51
0000
1010
0000
2200
0000
3310
0001
0010
,  // measure 52
0100
1000
0010
0000
1000
0000
0001
0110
,  // measure 53
0000
1010
0000
0202
0000
0313
1000
0001
,  // measure 54
1000
0001
0010
1000
0001
0100
1000
0001
,  // measure 55
1000
0100
0001
1000
0010
0001
0010
0100
,  // measure 56
2000
0000
3001
0110
0000
1010
0000
1100
,  // measure 57
0000
0101
0000
0022
0000
0000
0033
0000
,  // measure 58
2000
0000
3010
0101
0000
1010
0000
0001
,  // measure 59
0000
0000
0000
0010
0001
0010
0001
0000
0000
0010
0000
0000
0001
0000
0000
1100
0000
0000
0000
0000
0000
0000
0000
0000
,  // measure 60
0010
0000
1000
0110
0000
0011
0000
1000
,  // measure 61
0000
0100
0000
0020
0000
0032
0000
0003
,  // measure 62
1000
0000
0010
0000
0100
0001
0100
0001
,  // measure 63
1000
0010
1000
0001
0100
0001
1000
0100
0010
0100
1000
0001
,  // measure 64
0010
0000
0100
0011
0000
1001
0000
1010
,  // measure 65
0000
1100
0000
0220
0000
0000
0330
0000
,  // measure 66
1000
0000
0010
0101
0000
0011
0000
1100
,  // measure 67
0000
0010
0000
1001
0000
0100
0010
0000
,  // measure 68
2MMM
0000
3020
0000
,  // measure 69
0032
0000
2003
0000
,  // measure 70
3200
0000
0302
0000
,  // measure 71
0023
0000
0230
0000
,  // measure 72
13MM
0000
0010
1000
0010
0100
0000
0002
,  // measure 73
MMM0
MMM0
0000
0000
0000
0000
0000
0000
MMM0
MMM0
0000
0000
0000
0000
0000
0000
MMM0
MMM0
0000
0000
0000
0000
0000
0000
MMM0
MMM0
0000
0000
0000
0000
0000
0000
,  // measure 74
MMM0
MMM0
0000
0000
0000
0000
0000
0000
MMM0
MMM0
0000
0000
0000
0000
0000
0000
MMM0
MMM0
0000
0000
0000
0000
0000
0000
MMM0
MMM0
0000
0000
0000
0000
0000
0000
,  // measure 75
MMM0
MMM0
0000
0000
0003
0000
0000
0000
MMMM
MMMM
0000
0000
0000
0000
0000
0000
MMMM
MMMM
0000
0000
0000
0000
0000
0000
MMMM
MMMM
0000
0000
0000
0000
0000
0000
,  // measure 76
MMMM
MMMM
0000
0000
0000
0000
0000
0000
MMMM
MMMM
0000
0000
0000
0000
0000
0000
MMMM
MMMM
0000
0000
0000
0000
0000
0000
MMMM
MMMM
0000
0000
0000
0000
0000
0000
,  // measure 77
1000
0010
1000
0100
1000
0001
0010
0001
,  // measure 78
0100
0001
0100
0002
0000
0000
2003
0000
0000
0000
0000
0000
3002
0000
0000
0000
0000
0000
0000
0000
0000
0000
0000
0000
,  // measure 79
0000
0000
0000
0000
0003
0200
0300
0001
,  // measure 80
1100
0000
0001
0010
0100
1000
0100
1000
,  // measure 81
0002
0203
2300
3200
,  // measure 82
0322
0000
1033
0000
1000
0100
0010
0100
,  // measure 83
0010
0001
0100
0001
1000
0010
1000
0100
0010
0100
1000
0001
,  // measure 84
0020
0032
0203
0320
,  // measure 85
1030
0100
1000
0001
0100
0001
1000
0100
0010
0001
0010
0001
,  // measure 86
1000
0010
1000
0001
0010
0100
0010
0001
1000
0010
0100
0010
,  // measure 87
1000
0001
1000
0100
1000
0001
0010
0100
0010
0001
0100
0001
,  // measure 88
1000
0010
1000
0010
1000
0010
1000
0010
1000
0010
1000
0010
1000
0010
1000
0010
,  // measure 89
0100
0001
1000
0010
0100
0001
0010
0100
,  // measure 90
1000
0100
1000
0100
1000
0100
1000
0100
1000
0100
1000
0100
1000
0100
1000
0100
,  // measure 91
0010
0001
0010
0001
0010
0001
0010
0001
0010
0001
0010
0100
1000
0001
0010
0100
,  // measure 92
1000
0000
0000
0000
,  // measure 93
0100
1000
0001
0100
0001
0010
0100
1000
,  // measure 94
0010
0100
0001
0200
0000
0000
0320
0000
0000
0000
0000
0000
0230
0000
0000
0000
0000
0000
0000
0000
0000
0000
0000
0000
,  // measure 95
0000
0000
0000
0000
0300
0002
0003
1000
,  // measure 96
0110
0000
1000
0010
0100
0001
0010
0001
,  // measure 97
2000
3200
0302
0203
,  // measure 98
1310
0000
0001
0000
0010
0001
0100
0001
,  // measure 99
0010
0001
1000
0100
1000
0001
0010
0100
0010
0001
1000
0010
,  // measure 100
0200
0320
2030
3200
,  // measure 101
0310
0001
0010
0001
0010
0001
0010
0000
0100
1000
0100
1000
0100
1000
0100
0000
,  // measure 102
0010
0100
0010
0100
0010
0100
0010
0000
0001
0100
0001
0100
0001
0100
0001
0000
,  // measure 103
0100
0010
0100
0010
0100
0010
0100
0000
0001
1000
0001
1000
0001
1000
0001
0000
,  // measure 104
0100
0010
0100
0001
0010
0001
1000
0100
0010
0001
0010
0001
,  // measure 105
1000
0010
1000
0100
1000
0010
1000
0001
,  // measure 106
0010
0100
1000
0001
0010
0100
1000
0001
1000
0100
0010
0001
,  // measure 107
0100
0010
0100
0001
0010
0100
1000
0001
0010
0100
0010
0001
,  // measure 108
0020
0000
0000
0000
,  // measure 109
0000
0000
0200
0000
,  // measure 110
2030
0000
0300
0000
,  // measure 111
0020
0000
3000
0000
,  // measure 112
0002
0000
0000
0000
,  // measure 113
0000
0000
0000
0000
,  // measure 114
0000
0000
0000
0000
,  // measure 115
0030
0000
0000
0000
,  // measure 116
0023
0000
0000
0000
,  // measure 117
0000
0000
0200
0000
,  // measure 118
0032
0000
0300
0000
,  // measure 119
2000
0000
0003
0000
,  // measure 120
0022
0000
3000
0000
,  // measure 121
0000
0000
0000
1000
0133
0010
0001
1000
0100
0010
0001
1000
,  // measure 122
0200
0000
0000
0000
,  // measure 123
0300
0000
0000
0000
,  // measure 124
1000
0100
0010
0000
1100
MMMM
0001
0101
,  // measure 125
0000
0110
0000
1100
MMMM
0001
0010
0100
,  // measure 126
0010
0100
1000
0000
0011
0000
0001
1100
,  // measure 127
MMMM
0011
MMMM
0101
0000
0010
1000
0010
,  // measure 128
1000
0100
0010
0000
0101
MMMM
1000
0011
,  // measure 129
0000
0101
0000
1010
MMMM
0001
0100
0010
,  // measure 130
1000
0100
0001
1000
0100
1000
0010
0001
,  // measure 131
0100
1000
0001
0010
0100
1000
0100
0001
,  // measure 132
0010
0001
1000
0000
0110
MMMM
1000
0101
,  // measure 133
0000
1001
0000
0110
MMMM
1000
0010
0100
,  // measure 134
0001
0100
0010
0000
1100
0000
0010
0101
,  // measure 135
MMMM
1100
MMMM
0011
0000
0100
1000
0100
,  // measure 136
1000
0000
0111
0000
1101
0000
0000
0010
,  // measure 137
0000
0100
0000
0020
0000
1030
0100
0010
,  // measure 138
0000
0000
1110
0000
1011
0000
0000
0001
,  // measure 139
0000
0100
0000
0002
0000
1003
0100
0010
,  // measure 140
MM01
MM00
0000
0000
0000
0000
0000
0000
MM01
MM00
0000
0000
0000
0000
0000
0000
MM10
MM00
0000
0000
0010
0000
0000
0000
MM01
MM00
0000
0000
0001
0000
0000
0000
,  // measure 141
MM00
MM00
0000
0000
0010
0000
0000
0000
MM01
MM00
0000
0000
0000
0000
0000
0000
MM10
MM00
0000
0000
0001
0000
0000
0000
MM01
MM00
0000
0000
0000
0000
0000
0000
,  // measure 142
1000
0000
0100
0000
0010
0001
0100
0001
,  // measure 143
0000
0000
0000
0000
M01M
M00M
0000
0000
0100
0000
0000
0000
M01M
M00M
0000
0000
0100
0000
0000
0000
M01M
M00M
0000
0000
0100
0000
0000
0000
0000
0000
0000
0000
,  // measure 144
1000
0000
0000
0000
0100
0000
0000
0000
0010
0001
0010
0100
0010
0001
0010
0000
,  // measure 145
00MM
00MM
0000
0000
1000
0000
0000
0000
01MM
00MM
0000
0000
1000
0000
0000
0000
01MM
00MM
0000
0000
1000
0000
0000
0000
01MM
00MM
0000
0000
0000
0000
0000
0000
,  // measure 146
MM01
MM00
0000
0000
0010
0000
0000
0000
01MM
00MM
0000
0000
1000
0000
0000
0000
MM01
MM00
0000
0000
0010
0000
0000
0000
01MM
00MM
0000
0000
1000
0000
0000
0000
,  // measure 147
0001
0100
0001
0100
0010
0100
0010
1000
0001
0010
0001
0100
,  // measure 148
M01M
M00M
0000
0000
0000
0000
0000
0000
M10M
M00M
0000
0000
0000
0000
0000
0000
M01M
M00M
0000
0000
0100
0000
0000
0000
M01M
M00M
0000
0000
0010
0000
0000
0000
,  // measure 149
M00M
M00M
0000
0000
0100
0000
0000
0000
M01M
M00M
0000
0000
0000
0000
0000
0000
M10M
M00M
0000
0000
0100
0000
0000
0000
M01M
M00M
0000
0000
0000
0000
0000
0000
,  // measure 150
1000
0000
0001
0000
1000
0100
0010
0001
,  // measure 151
0000
1000
0100
1000
0010
1000
0100
0000
,  // measure 152
1000
1000
0010
0000
1000
0000
0001
0110
,  // measure 153
0000
1001
0000
0022
0000
1033
0100
0010
,  // measure 154
0001
0010
0100
0000
0010
0000
1000
0011
,  // measure 155
0000
1010
0000
2200
0000
3301
0100
0001
,  // measure 156
0010
0010
0001
0000
1000
0000
0000
0110
,  // measure 157
0000
0001
0000
2020
0000
3031
0100
0010
,  // measure 158
0100
0010
1000
0000
0100
0000
0000
0011
,  // measure 159
0000
1100
0000
0022
0000
1033
0010
1000
,  // measure 160
0001
0001
0100
0000
0001
0000
0000
1010
,  // measure 161
0000
0011
0000
0202
0000
0313
0100
0001
,  // measure 162
0100
0010
1000
0000
0001
0000
0000
0110
,  // measure 163
0000
1001
0000
0220
0000
1330
0001
0010
,  // measure 164
0100
0100
1000
0000
0010
0000
0000
0101
,  // measure 165
0000
1100
0000
2020
0000
3031
0100
0001
,  // measure 166
1000
0000
0100
0000
1000
0000
M000
M000
M001
M000
M000
M000
M000
M000
M010
M000
,  // measure 167
M0M0
M0M0
M0M1
M0M0
M0M0
M0M0
M2M0
M0M0
M0M0
M0M0
M3M1
M0M0
M1MM
M0MM
M1MM
M0MM
,  // measure 168
MMMM
0000
0000
0000
;
