#VERSION:0.82;
#TITLE:Hopes and Dreams;
#SUBTITLE:;
#ARTIST:Toby Fox;
#TITLETRANSLIT:;
#SUBTITLETRANSLIT:;
#ARTISTTRANSLIT:;
#GENRE:;
#ORIGIN:;
#CREDIT:;
#BANNER:banner.png;
#BACKGROUND:asriel.png;
#PREVIEWVID:;
#JACKET:jacket.png;
#CDIMAGE:;
#DISCIMAGE:;
#LYRICSPATH:;
#CDTITLE:;
#MUSIC:toby fox - UNDERTALE Soundtrack - 87 Hopes and Dreams.mp3;
#OFFSET:-0.020000;
#SAMPLESTART:22.520088;
#SAMPLELENGTH:16.875065;
#SELECTABLE:YES;
#BPMS:0.000=170.666;
#STOPS:;
#DELAYS:;
#WARPS:;
#TIMESIGNATURES:0.000=4=4;
#TICKCOUNTS:0.000=4;
#COMBOS:0.000=1;
#SPEEDS:0.000=1.000=0.000=0;
#SCROLLS:0.000=1.000;
#FAKES:;
#LABELS:0.000=Song Start;
#BGCHANGES:;
#KEYSOUNDS:;
#ATTACKS:
;

//---------------dance-single - bblum----------------
#NOTEDATA:;
#CHARTNAME:bblum;
#STEPSTYPE:dance-single;
#DESCRIPTION:bblum;
#CHARTSTYLE:;
#DIFFICULTY:Challenge;
#METER:14;
#RADARVALUES:0.942975,1.000000,0.121318,0.226093,1.000000,1134.000000,22.000000,41.000000,468.000000,1.000000,14.000000,0.000000,0.000000,0.942975,1.000000,0.121318,0.226093,1.000000,1134.000000,22.000000,41.000000,468.000000,1.000000,14.000000,0.000000,0.000000;
#CREDIT:bblum;
#NOTES:
// measure 0
0000
0000
0000
0000
,  // measure 1
0000
0000
0000
0000
,  // measure 2
0000
0000
0000
0000
,  // measure 3
0000
0000
0000
0000
,  // measure 4
0000
0000
0000
0000
,  // measure 5
0000
0000
0000
0000
,  // measure 6
0000
0000
0000
0000
,  // measure 7
0000
0000
0000
0000
,  // measure 8
0220
0330
0000
0000
0002
0003
0000
0000
,  // measure 9
2200
3300
0000
0000
0000
0000
0000
0000
,  // measure 10
2020
3030
0000
0000
0200
0300
0000
0000
,  // measure 11
0022
0033
0000
0000
0000
0000
0000
0000
,  // measure 12
0202
0303
0000
0000
0002
0003
0000
0000
,  // measure 13
2020
3030
0000
0000
0000
0000
0200
0300
,  // measure 14
2002
3003
0000
0000
0200
0300
0000
0000
,  // measure 15
2020
3031
0010
0100
0010
0001
0010
0100
,  // measure 16
1000
0100
1000
0100
0010
0001
1000
0001
0010
0100
1000
0010
0100
0010
1000
0001
,  // measure 17
1000
0001
0100
0001
0100
0010
1000
0001
0100
0010
1000
0001
1000
0100
0010
0001
,  // measure 18
0010
0100
0010
0100
1000
0001
0100
0001
0100
0010
0100
0010
1000
0010
1000
0010
,  // measure 19
1000
0001
1000
0001
0010
0100
1000
0010
0100
0010
0100
0001
0100
0010
1000
0100
,  // measure 20
0010
0001
1000
0001
0100
0010
1000
0001
1000
0010
1000
0010
0100
0010
1000
0001
,  // measure 21
0100
0010
1000
0001
1000
0100
1000
0001
0100
0010
1000
0001
1000
0010
1000
0100
,  // measure 22
0010
0001
1000
0001
0100
0001
0010
0100
1000
0001
0100
0010
0100
0001
0100
0010
,  // measure 23
1000
0001
1000
0100
0010
0001
0010
0001
0010
0001
0100
0010
1000
0010
1000
0001
,  // measure 24
0010
0100
1000
0100
0010
0001
0010
0001
0010
0100
1000
0010
1000
0100
0010
0001
,  // measure 25
0100
0001
0010
0100
0010
0001
1000
0100
1000
0010
0100
0010
1000
0001
1000
0001
,  // measure 26
0100
0001
0100
0001
0010
0100
1000
0001
0010
0001
0010
0100
0010
0001
1000
0010
,  // measure 27
0100
0001
1000
0010
0100
0010
1000
0001
0100
0001
0010
0001
0010
0100
0010
0100
,  // measure 28
1000
0010
1000
0010
1000
0001
1000
0001
0100
0001
1000
0100
0010
0001
0010
0001
,  // measure 29
0100
0001
1000
0001
0100
0010
1000
0100
1000
0010
1000
0001
0100
0001
0100
0010
,  // measure 30
0100
0010
0100
0001
0100
0001
1000
0100
0010
0100
1000
0001
0010
0100
0010
0001
,  // measure 31
1000
0001
1000
0100
0010
0001
0100
0001
1000
0100
0010
0001
0010
0001
1000
0100
,  // measure 32
0011
1000
0010
1000
,  // measure 33
0001
0010
0001
1000
,  // measure 34
0001
0000
1000
0010
1000
0000
0010
0000
,  // measure 35
1000
0000
0001
0000
1000
0010
1000
0000
,  // measure 36
0110
1000
0010
0100
,  // measure 37
1000
0100
0010
1000
,  // measure 38
0010
0000
0100
1000
0100
0000
0010
0000
,  // measure 39
1000
0000
0010
0000
0100
1000
0100
0000
,  // measure 40
0101
0001
0010
0100
,  // measure 41
0001
0100
0010
0001
,  // measure 42
0010
0000
0100
0001
0100
0000
0010
0000
,  // measure 43
0001
0000
0010
0000
0100
0001
0100
0000
,  // measure 44
1100
0001
0100
0001
,  // measure 45
1000
0100
1000
0001
,  // measure 46
1000
0000
0001
0100
0001
0000
1000
0000
,  // measure 47
0100
0000
1000
0000
0001
0100
0001
0000
,  // measure 48
1M00
0M01
1M00
0M01
0M10
0M01
1M00
0M10
1M00
0M01
0M10
0M01
0M10
0M01
1M00
0M01
,  // measure 49
1M00
0M10
1M00
0M01
0M10
0M01
1M00
0M10
1M00
0M01
1M00
0M10
1M00
0M01
1M00
0M01
,  // measure 50
0M10
0M01
0M10
0M01
1M00
0M10
1M00
0M01
1M00
0M10
1M00
0M01
0M10
0M01
0M10
0M01
,  // measure 51
1M00
0M01
1M00
0M10
1M00
0M10
1M00
0M01
0M10
0M01
0M10
0M01
1M00
0M01
1M00
0M01
,  // measure 52
M010
M100
M010
M001
M010
M001
M010
M100
M010
M100
M001
M100
M001
M100
M010
M100
,  // measure 53
M010
M001
M010
M001
M010
M100
M010
M100
M001
M100
M001
M100
M001
M100
M010
M001
,  // measure 54
M010
M001
M010
M100
M010
M100
M001
M100
M010
M100
M001
M100
M001
M100
M010
M001
,  // measure 55
M010
M001
M010
M100
M001
M100
M010
M001
M010
M100
M001
M100
M010
M001
M010
M001
,  // measure 56
01M0
00M1
10M0
00M1
01M0
00M1
01M0
00M1
10M0
01M0
10M0
00M1
01M0
00M1
10M0
01M0
,  // measure 57
10M0
00M1
10M0
00M1
10M0
00M1
01M0
00M1
01M0
00M1
10M0
00M1
01M0
00M1
10M0
01M0
,  // measure 58
10M0
01M0
10M0
01M0
10M0
00M1
01M0
00M1
10M0
01M0
10M0
00M1
01M0
00M1
10M0
00M1
,  // measure 59
01M0
00M1
10M0
01M0
10M0
01M0
10M0
00M1
01M0
00M1
10M0
01M0
10M0
00M1
10M0
01M0
,  // measure 60
100M
001M
100M
001M
010M
001M
010M
100M
010M
001M
100M
001M
100M
001M
010M
001M
,  // measure 61
010M
100M
010M
100M
010M
001M
100M
001M
010M
100M
010M
001M
100M
001M
010M
100M
,  // measure 62
010M
001M
100M
001M
010M
001M
100M
001M
100M
001M
010M
001M
010M
100M
010M
100M
,  // measure 63
010M
100M
010M
001M
100M
001M
100M
001M
010M
001M
010M
100M
010M
001M
100M
001M
,  // measure 64
0100
0000
0001
0100
0010
0000
1000
0000
,  // measure 65
0100
0000
0100
0010
0001
0000
0100
0000
,  // measure 66
0001
0000
0010
0100
0010
0000
0001
0000
,  // measure 67
1000
0100
1000
0100
1000
0100
1000
0100
1000
0100
1000
0100
0040
0004
0000
0000
0000
0000
0000
0000
0000
0000
0000
0030
,  // measure 68
1003
0000
0001
1000
0010
0000
1000
0000
,  // measure 69
0010
0000
0100
0001
0100
0000
0001
0000
,  // measure 70
1000
0000
0010
0100
0010
0000
0100
0000
,  // measure 71
0001
1000
0001
1000
0001
1000
0001
1000
0001
1000
0001
1000
0004
0400
0000
0000
0000
0000
0000
0000
0000
0000
0000
0300
,  // measure 72
1003
0000
1000
0001
1000
0000
0100
0000
,  // measure 73
0010
0000
0001
0100
0010
0000
1000
0000
,  // measure 74
0001
0000
1000
0010
1000
0000
1000
0000
,  // measure 75
0010
0100
0010
0100
0010
0100
0010
0100
0010
0100
0010
0100
0040
4000
0000
0000
0000
0000
0000
0000
0000
0000
0000
3000
,  // measure 76
0130
0000
0001
0010
0100
0000
1000
0000
,  // measure 77
0001
0000
1000
0100
0010
0000
0001
0000
,  // measure 78
1000
0000
1000
0100
0010
0000
0100
0000
,  // measure 79
0010
0001
0010
0100
0010
0001
0010
0100
,  // measure 80
1000
0100
0010
0001
0100
0001
1000
0010
1000
0010
0100
0001
1000
0100
0010
0001
,  // measure 81
0010
0000
0100
0000
0010
0000
0100
0000
1000
0000
0010
0000
1000
0000
0100
0000
0010
0000
0001
0000
1000
0100
1000
0100
1000
0000
0001
0000
0010
0000
0100
0000
,  // measure 82
0010
0001
1000
0100
1000
0001
0010
0001
0010
0100
0010
0100
1000
0001
0100
0001
,  // measure 83
1000
0000
0100
0000
0010
0001
0010
0001
0010
0000
0100
0000
0010
0000
0100
0000
1000
0000
0001
0000
0100
0000
0001
0000
1000
0000
0001
0000
0010
0000
0100
0000
,  // measure 84
1000
0001
0010
0001
1000
0010
1000
0100
1000
0001
0010
0001
0100
0010
1000
0001
,  // measure 85
1M00
0000
0M10
0000
1M00
0000
0M01
0000
0M10
0000
0M01
0000
0M10
0000
0M01
0000
1M00
0000
0M01
0000
1M00
0010
1M00
0010
1M00
0000
0M01
0000
1M00
0000
0M01
0000
,  // measure 86
1M00
0M10
1M00
0M01
0M10
0M01
0M10
0M01
1M00
0M10
1M00
0M01
0M10
0M01
1M00
0M10
,  // measure 87
1000
0001
0100
0010
1000
0001
0100
0010
0100
0001
1000
0100
0010
0100
1000
0001
,  // measure 88
0010
0100
1000
0010
0100
0010
0100
0010
1000
0001
0100
0001
0100
0010
1000
0010
,  // measure 89
1000
0000
0100
0000
0010
0000
0001
0000
1000
0000
0100
0000
0010
0000
0001
0000
1000
0000
0010
0000
0100
0001
0100
0001
0100
0000
0010
0000
1000
0000
0010
0000
,  // measure 90
0100
0001
0100
0010
1000
0001
1000
0100
0010
0001
1000
0100
1000
0001
0100
0001
,  // measure 91
1000
0000
0100
0000
0010
0100
0010
0100
0010
0000
0001
0000
1000
0000
0100
0000
1000
0000
0001
0000
1000
0000
0010
0000
0100
0000
0010
0000
0100
0000
0001
0000
,  // measure 92
1000
0010
1000
0010
0100
0010
1000
0001
0100
0010
0100
0001
1000
0010
0100
0001
,  // measure 93
10M0
0000
01M0
0000
10M0
0000
01M0
0000
10M0
0000
00M1
0000
01M0
0000
00M1
0000
01M0
0000
00M1
0000
10M0
0001
10M0
0001
10M0
0000
01M0
0000
10M0
0000
01M0
0000
,  // measure 94
10M0
00M1
01M0
00M1
01M0
00M1
10M0
00M1
10M0
01M0
10M0
00M1
01M0
00M1
10M0
01M0
,  // measure 95
1000
0100
0010
0100
0010
0001
1000
0010
1000
0001
0100
0001
1000
0001
0010
0100
,  // measure 96
1000
0000
0010
0000
1000
0010
0000
0100
,  // measure 97
0000
1000
0100
0000
0010
0000
0100
0000
,  // measure 98
2000
0000
0000
0000
0000
0000
0000
0000
0000
3000
0000
0000
0200
0000
0000
0000
0000
0000
0000
0000
0000
0340
0400
0000
,  // measure 99
0000
0000
0000
0000
0000
0300
1030
0000
0000
0010
0000
0000
,  // measure 100
0200
0000
0301
0000
0010
0001
0000
0010
,  // measure 101
0000
0100
0001
0000
0100
0000
0010
0000
,  // measure 102
0200
0000
0000
0000
0000
0000
0002
0000
0000
0300
0000
0000
0200
0000
0000
0003
0000
0000
0340
0400
0000
0000
0000
0000
,  // measure 103
0000
0000
0000
0000
0000
0000
0000
0000
0000
0000
0000
0000
0000
0000
0000
0000
0000
0030
0300
0000
0000
0000
0000
0000
,  // measure 104
0000
0000
11MM
0000
0001
0010
0000
0100
,  // measure 105
00MM
1000
0001
0000
2000
3000
01MM
0000
,  // measure 106
0022
0000
0000
0000
0000
0000
0033
0000
0000
0000
0000
0000
01MM
0000
0000
0000
0000
0000
0000
0000
0000
10M0
010M
10M0
,  // measure 107
010M
10M0
010M
10M0
010M
10M0
010M
10M0
010M
1000
0100
0010
0001
0000
0000
0000
0000
0000
0000
0000
0000
0000
0000
0000
,  // measure 108
0000
0000
M1M1
0000
1000
0100
0000
0010
,  // measure 109
0000
0100
1000
0000
M0M1
0000
0100
0000
,  // measure 110
0001
0000
0000
0000
0000
0000
0110
0000
0000
0000
0000
0000
1000
0000
0000
0000
0000
0000
00M4
M400
00M0
M000
00M0
M000
,  // measure 111
00M0
M000
00M0
M000
00M0
M000
00M0
M000
00M0
M000
00M0
M000
00M0
M000
00M0
M000
00M0
M003
03M0
0000
0000
0000
0000
0000
,  // measure 112
0000
0000
1M1M
0000
0100
0001
0000
1000
,  // measure 113
0M0M
0010
0100
0000
0020
0030
1M0M
0000
,  // measure 114
0202
0000
0000
0000
0000
0000
0303
0000
0000
0000
0000
0000
2M0M
0000
0000
3000
0000
0000
0000
0000
0000
001M
1M00
001M
,  // measure 115
1M00
001M
1M00
001M
1M00
001M
1M00
001M
1M00
0010
1000
0001
0100
0000
0000
0000
0000
0000
0000
0000
0000
0000
0000
0000
,  // measure 116
0000
0000
MM11
0000
1000
0001
0000
0100
,  // measure 117
0000
0001
0100
0000
MM10
0000
1000
0000
,  // measure 118
0100
0000
0000
0000
0000
0000
1010
0000
0000
0000
0000
0000
0001
0000
0000
0000
0000
0000
M040
0M04
M000
0M00
M000
0M00
,  // measure 119
M000
0M00
M000
0M00
M000
0M00
M000
0M00
M000
0M00
M000
0M00
M000
0M00
M000
0M00
M000
0M30
M003
0000
0000
0000
0000
0000
,  // measure 120
M11M
0000
1000
0000
0001
1000
0000
1000
,  // measure 121
0000
0100
0010
0000
0002
0000
0200
0003
,  // measure 122
M02M
0300
1030
0000
0001
0001
0000
0100
,  // measure 123
0000
0010
1000
0000
0100
0000
0010
0000
,  // measure 124
0001
1000
0001
0100
0001
1000
0001
0010
0100
0010
0100
1000
0001
1000
0010
1000
,  // measure 125
0010
1000
0100
0010
0001
1000
0010
0100
0020
0000
0030
0000
2000
0000
3000
0000
,  // measure 126
0220
M00M
M00M
M00M
M00M
M00M
M00M
M00M
M00M
M00M
M00M
M00M
M00M
M00M
M00M
M00M
,  // measure 127
M00M
M00M
M00M
M00M
M00M
M00M
M00M
M00M
0330
0000
0000
0000
0000
0000
0000
0000
;
