#TITLE:Heartache;
#SUBTITLE:;
#ARTIST:Toby Fox;
#TITLETRANSLIT:;
#SUBTITLETRANSLIT:;
#ARTISTTRANSLIT:;
#GENRE:;
#CREDIT:;
#BANNER:undertale-banner.jpg;
#BACKGROUND:toriel.png;
#LYRICSPATH:;
#CDTITLE:;
#MUSIC:toby fox - UNDERTALE Soundtrack - 14 Heartache.mp3;
#OFFSET:-0.015000;
#SAMPLESTART:0.062331;
#SAMPLELENGTH:12.000000;
#SELECTABLE:YES;
#BPMS:0.000000=159.332993
;
#STOPS:
;
#BGCHANGES:;
#KEYSOUNDS:;
#ATTACKS:;

//---------------dance-single - bblum----------------
#NOTES:
     dance-single:
     bblum:
     Challenge:
     11:
     0.753044,1.000000,0.138234,0.718814,1.000000,498.000000,15.000000,78.000000,0.000000,1.000000,19.000000,0.753044,1.000000,0.138234,0.718814,1.000000,498.000000,15.000000,78.000000,0.000000,1.000000,19.000000:
// measure 0
0000
0000
0000
0000
,  // measure 1
0000
0000
0000
0000
,  // measure 2
0000
0000
0000
0000
,  // measure 3
2000
0000
3001
0000
0100
0000
0010
0100
0002
0000
1003
0000
,  // measure 4
0400
0000
0000
0000
0000
0000
0000
0000
0000
0000
0000
0300
,  // measure 5
1000
0100
1000
0100
0010
0000
0001
0010
0001
0010
0100
0000
,  // measure 6
0040
0001
0000
0100
0000
0030
0004
1000
0000
0100
0000
0003
,  // measure 7
4000
0010
0000
0100
0000
0001
3400
0010
0000
0001
0000
0301
,  // measure 8
2020
0000
0000
0000
0000
0000
3030
0000
0001
0000
1000
0000
,  // measure 9
0020
0000
0000
0000
0130
0000
0001
0010
0100
0000
0010
0000
,  // measure 10
0202
0000
0000
0000
,  // measure 11
0303
0000
0000
0000
,  // measure 12
4000
0100
0000
0001
0000
3000
0004
0010
0000
0100
0000
0003
,  // measure 13
0040
0100
0000
0001
0000
0030
0004
0100
0000
0010
0000
0003
,  // measure 14
4000
0100
0000
0001
0000
3000
0400
1000
0000
0010
0000
0300
,  // measure 15
2000
0000
3100
0010
0001
0000
0001
0100
0010
0000
0100
0000
,  // measure 16
0002
0000
1000
1000
0000
0000
0000
0000
0000
0000
0000
0000
,  // measure 17
0003
0000
1000
0100
0010
0001
0000
0000
0000
0000
0000
0000
,  // measure 18
1000
0010
0100
0001
0100
0001
0010
0100
1000
0010
0100
0001
,  // measure 19
0020
0000
0000
0000
0230
0000
0000
0000
2300
0000
0000
0000
3001
0010
0001
0010
0002
0000
0000
0000
2003
0000
0000
0000
,  // measure 20
3202
0000
0000
0000
0000
0000
0303
0000
1000
0000
0010
0000
,  // measure 21
2200
0000
0000
0000
0000
0000
3300
0000
0001
0000
0000
0000
1000
0010
1000
0010
1000
0000
0000
0000
0001
0000
0000
0000
,  // measure 22
0200
0000
0000
0000
,  // measure 23
0300
0000
0000
0000
0000
0000
0001
0000
0100
0000
0001
0000
,  // measure 24
2000
0000
0000
0000
0000
0000
3000
0000
0100
0000
0010
0000
,  // measure 25
0002
0000
0000
0000
0000
0000
0003
0000
1000
0000
0000
0000
0001
0010
0100
1000
0001
0000
0000
0000
0100
0000
0000
0000
,  // measure 26
0020
0000
0000
0000
0000
0000
0030
0000
0100
0000
0010
0000
,  // measure 27
0100
0000
0001
0000
0010
0000
0100
0000
1000
0000
0100
0000
0010
0001
0010
0001
0010
0000
0100
0000
1000
0000
0001
0000
,  // measure 28
2000
0000
0000
0000
0000
0000
3000
0000
0001
0000
0001
0000
,  // measure 29
2000
0000
0000
0000
0000
0000
3000
0000
0010
0000
0000
0000
1000
0100
1000
0001
0010
0000
0000
0000
0001
0000
0000
0000
,  // measure 30
0200
0000
0302
0000
,  // measure 31
2003
0000
3020
0000
,  // measure 32
1030
1000
0000
0010
0000
0100
0001
0000
0010
0000
0010
0000
,  // measure 33
0100
0100
0000
1000
0000
0001
0100
0000
0010
0000
0101
0000
,  // measure 34
4000
0010
0000
0100
0000
3000
0004
0100
0000
0010
0000
0003
,  // measure 35
0400
0001
0000
0010
0000
0001
4300
0100
0000
0001
0000
0010
,  // measure 36
3100
0001
0100
0001
0100
0000
0000
0000
0010
0000
0000
0000
0100
0000
0000
0000
0100
0000
0000
0000
0200
0000
0000
0000
,  // measure 37
0300
0000
0001
1000
0001
0000
0000
0000
0010
0000
0000
0000
0002
0000
0000
0000
1003
0000
0100
0000
2000
0000
0000
0000
,  // measure 38
3010
1000
0010
0100
0001
1000
0001
0010
0100
1000
0100
0010
,  // measure 39
0400
1000
0000
0010
0000
0300
4000
0001
0000
0100
0000
3000
,  // measure 40
0001
0010
0100
1000
0001
0000
0000
0000
1000
0000
0000
0000
0001
0000
0000
0000
0001
0000
0000
0000
0002
0000
0000
0000
,  // measure 41
1003
0000
0000
0000
0010
0000
0000
0000
0100
0000
0000
0000
0001
0010
0100
1000
0010
0000
0000
0000
0100
0000
0000
0000
,  // measure 42
0002
0000
0000
0003
1000
0000
0010
0000
1000
0000
0100
0000
,  // measure 43
0022
0000
0000
0033
1000
0000
0010
0000
0100
0000
0001
0000
,  // measure 44
2200
0000
0000
0000
0000
0000
3300
0000
0001
0000
0000
0000
0010
0100
0010
0100
1000
0000
0000
0000
0001
0000
0000
0000
,  // measure 45
0220
0000
0000
0000
0000
0000
0330
0000
1000
0000
0000
0000
0001
0010
0100
0010
0001
0000
0000
0000
0100
0000
0000
0000
,  // measure 46
2020
0000
0000
3030
0001
0000
0200
0000
0000
0300
0001
0000
,  // measure 47
0020
0000
0000
0030
0001
0000
2000
0000
0000
3000
0010
0000
,  // measure 48
1000
0100
1000
0001
1000
0000
0000
0000
0010
0000
0000
0000
0100
0000
0000
0000
0100
0000
0000
0000
0200
0000
0000
0000
,  // measure 49
0300
0000
0001
0010
0100
0000
0000
0000
1000
0000
0000
0000
2000
0000
3000
0000
0100
0000
0010
0000
0002
0000
0003
0000
,  // measure 50
0010
0100
1000
0100
1000
0100
1000
0100
2000
0000
3000
0000
0002
0000
0003
0000
0200
0000
0300
0000
0020
0000
0030
0000
,  // measure 51
2200
0000
0000
3300
0002
0003
0020
0030
0002
0003
0200
0300
,  // measure 52
2002
0000
0000
0000
0000
0000
3003
0000
0020
0000
0030
0000
1000
0001
1000
0001
2000
0000
3000
0000
0002
0000
0003
0000
,  // measure 53
0220
0000
0000
0000
0000
0000
0330
0000
2000
0000
3000
0000
0100
0010
0001
0010
0200
0000
0300
0000
2000
0000
3000
0000
,  // measure 54
0202
0000
0000
0303
0010
0000
2000
0000
0000
3000
0010
0000
,  // measure 55
2000
0000
0000
3000
0100
0000
2000
0000
0000
3000
0010
0000
,  // measure 56
0400
0010
0000
0001
0000
0300
0040
0100
0000
1000
0000
0030
,  // measure 57
2000
0000
3001
0000
0100
0000
0010
0100
0002
0000
1003
0000
,  // measure 58
0001
0100
0001
1000
0010
1000
0001
0010
0001
1000
0100
0010
,  // measure 59
0100
0000
1000
0000
0001
0000
0010
0000
0001
0000
0100
0000
0001
0010
0001
0010
0100
0000
1000
0000
0001
0000
0100
0000
,  // measure 60
0010
1000
0100
0010
0001
1000
0100
1000
0001
0010
0001
1000
,  // measure 61
0010
0100
0010
1000
0001
0100
0001
0010
0100
0010
0100
1000
,  // measure 62
0001
1000
0001
0010
0100
0010
0001
1000
0100
1000
0001
0100
,  // measure 63
0010
0000
1000
0000
0001
0000
0100
0000
0010
0000
0100
0000
0001
1000
0001
1000
0100
0000
0010
0000
0001
0000
0100
0000
,  // measure 64
0010
1000
0001
0010
0100
1000
0010
0100
0010
0000
0100
0000
,  // measure 65
0022
0000
0000
0000
0000
0000
0033
0000
1000
0000
0000
0000
0010
0100
0010
0100
0001
0000
0000
0000
1000
0000
0000
0000
,  // measure 66
0220
0000
0000
0000
0000
0000
0330
0000
0001
0010
0001
1000
,  // measure 67
0100
0000
1000
0000
0100
0000
0010
0000
0100
0000
1000
0000
0001
1000
0100
1000
0001
0000
0100
0000
0010
0000
1000
0000
,  // measure 68
0100
1000
0001
0010
0100
0010
0001
1000
0010
1000
0001
0100
,  // measure 69
0010
0000
1000
0000
0001
0000
0100
0000
0001
0000
1000
0000
0100
0010
0001
1000
0100
0000
0010
0000
0001
0000
0100
0000
,  // measure 70
0001
0010
0100
1000
0001
1000
0100
0010
0100
1000
0001
0010
,  // measure 71
0100
0000
0010
0100
0000
0100
0010
0000
0001
0000
1000
0000
;

//---------------dance-single - ----------------
#NOTES:
     dance-single:
     Dreamland200:
     Hard:
     9:
     0.700570,0.728175,0.000000,0.459175,1.000000,484.000000,0.000000,50.000000,0.000000,0.000000,8.000000,0.700570,0.728175,0.000000,0.459175,1.000000,484.000000,0.000000,50.000000,0.000000,0.000000,8.000000:
// measure 0
0000
0000
0000
0000
,  // measure 1
0000
0000
0000
0000
,  // measure 2
0000
0000
0000
0000
,  // measure 3
2000
0000
3002
0000
0023
0000
0032
0000
2003
0000
3200
0000
,  // measure 4
1300
0100
1000
0010
1000
0000
0001
0010
0001
0100
0001
0000
,  // measure 5
1000
0100
1000
0001
1000
0000
0001
0100
0001
1000
0001
0000
,  // measure 6
0100
0010
0100
0001
0100
0000
0010
1000
0010
0100
0010
0000
,  // measure 7
2000
0000
3002
0000
0023
0000
0130
1000
0020
0000
0230
0000
,  // measure 8
0301
0010
0001
0010
0100
0000
1000
0000
0010
0000
0100
0000
,  // measure 9
0010
1000
0010
1000
0001
0000
0010
0000
0100
0000
1000
0000
,  // measure 10
0010
0100
0010
0100
0001
0000
0010
0000
0100
0000
1000
0000
,  // measure 11
0001
0000
0100
0001
0000
0100
0010
0000
1000
0010
0000
1000
,  // measure 12
0100
1000
0100
1000
0010
0000
0100
0001
0100
0001
0010
0000
,  // measure 13
0100
0010
0100
0010
0001
0000
0100
0010
0100
0010
1000
0000
,  // measure 14
0001
0010
0001
0100
0001
0000
1000
0100
1000
0010
1000
0000
,  // measure 15
0020
0000
0230
0000
0302
0000
0013
0100
2000
0000
3020
0000
,  // measure 16
0130
0001
0100
0100
1000
0000
0010
1000
0010
0010
0001
0000
,  // measure 17
1000
0001
0100
0100
1000
0100
0000
1000
0010
0000
0100
0000
,  // measure 18
0001
0000
0100
0000
0010
0000
1000
0010
1000
0100
0010
0100
,  // measure 19
2000
0000
3020
0000
0230
0000
0301
1000
0020
0000
0230
0000
,  // measure 20
0301
0010
0001
0100
0001
0000
1000
0000
0100
0000
0010
0000
,  // measure 21
0001
1000
0010
1000
0001
0000
0100
0010
0100
0000
0001
0000
,  // measure 22
1000
0100
0010
0100
1000
0000
0001
0000
0100
0000
0010
0000
,  // measure 23
1000
0010
0100
0010
1000
0000
0001
0000
0010
0000
0100
0000
,  // measure 24
1000
0000
0010
0100
0000
0010
1000
0000
0001
0000
0010
0000
,  // measure 25
0100
0000
0010
0001
0000
0010
0100
0000
1000
0000
0001
0000
,  // measure 26
0100
0000
0010
0100
0000
0001
0100
0000
0010
0000
1000
0000
,  // measure 27
0001
0000
0000
0010
0001
0000
0100
0010
0100
0000
0001
0000
,  // measure 28
1000
0000
0010
0100
0000
0001
0100
0000
0010
0000
1000
0000
,  // measure 29
0002
0000
0000
0000
0013
0000
0100
1000
0001
0000
0100
0000
,  // measure 30
0010
0000
0100
0001
0000
0100
0010
0000
1000
0000
0001
0000
,  // measure 31
0010
0000
0100
1000
0000
0100
0010
0000
0001
0000
1000
0000
,  // measure 32
0010
0000
0000
0100
0000
0010
1000
0000
0001
0000
0010
0000
,  // measure 33
0100
1000
0000
0001
0000
0100
0001
0000
0010
0000
0100
0000
,  // measure 34
2000
0000
3002
0000
,  // measure 35
0203
0000
0320
0000
,  // measure 36
1030
0000
0000
0000
0000
0000
0000
0000
0000
0000
0000
0100
0000
0000
0000
0000
0000
0000
0000
0000
0000
0010
0000
0000
0000
0000
0000
0000
0000
0000
0000
0000
0004
0000
0000
0000
0000
0000
0000
0000
0000
0000
0000
0000
0000
0000
0000
0000
0000
0000
0000
0000
0000
0000
0000
0000
0000
0000
0000
0000
0000
0000
0000
0000
0000
0000
0000
0000
0000
0000
0000
0000
0000
0000
0000
0000
0000
0000
0000
0000
0000
0000
0000
0000
0000
0000
0000
0000
0000
0000
0000
0000
0000
0000
0000
0000
4003
0000
0000
0000
0000
0000
0000
0000
0000
0000
0000
0000
0000
0000
0000
0000
0000
0000
0000
0000
0000
0000
0000
0000
0000
0000
0000
0000
0000
0000
0000
0000
0000
0000
0000
0000
0000
0000
0000
0000
0000
0000
0000
0000
0000
0000
0000
0000
0000
0000
0000
0000
0000
0000
0000
0000
0000
0000
0000
0000
0000
0000
0000
0000
3020
0000
0000
0000
0000
0000
0000
0000
0000
0000
0000
0000
0000
0000
0000
0000
0000
0000
0000
0000
0000
0000
0000
0000
0000
0000
0000
0000
0000
0000
0000
0000
,  // measure 37
0030
0000
0100
0001
0400
0000
0000
0000
0000
0000
0000
0000
0301
0000
0000
0000
0010
0000
0100
0000
1000
0000
0000
0000
,  // measure 38
0001
0000
1000
0100
0000
1000
0001
0000
0010
0000
0100
1000
,  // measure 39
0100
0000
1000
0001
1000
0001
0100
0001
0100
0000
0010
0000
,  // measure 40
1000
0000
0000
0000
0000
0000
0000
0000
0000
0000
0000
0010
0000
0000
0000
0000
0000
0000
0000
0000
0000
0100
0000
0000
0000
0000
0000
0000
0000
0000
0000
0000
0004
0000
0000
0000
0000
0000
0000
0000
0000
0000
0000
0000
0000
0000
0000
0000
0000
0000
0000
0000
0000
0000
0000
0000
0000
0000
0000
0000
0000
0000
0000
0000
0000
0000
0000
0000
0000
0000
0000
0000
0000
0000
0000
0000
0000
0000
0000
0000
0000
0000
0000
0000
0000
0000
0000
0000
0000
0000
0000
0000
0000
0000
0000
0000
0403
0000
0000
0000
0000
0000
0000
0000
0000
0000
0000
0000
0000
0000
0000
0000
0000
0000
0000
0000
0000
0000
0000
0000
0000
0000
0000
0000
0000
0000
0000
0000
0000
0000
0000
0000
0000
0000
0000
0000
0000
0000
0000
0000
0000
0000
0000
0000
0000
0000
0000
0000
0000
0000
0000
0000
0000
0000
0000
0000
0000
0000
0000
0000
0310
0000
0000
0000
0000
0000
0000
0000
0000
0000
0000
0000
0000
0000
0000
0000
0000
0000
0000
0000
0000
0000
0000
0000
0000
0000
0000
0000
0000
0000
0000
0000
,  // measure 41
1000
0000
0100
0000
0010
0000
0100
1000
0001
0000
0010
0000
,  // measure 42
0200
0000
0000
0000
1300
0000
0001
0000
0100
0000
0010
0000
,  // measure 43
0200
0000
0000
0000
0310
0000
0100
0000
1000
0000
0100
0000
,  // measure 44
0001
0000
0000
0000
0010
0000
0100
1000
0001
0000
0010
0000
,  // measure 45
0002
0000
0000
0000
0103
0000
0010
1000
0010
0000
1000
0000
,  // measure 46
0200
0000
0000
0000
1300
0000
0020
0000
0000
0000
0130
0000
,  // measure 47
0002
0000
0000
0000
0013
0000
0200
0000
0000
0000
1300
0000
,  // measure 48
0010
0000
0000
0000
0000
0000
0000
0000
0000
0000
0000
0100
0000
0000
0000
0000
0000
0000
0000
0000
0000
0001
0000
0000
0000
0000
0000
0000
0000
0000
0000
0000
4000
0000
0000
0000
0000
0000
0000
0000
0000
0000
0000
0000
0000
0000
0000
0000
0000
0000
0000
0000
0000
0000
0000
0000
0000
0000
0000
0000
0000
0000
0000
0000
0000
0000
0000
0000
0000
0000
0000
0000
0000
0000
0000
0000
0000
0000
0000
0000
0000
0000
0000
0000
0000
0000
0000
0000
0000
0000
0000
0000
0000
0000
0000
0000
3040
0000
0000
0000
0000
0000
0000
0000
0000
0000
0000
0000
0000
0000
0000
0000
0000
0000
0000
0000
0000
0000
0000
0000
0000
0000
0000
0000
0000
0000
0000
0000
0000
0000
0000
0000
0000
0000
0000
0000
0000
0000
0000
0000
0000
0000
0000
0000
0000
0000
0000
0000
0000
0000
0000
0000
0000
0000
0000
0000
0000
0000
0000
0000
0230
0000
0000
0000
0000
0000
0000
0000
0000
0000
0000
0000
0000
0000
0000
0000
0000
0000
0000
0000
0000
0000
0000
0000
0000
0000
0000
0000
0000
0000
0000
0000
,  // measure 49
0300
0000
0001
1000
0004
0000
0000
0000
0000
0000
0000
0000
0203
0000
0000
0000
0310
0000
0100
0000
0001
0000
0000
0000
,  // measure 50
0020
0000
0000
0000
0130
0000
1000
0000
0010
0000
1000
0000
,  // measure 51
0002
0000
0000
0000
0013
0000
0100
0000
0001
0000
0100
0000
,  // measure 52
2000
0000
0000
0000
3010
0000
0100
0001
1000
0000
0100
0000
,  // measure 53
0020
0000
0000
0000
0130
0000
1000
0010
0100
0000
0001
0000
,  // measure 54
0020
0000
0000
0000
0130
0000
2000
0000
0000
0000
3010
0000
,  // measure 55
0200
0000
0000
0000
0310
0000
2000
0000
0000
0000
3001
0000
,  // measure 56
0010
0100
2000
0000
0000
0000
0000
0000
3000
0000
0000
0000
,  // measure 57
0020
0000
0230
0000
0302
0000
1003
0010
0200
0000
0320
0000
,  // measure 58
1030
0010
1000
0010
0100
0000
0001
0000
0010
0000
0100
0000
,  // measure 59
1000
0100
1000
0100
0010
0000
0001
0100
0010
0000
0100
0000
,  // measure 60
0001
0010
0001
0010
0100
0000
1000
0000
0001
0000
0100
0000
,  // measure 61
0010
1000
0010
1000
0001
0000
0010
0000
0100
0000
1000
0000
,  // measure 62
0001
0000
0010
0001
0000
0010
0100
0000
1000
0000
0001
0000
,  // measure 63
0100
0000
0010
0100
0000
0001
0100
0010
0100
0000
0001
0000
,  // measure 64
0010
0000
0100
1000
0010
1000
0100
0000
0010
0000
0001
0000
,  // measure 65
1000
0000
0010
0000
0100
0000
0001
1000
0100
0000
1000
0000
,  // measure 66
0010
0000
0100
0001
0000
0100
0001
0000
1000
0000
0001
0000
,  // measure 67
0010
0000
0100
0000
1000
0000
0010
1000
0010
0000
0100
0000
,  // measure 68
0001
0000
1000
0010
0000
0100
0010
0000
1000
0000
0001
0000
,  // measure 69
0010
0000
0100
0000
1000
0000
0010
1000
0100
0000
0010
0000
,  // measure 70
0001
0000
1000
0010
0000
1000
0001
0000
0010
0000
0100
0000
,  // measure 71
1000
0000
0010
0100
0000
0010
1000
0000
0001
0000
0001
0000
,  // measure 72
0000
1000
0000
0000
0000
0000
0000
0000
0000
0000
0000
0000
;
