#TITLE:Dummy!;
#SUBTITLE:;
#ARTIST:Toby Fox;
#TITLETRANSLIT:;
#SUBTITLETRANSLIT:;
#ARTISTTRANSLIT:;
#GENRE:;
#CREDIT:;
#BANNER:undertale-banner.jpg;
#BACKGROUND:naps.png;
#LYRICSPATH:;
#CDTITLE:;
#MUSIC:toby fox - UNDERTALE Soundtrack - 36 Dummy!.mp3;
#OFFSET:-0.007000;
#SAMPLESTART:100.050331;
#SAMPLELENGTH:12.000000;
#SELECTABLE:YES;
#BPMS:0.000000=124.999992
;
#STOPS:
;
#BGCHANGES:;
#KEYSOUNDS:;
#ATTACKS:;

//---------------dance-single - bblum----------------
#NOTES:
     dance-single:
     bblum:
     Challenge:
     12:
     0.920920,1.000000,0.198668,0.541200,1.000000,833.000000,29.000000,79.000000,12.000000,1.000000,0.000000,0.920920,1.000000,0.198668,0.541200,1.000000,833.000000,29.000000,79.000000,12.000000,1.000000,0.000000:
0000
0000
0000
0000
,
0000
0000
0000
0000
,
0000
0000
0000
0000
,
0000
0000
0000
0000
,
0001
0000
0000
0000
0000
0000
0100
0000
0000
0000
0000
0000
0010
0000
0000
0000
0000
0000
0100
0000
0000
0000
0000
0000
0001
0000
0000
0000
0000
0000
1000
0000
0000
0000
0100
0000
0000
0000
0000
0000
0100
0000
2000
0000
0000
3000
0000
0000
,
0010
0000
0000
0000
0000
0000
1000
0000
0000
0000
0001
0000
0000
0000
0000
0000
0001
0000
0200
0000
0000
0300
0000
0000
0010
0000
0000
0000
0000
0000
0100
0000
0000
0000
0001
0000
0000
0000
0000
0000
1000
0000
0200
0000
0000
0300
0000
0000
,
0010
0000
0000
0000
0000
0000
0001
0000
0000
0000
0000
0000
1000
0000
0000
0000
0000
0000
0100
0000
0000
0000
0000
0000
0010
0000
0000
0000
0000
0000
0100
0000
0000
0000
1000
0000
0000
0000
0000
0000
1000
0000
0200
0000
0000
0300
0000
0000
,
0010
0000
0000
0000
0000
0000
0001
0000
0000
0000
0100
0000
0000
0000
0000
0000
0001
0000
2000
0000
0000
3000
0000
0000
0010
0000
0000
0000
0000
0000
1000
0000
0000
0000
0010
0000
0000
0000
0000
0000
1000
0000
0200
0000
0000
0300
0000
0000
,
0010
0000
0000
0000
0000
0000
0001
0000
0000
0000
0000
0000
1000
0000
0000
0000
0000
0000
0010
0000
0000
0000
0000
0000
0100
0000
0000
0000
0000
0000
0100
0000
0000
0000
0001
0000
0000
0000
0000
0000
0001
0000
2000
0000
0000
3000
0000
0000
,
0100
0000
0000
0010
0000
0001
0000
0000
0001
0200
0300
0000
0010
0000
0000
1000
0000
0100
0000
0000
0100
0020
0030
0000
,
0001
0000
0000
0100
0000
0000
0001
0000
0000
1000
0000
0000
0001
0000
0000
0100
0000
0010
0000
0000
0010
0200
0300
0000
,
0001
0000
0000
1000
0000
0000
0100
0000
0000
0010
0000
0000
0001
1000
0000
0000
1000
0000
0002
0000
0000
0003
0000
0000
,
0220
0000
0000
0331
0000
0000
1000
0000
0000
0100
0000
0000
0010
0000
0001
1000
0000
0100
0010
0000
0001
0100
0000
0001
,
0100
0000
0010
1000
0000
0001
1000
0000
0100
0010
0000
0001
1000
0000
0100
0010
0000
2200
3300
0000
0001
0100
0001
0100
,
0001
1000
0001
0010
0100
1000
0001
1000
0100
0010
0001
1000
0100
1000
0001
0100
0010
0100
0001
1000
0100
0010
0001
0010
,
0100
0000
0000
1000
0000
0000
0110
0000
0000
1000
0000
0000
0001
0000
1000
0000
0000
0001
0000
0000
0100
0001
0000
1000
,
0010
0000
0100
0001
0000
0010
0100
0000
0010
0001
0000
1000
0100
0000
0000
1000
0000
0020
0000
0000
1030
0001
0000
0010
,
0100
0000
0000
1000
0000
0002
0000
0000
1003
0100
0000
1000
0100
0000
0000
0010
0000
0002
0000
0000
0103
0010
0000
0100
,
0010
0000
1000
0001
0000
0000
0010
0000
0000
0100
0000
0000
1000
0000
0000
0001
0000
0020
0000
0000
0031
0100
0000
0001
,
1000
0000
0000
0001
0000
0200
0000
0000
0301
0010
0000
0001
1000
0000
0000
0001
0000
0020
0000
0000
0130
1000
0000
0010
,
0100
0000
0001
0100
0000
0000
0010
0000
0000
0010
0000
0000
1000
0000
0000
0001
0000
0200
0000
0000
0301
0010
0000
0001
,
0010
0000
0000
0001
0000
2000
0000
0000
3001
1000
0000
0001
0100
0000
0000
0010
0000
0200
0000
0000
0301
0010
0000
0001
,
0100
0000
0000
1010
0000
0000
0001
0000
0000
0100
0000
0000
0001
0000
1000
0000
0000
0020
0000
0000
0030
0100
0000
0001
,
0100
0000
0010
1000
0000
0000
0100
0000
0000
1000
0000
0000
0001
0000
1000
0000
0000
0200
0000
0000
0000
0000
0000
0300
,
0010
0000
0001
0010
0000
0000
0100
0000
0000
0010
0000
0000
0001
0000
0010
0100
0000
0000
0010
0000
0000
0001
0000
0000
,
1000
0000
0100
0010
0000
00M0
1000
0000
0001
0100
0000
0M00
1000
0000
0010
0100
0000
0000
0001
0000
0000
0100
0000
0000
,
0002
0000
0000
0003
0000
0200
0000
0000
0300
0011
0000
0000
0200
0000
0000
0300
0020
0000
0000
0030
0000
1100
0000
0000
,
0002
0000
0000
1003
0000
0000
0100
0000
0010
0001
0000
0000
0200
0000
0000
0300
0000
0020
0000
0000
0030
0000
0000
0000
,
1000
0000
0100
0010
0000
0100
1000
0000
0100
0010
0000
0001
0010
0000
0100
0010
0000
0001
0010
0000
0100
1000
0000
0100
,
0010
0000
0000
0100
0000
0000
0010
0000
0100
0000
0000
0010
0001
1000
0100
1000
0100
0010
0001
0100
0010
0100
0001
0010
,
0002
0000
0000
1003
0000
0020
0100
0000
0030
0101
0000
0000
2000
0000
0000
3001
0000
0200
0000
0000
0301
1010
0000
0000
,
0002
0003
0000
0020
0030
0000
0002
0003
0100
0001
0000
0000
0020
0000
0100
0030
0000
2000
0000
0000
3000
0000
0000
0000
,
0001
0000
0100
0010
0000
0000
1000
0000
0000
0100
0000
0000
0010
0000
0100
1000
0000
0000
0010
0000
0000
0100
0000
0000
,
0001
0000
1000
0100
0000
0M00
0001
0000
0010
0100
0000
0M00
0001
0000
1000
0010
0000
00M0
0001
0000
0000
0100
0000
0000
,
0020
0000
0000
0030
0000
2000
0000
0000
3000
0110
0000
0000
2000
0000
0000
3000
0020
0000
0000
0030
0000
0101
0000
0000
,
0020
0000
0000
1030
0000
0000
0001
0000
1000
0100
0000
0000
2000
0000
0000
3000
0000
0020
0000
0000
0030
0000
0000
0000
,
1000
0000
0001
0010
0000
0100
1000
0000
0010
0100
0000
0010
1000
0000
0001
1000
0000
0001
0010
0000
0100
0010
0000
0001
,
1000
0000
0000
0010
0000
0000
0100
0000
0001
0000
0000
0001
0010
0100
1000
0001
0010
0100
1000
0010
1000
0001
1000
0100
,
2000
0000
0000
3001
0000
0020
0001
0000
0030
1100
0000
0000
0002
0000
0000
0013
0000
0200
0000
0000
1300
0011
0000
0000
,
2000
3000
0000
0020
0030
0000
2000
3000
0100
1000
0000
0000
0020
0000
0100
0030
0000
0002
0000
0000
0003
0000
0000
0000
,
1000
0000
0000
0100
0000
0000
0010
0000
0000
0000
0000
0000
0001
0000
0000
0100
0000
0001
0000
0000
0000
0000
0000
2000
,
0000
0000
3100
0010
0000
0001
0100
0000
0001
0100
0000
0001
0020
0030
0100
0000
0000
1001
0000
0000
0000
0000
0000
0000
,
0010
0000
0000
0001
0000
0000
0100
0000
0000
0000
0000
0000
0001
0000
0000
0010
0000
0100
0000
0000
0000
0000
0000
0020
,
0000
0000
0130
1000
0000
0001
0100
0000
0010
1000
0000
0001
0100
0000
0001
0000
0000
0110
0000
0000
0000
0000
0000
0000
,
1000
0000
0000
0001
0000
0000
0010
0000
0000
0000
0000
0000
0001
0000
0000
1000
0000
0010
0000
0000
0000
0000
0000
0200
,
0000
0000
0301
0010
0000
0100
0010
0000
0100
0010
0000
0001
1000
0000
0100
0000
0000
1010
0000
0000
0000
0000
0000
0000
,
0001
0000
0000
0100
0000
0000
0010
0000
0000
0000
0000
0000
0100
0000
0000
0010
0000
1000
0000
0000
0000
0000
0000
0002
,
0000
0000
0013
0100
0000
1000
0001
0000
0010
0001
0000
1000
0200
0300
0010
0000
0000
0101
0000
0000
0000
0000
0000
0000
,
1000
0000
0000
0001
0000
0000
0100
0000
0000
0M00
0000
0000
1000
0000
0000
0100
0000
0010
0000
0000
00M0
0000
0000
2000
,
0000
0000
3001
0010
0100
1000
0001
0010
0100
0010
0001
1000
0100
0000
1000
0000
0000
0011
0000
0000
0000
0000
0000
0000
,
0100
0000
0000
1000
0000
0000
0100
0000
0000
0M00
0000
0000
0001
0000
0000
1000
0000
0100
0000
0000
0M00
0000
0000
0020
,
0000
0000
1030
0100
1000
0001
1000
0010
1000
0001
1000
0100
0010
0000
0001
0000
0000
0110
0000
0000
0000
0000
0000
0000
,
1000
0000
0000
0001
0000
0000
1000
0000
0000
0000
0000
0000
1000
0000
0000
0010
0000
0100
0000
0000
0M00
0000
0000
2000
,
0000
3000
0100
0010
0100
0010
0001
1000
0001
1000
0010
0100
0002
0003
1000
0000
0000
0011
0000
0000
0000
0000
0000
0000
,
1000
0000
0000
0010
0000
0000
0100
0000
0000
0M00
0000
0000
1000
0000
0000
0001
0000
0010
0000
0000
00M0
0000
0000
2000
,
0000
0000
3010
0100
0001
1000
0001
0010
0100
1000
0100
1000
0200
0300
0010
0000
0000
0101
0000
0000
0000
0000
0000
0000
,
1100
0000
0001
0100
0000
0001
1000
0000
0001
0010
0000
0001
0100
0000
0010
1000
0000
0100
0010
0000
0001
1000
0000
0010
,
1000
0000
0100
1000
0000
0001
0010
0000
0100
0010
0000
0001
1000
0000
0010
1000
0000
0202
0303
0000
1000
0100
1000
0100
,
1000
0001
0010
0001
1000
0010
1000
0001
0010
0100
1000
0001
1000
0100
0010
0100
0010
0100
1000
0001
0100
0001
0100
0010
,
1000
0000
0000
0100
0000
0000
0010
0000
0000
0100
0000
0000
1000
0000
0001
0000
0000
0020
0000
0000
0130
0010
0000
0001
,
1000
0000
0010
0100
0000
0001
0010
0000
0100
1000
0000
0001
1000
0000
0100
0010
0000
0100
0010
0000
0001
0100
0000
0001
,
0100
0000
0010
0100
0000
0010
1000
0000
0001
1000
0000
0100
0010
0000
0100
1000
0000
0010
1000
0000
0001
0010
0000
0100
,
1000
0000
0001
1000
0000
0001
1000
0000
0100
0010
0000
0001
0010
0000
0100
0010
0000
0100
0010
0000
0001
1000
0000
0100
,
1000
0000
0001
1000
0000
0001
1000
0000
0010
1000
0000
0010
1000
0000
0100
1000
0000
0001
0010
0000
0001
1000
0000
0100
,
1000
0000
0100
0010
0000
0100
1000
0000
0010
1000
0000
0001
1000
0000
0100
0010
0000
0001
0100
0000
0010
0100
0000
0010
,
1000
0000
0010
0100
0000
0001
0010
0000
0100
1000
0000
0010
0100
0000
0010
0100
0000
0001
0100
0000
0010
1000
0000
0100
,
0010
0000
0000
0001
0000
0000
0100
0000
0000
0010
0000
0000
1000
0000
0100
0000
0000
2000
0000
0000
3001
0000
0000
0010
,
0001
1000
0100
0010
0001
1000
0001
0010
0100
1000
0001
0010
0001
0000
0100
0000
0000
2020
0000
0000
3030
0000
0000
0000
,
0001
0000
0000
0000
0000
0000
1000
0000
0000
0000
0000
0000
0010
0000
0000
0000
0000
0000
0100
0000
0000
0000
0000
0001
0020
0000
0000
0000
0000
0000
0130
1000
0100
0010
0100
0000
0000
0000
0000
0000
0000
0000
1000
0000
0000
0000
0000
0000
,
0001
0000
0000
0000
0000
0000
0100
0000
0000
0000
0000
0000
0001
0000
0000
0000
0000
0000
0010
0000
0000
0000
0000
0001
1000
0000
0000
0000
0000
0000
0001
0010
0100
0010
0100
0000
0000
0000
0000
0000
0000
0000
0001
0000
0000
0000
0000
0000
,
1010
0000
0001
1000
0000
0100
0010
0000
0100
1000
0000
0001
1100
0000
0001
0010
0000
0001
1000
0000
0100
0010
0000
0001
,
2000
0000
3000
0000
0001
0010
0001
0000
0000
0000
0000
0000
0100
0000
0000
0000
0000
0000
0010
0000
0000
0000
0000
0000
1100
0000
0000
0000
0000
0000
0001
0000
0000
0000
0000
0000
0010
0000
0000
0000
0000
0000
1000
0100
1000
0100
1000
0100
,
0010
0000
0000
0000
0000
0000
0001
0000
0000
0000
0000
0000
0100
0000
0000
0000
0000
0000
0010
0000
0000
0000
0000
1000
0200
0000
0000
0000
0000
0000
0310
0001
0010
0100
1000
0000
0000
0000
0000
0000
0000
0000
0010
0000
0000
0000
0000
0000
,
0100
0000
0000
0000
0000
0000
0001
0000
0000
0000
0000
0000
1000
0000
0000
0000
0000
0000
0001
0000
0000
0000
0000
0010
0100
0000
0000
0000
0000
0000
0010
0100
1000
0100
0010
0000
0000
0000
0000
0000
0000
0000
0100
0000
0000
0000
0000
0000
,
0011
0000
1000
0001
0000
0100
0010
0000
1000
0001
0000
0010
0101
0000
1000
0001
0000
0010
0100
0000
1000
0001
0000
0100
,
0010
0000
0000
0000
1000
0100
0010
0000
0000
0000
0000
0000
0001
0000
0000
0000
0000
0000
1000
0000
0000
0000
0000
0000
0010
0000
0000
0000
0000
0000
0100
0000
0000
0000
0000
0000
0011
0000
0000
0000
0000
0000
0000
0000
0000
0000
0000
0000
;

//---------------dance-single - bblum----------------
#NOTES:
     dance-single:
     bblum:
     Hard:
     10:
     0.797609,0.882190,0.178116,0.643959,0.989916,695.000000,26.000000,94.000000,27.000000,3.000000,0.000000,0.797609,0.882190,0.178116,0.643959,0.989916,695.000000,26.000000,94.000000,27.000000,3.000000,0.000000:
// measure 0
0000
0000
0000
0000
,  // measure 1
0000
0000
0000
0000
,  // measure 2
0000
0000
0000
0000
,  // measure 3
0000
0000
0000
0000
,  // measure 4
0001
0000
0000
0100
0000
0000
0010
0000
0000
0100
0000
0000
0001
0000
0000
1000
0000
0100
0000
M000
0100
0002
0000
0000
,  // measure 5
0013
0000
0000
0100
0000
0010
0000
0M00
0010
2000
0000
0000
3010
0000
0000
1000
0000
0100
0000
M000
0100
0020
0000
0000
,  // measure 6
1030
0000
0000
0001
0000
0000
0100
0000
0000
0010
0000
0000
0100
0000
0000
0001
0000
0010
0000
000M
0010
2000
0000
0000
,  // measure 7
3010
0000
0000
1000
0000
0100
0000
M000
0100
0002
0000
0000
0013
0000
0000
0001
0000
0010
0000
000M
0010
0200
0000
0000
,  // measure 8
0310
0000
0000
1000
0000
0000
0001
0000
0000
0010
0000
0000
0100
0000
0000
0010
0000
0100
0000
00M0
0100
0002
0000
0000
,  // measure 9
0103
0000
0000
0001
0000
0010
0000
000M
0010
2000
0000
0000
3001
0000
0000
1000
0000
0100
0000
M000
0100
0002
0000
0000
,  // measure 10
0013
0000
0000
0100
0000
0000
1000
0000
0000
0010
0000
0000
1000
0000
0000
0001
0000
0010
0000
000M
0010
2000
0000
0000
,  // measure 11
3001
0000
0000
0000
0000
0000
1000
0000
0000
0000
0000
0000
0100
0000
0000
0000
0000
0000
0010
0000
0000
0000
0000
0000
0001
0000
0100
0000
0000
000M
0000
0000
0100
0000
0000
0000
2000
0000
0000
0000
0000
0000
3000
0000
0000
0000
0000
0000
,  // measure 12
0022
0000
0000
1033
0000
0000
0100
0000
0000
1000
0000
0000
0001
0100
0000
0000
0000
0000
0010
0000
1000
0200
0000
0000
,  // measure 13
0300
0000
0010
0001
0000
1000
0001
0000
0010
0000
0000
0001
1000
0000
0001
0010
0000
2200
0000
0000
3301
0100
0001
0100
,  // measure 14
0020
2030
3002
0023
,  // measure 15
0130
0000
0000
1000
0000
0000
0011
0000
0000
0100
0000
0000
0001
0000
1000
0000
0000
0002
0000
0000
0103
0001
0000
1000
,  // measure 16
0010
0000
0000
1000
0000
0000
0100
0000
M000
0100
0000
0000
0001
0000
0000
1000
0000
0020
0000
0000
1030
0001
0000
0010
,  // measure 17
0100
0000
0000
1000
0000
0002
0000
0000
1003
0100
0000
1000
0001
0000
0000
0010
0000
0200
0000
0000
1300
0010
0000
0100
,  // measure 18
0010
0000
1000
0001
0000
0000
0010
0000
0000
0100
0000
0000
0010
0000
0000
0001
0000
0020
0000
0000
0031
0100
0000
0001
,  // measure 19
1000
0000
0000
0001
0000
0200
0000
0000
0301
0010
0000
0001
1000
0000
0000
0001
0000
0020
0000
0000
0130
1000
0000
0010
,  // measure 20
0100
0000
0000
0001
0000
0000
0010
0000
000M
0010
0000
0000
1000
0000
0000
0001
0000
0200
0000
0000
0301
0010
0000
0001
,  // measure 21
0010
0000
0000
0001
0000
2000
0000
0000
3010
0100
0000
0001
0010
0000
0000
0001
0000
2000
0000
0000
3001
0010
0000
0001
,  // measure 22
0100
0000
0000
1010
0000
0000
0001
0000
0000
0100
0000
0000
0001
0000
1000
0000
0000
0020
0000
0000
0030
0100
0000
0001
,  // measure 23
0100
0000
0010
1000
0000
0000
0100
0000
0000
1000
0000
0000
0001
0000
1000
0000
0000
0200
0000
0000
0000
0000
0000
0300
,  // measure 24
1000
0000
0001
1000
0000
0000
0100
0000
0000
0010
0000
0000
0001
0000
1000
0001
0000
0000
0010
0000
0000
0100
0000
0000
,  // measure 25
1000
0000
0001
0010
0000
0M00
0010
0000
1000
0100
0000
M000
0100
0000
0001
0100
0000
0000
0010
0000
0000
0100
0000
0000
,  // measure 26
0002
0000
0000
0003
0000
0200
0000
0000
0300
1001
0000
0000
0020
0000
0000
0030
0002
0000
0000
0003
0000
0110
0000
0000
,  // measure 27
0002
0000
0000
1003
0000
0000
0100
0000
0010
0001
0000
0000
0200
0000
0000
0300
0000
0020
0000
0000
0030
0000
0000
0000
,  // measure 28
1000
0000
0010
0100
0000
0010
1000
0000
0010
0100
0000
0001
0100
0000
0010
0100
0000
0001
0100
0000
0010
1000
0000
0010
,  // measure 29
0100
0000
0000
0010
0000
0000
1000
0000
0100
0000
0000
0020
0000
0000
0000
0000
0000
0030
0000
0000
0000
0000
0000
0000
,  // measure 30
0002
0000
0000
1003
0000
0200
0010
0000
0300
0001
0000
0000
2000
0000
0000
3100
0000
0020
0000
0000
0031
0100
0000
0000
,  // measure 31
0001
0000
0000
0010
0000
0000
0001
0000
0100
0001
0000
0000
0200
0000
0010
0300
0000
2000
0000
0000
3000
0000
0000
0000
,  // measure 32
0001
0000
0100
0001
0000
0000
1000
0000
0000
0010
0000
0000
1000
0000
0100
1000
0000
0000
0001
0000
0000
0100
0000
0000
,  // measure 33
0001
0000
1000
0010
0000
M000
0010
0000
0001
0100
0000
000M
0100
0000
1000
0010
0000
0000
0100
0000
0000
0010
0000
0000
,  // measure 34
2000
0000
0000
3000
0000
0200
0000
0000
0300
0011
0000
0000
0200
0000
0000
0300
2000
0000
0000
3000
0000
0101
0000
0000
,  // measure 35
2000
0000
0000
3100
0000
0000
0010
0000
0001
0010
0000
0000
0200
0000
0000
0300
0000
0020
0000
0000
0030
0000
0000
0000
,  // measure 36
0001
0000
0010
0100
0000
0010
0001
0000
0010
0100
0000
1000
0100
0000
0010
0100
0000
1000
0100
0000
0010
0001
0000
0010
,  // measure 37
0100
0000
0000
0010
0000
0000
0001
0000
0100
0000
0000
0020
0000
0000
0000
0000
0000
0030
0000
0000
0000
0000
0000
0000
,  // measure 38
2000
0000
0000
3001
0000
0200
0010
0000
0300
1000
0000
0000
0002
0000
0000
0103
0000
0020
0000
0000
1030
0100
0000
0000
,  // measure 39
1000
0000
0000
0010
0000
0000
1000
0000
0100
0010
0000
0000
0200
0000
0010
0300
0000
0002
0000
0000
0003
0000
0000
0000
,  // measure 40
1000
0000
0000
0010
0000
0000
1010
0000
0000
0000
0000
0000
0001
0000
0000
0100
0000
0110
0000
0000
0000
0000
0000
2000
,  // measure 41
0000
0000
3100
0010
0000
0001
0100
0000
0001
0100
0000
0001
0020
0030
0100
0000
0000
1001
0000
0000
0000
0000
0000
0000
,  // measure 42
0010
0000
0000
0001
0000
0000
0101
0000
0000
0000
0000
0000
0001
0000
0000
1000
0000
1100
0000
0000
0000
0000
0000
0002
,  // measure 43
0000
0000
0103
0010
0000
1000
0100
0000
0010
0001
0000
1000
0100
0000
1000
0000
0000
0110
0000
0000
0000
0000
0000
0000
,  // measure 44
1000
0000
0000
0001
0000
0000
0010
0000
0000
0000
0000
0000
0001
0000
0000
1000
0000
0010
0000
0000
0000
0000
0000
0200
,  // measure 45
0000
0000
0301
0010
0000
0100
0010
0000
0100
0010
0000
0001
1000
0000
0100
0000
0000
1010
0000
0000
0000
0000
0000
0000
,  // measure 46
0001
0000
0000
0100
0000
0000
0010
0000
0000
0000
0000
0000
0100
0000
0000
0010
0000
1000
0000
0000
0000
0000
0000
0002
,  // measure 47
0000
0000
0013
0100
0000
1000
0001
0000
0010
0001
0000
1000
0200
0300
0010
0000
0000
0101
0000
0000
0000
0000
0000
0000
,  // measure 48
1000
0000
0000
0001
0000
0000
0100
0000
0000
000M
0000
0000
0100
0000
0000
1000
0000
0010
0000
0000
M000
0000
0000
0020
,  // measure 49
0000
0000
0031
0010
0000
0100
1000
0000
0100
0010
0000
0001
0100
0000
0010
0000
0000
1100
0000
0000
0000
0000
0000
0000
,  // measure 50
0001
0000
0000
1000
0000
0000
0100
0000
0000
M000
0000
0000
0100
0000
0000
0001
0000
0010
0000
0000
000M
0000
0000
0020
,  // measure 51
0000
0000
1030
0100
0000
1000
0001
0000
0010
0100
0000
0010
0001
0000
1000
0000
0000
0101
0000
0000
0000
0000
0000
0000
,  // measure 52
1000
0000
0000
0100
0000
0000
0010
0000
0000
0M00
0000
0000
0010
0000
0000
1000
0000
0010
0000
0000
M000
0000
0000
0020
,  // measure 53
0000
0000
0130
1000
0000
0001
1000
0000
0001
0100
0000
0010
1000
0000
0100
0000
0000
1010
0000
0000
0000
0000
0000
0000
,  // measure 54
0001
0000
0000
0010
0000
0000
0100
0000
0000
00M0
0000
0000
0100
0000
0000
0001
0000
0010
0000
0000
000M
0000
0000
0020
,  // measure 55
0000
0000
1030
0100
0000
0010
0001
0000
1000
0100
0000
1000
0010
0000
0100
0000
0000
0011
0000
0000
0000
0000
0000
0000
,  // measure 56
2200
0000
0000
3301
0000
0000
0010
0000
0000
0100
0000
0000
1000
0010
0000
0000
0000
0000
0100
0000
0001
1000
0000
0010
,  // measure 57
1000
0000
0100
1000
0000
0001
0010
0000
0100
0010
0000
0001
1000
0000
0100
1000
0000
0220
0330
0000
0001
0100
0001
0100
,  // measure 58
0020
2030
3002
0203
,  // measure 59
0301
0000
0000
0100
0000
0000
1010
0000
0000
0001
0000
0000
1000
0000
0001
0000
0000
0020
0000
0000
0130
0010
0000
0001
,  // measure 60
0100
0000
0000
0001
0000
0000
0010
0000
000M
0010
0000
0000
1000
0000
0000
0001
0000
0200
0000
0000
0301
1000
0000
0010
,  // measure 61
0100
0000
0000
0001
0000
2000
0000
0000
3001
0010
0000
0001
1000
0000
0000
0100
0000
0020
0000
0000
0031
0100
0000
0010
,  // measure 62
0100
0000
0001
1000
0000
0000
0100
0000
0000
0010
0000
0000
0100
0000
0000
1000
0000
0020
0000
0000
1030
0100
0000
0010
,  // measure 63
0001
0000
0000
1000
0000
0020
0000
0000
1030
0001
0000
1000
0100
0000
0000
0010
0000
0200
0000
0000
0310
0001
0000
1000
,  // measure 64
0100
0000
0000
1000
0000
0000
0100
0000
M000
0100
0000
0000
0001
0000
0000
1000
0000
0020
0000
0000
1030
0100
0000
1000
,  // measure 65
0010
0000
0000
0100
0000
0002
0000
0000
0103
0010
0000
1000
0100
0000
0000
1000
0000
0002
0000
0000
1003
0010
0000
1000
,  // measure 66
0100
0000
0000
0011
0000
0000
1000
0000
0000
0100
0000
0000
1000
0000
0001
0000
0000
0200
0000
0000
0300
0010
0000
1000
,  // measure 67
0100
0000
0010
0001
0000
0000
0100
0000
0000
0001
0000
0000
1000
0000
0010
0000
0000
0200
0000
0000
0000
0000
0000
0300
,  // measure 68
0001
0000
0000
0000
0000
0000
0010
0000
0000
0000
0000
0000
0100
0000
0000
0000
0000
0000
1000
0000
0000
0000
0000
0001
0200
0000
0000
0000
0000
0000
0310
0000
1000
0000
0010
0000
1000
0000
0000
0000
0000
0000
0001
0000
0000
0000
0000
0000
,  // measure 69
0010
0000
0000
0000
0000
0000
0100
0000
0000
0000
0000
0000
1000
0000
0000
0000
0000
0000
0010
0000
0000
0000
0000
1000
0002
0000
0000
0000
0000
0000
0013
0000
0100
0000
0010
0000
0100
0000
0000
0000
0000
0000
1000
0000
0000
0000
0000
0000
,  // measure 70
0001
0000
1000
0010
0000
0100
0010
0000
0100
0001
0000
1000
0100
0000
1000
0001
0000
0010
0001
0000
0010
0100
0000
1000
,  // measure 71
0002
0000
0000
0103
0000
0000
0010
0000
0000
0100
0000
0000
0011
0000
0000
0100
0000
0000
1000
0000
0000
0001
0100
0001
,  // measure 72
0100
0000
0000
0000
0000
0000
0010
0000
0000
0000
0000
0000
1000
0000
0000
0000
0000
0000
0001
0000
0000
0000
0000
1000
0200
0000
0000
0000
0000
0000
0310
0000
0001
0000
0010
0000
0001
0000
0000
0000
0000
0000
1000
0000
0000
0000
0000
0000
,  // measure 73
0010
0000
0000
0000
0000
0000
0100
0000
0000
0000
0000
0000
0001
0000
0000
0000
0000
0000
0100
0000
0000
0000
0000
0010
1000
0000
0000
0000
0000
0000
0001
0000
0100
0000
0001
0000
0100
0000
0000
0000
0000
0000
0010
0000
0000
0000
0000
0000
,  // measure 74
0100
0000
0001
1000
0000
0010
0100
0000
0001
1000
0000
0100
0010
0000
0100
0010
0000
0001
1000
0000
0001
0100
0000
0010
,  // measure 75
0100
0000
0001
1000
0000
0000
0100
0000
0000
1000
0000
0000
0010
0000
0000
0100
0000
0000
1010
0000
0000
0000
0000
0000
;
