#TITLE:Death by Glamour;
#SUBTITLE:;
#ARTIST:Toby Fox;
#TITLETRANSLIT:;
#SUBTITLETRANSLIT:;
#ARTISTTRANSLIT:;
#GENRE:;
#CREDIT:;
#BANNER:undertale-banner.jpg;
#BACKGROUND:mettaton.png;
#LYRICSPATH:;
#CDTITLE:;
#MUSIC:toby fox - UNDERTALE Soundtrack - 68 Death by Glamour.mp3;
#OFFSET:-0.013000;
#SAMPLESTART:100.064331;
#SAMPLELENGTH:12.000000;
#SELECTABLE:YES;
#BPMS:0.000000=148.005005
;
#STOPS:
;
#BGCHANGES:;
#KEYSOUNDS:;
#ATTACKS:;

//---------------dance-single - bblum----------------
#NOTES:
     dance-single:
     bblum:
     Challenge:
     12:
     0.856118,1.000000,0.118817,0.386155,1.000000,739.000000,16.000000,52.000000,39.000000,0.000000,0.000000,0.856118,1.000000,0.118817,0.386155,1.000000,739.000000,16.000000,52.000000,39.000000,0.000000,0.000000:
0000
0000
0000
0000
,
0000
0000
0000
0000
,
0000
0000
0000
0000
,
0000
0000
0000
0000
,
0010
0000
0000
0000
1000
0000
0000
0000
0100
0000
0000
0010
0000
0000
0001
0000
,
0000
0000
0001
0000
0010
0000
0000
0000
0100
0000
0000
0100
0010
0000
0000
0000
,
0100
0000
0000
1000
0010
0000
0000
1000
0001
0000
0000
0010
0000
0000
0100
0000
,
0000
0000
0100
0000
0010
0000
0000
0001
0100
0000
0000
0010
1000
0000
0000
0000
,
2000
0000
0000
0000
0100
0000
0000
0000
0001
0000
0000
0010
0000
0000
0001
0000
,
0000
0000
0100
0000
0001
0000
0000
0001
3200
0000
0000
0010
2300
0000
0000
0000
,
3002
0000
0000
0000
0010
0000
0000
0000
1000
0000
0000
0100
0000
0000
1000
0000
,
0000
0000
1000
0000
0010
0000
0000
1000
0023
0000
0000
0100
0032
0000
0000
0000
,
0103
0000
0001
0100
0001
0000
1000
0100
0010
0001
0010
0100
1000
0000
0010
0000
,
0100
0000
0001
1000
0010
0000
0100
0010
1000
0100
0010
0001
0010
0000
0100
1000
,
0100
0000
1000
0010
0100
0000
0001
0010
0100
0010
0001
0010
0100
0000
0010
0000
,
0001
0000
0100
0010
0100
0000
0001
0010
0100
1000
0100
0010
0001
0000
0100
0010
,
1000
0000
0001
0000
0100
M00M
0100
1000
0001
1000
0010
1000
0100
0010
0001
0000
,
1000
0000
1000
0000
0010
M00M
0010
0100
0010
0001
1000
0100
0010
0100
0010
0000
,
0001
0000
1000
0000
0100
M00M
0100
0001
1000
0100
1000
0001
0010
0100
1000
0000
,
0001
0000
0001
0100
1000
0MMM
1000
0010
0100
0001
1000
0001
0100
0010
1000
0000
,
0100
0000
0010
0000
0100
M00M
0100
0001
0010
0100
1000
0001
1000
0010
1000
0000
,
0001
0000
1000
0000
0010
M00M
0010
0001
0010
0001
1000
0100
1000
0100
0010
0000
,
0100
0000
1000
0000
0100
M00M
0100
0010
1000
0001
1000
0010
1000
0001
0100
0000
,
0001
0000
1000
0010
0001
MMM0
0001
0100
0001
1000
0001
0010
0100
1000
0100
0000
,
0010
0000
0001
0000
1000
0000
0001
1000
0000
0100
0010
0001
0010
0000
0001
0000
,
1000
0000
0010
0000
0100
0001
0000
0010
0000
0001
0010
0000
0100
0000
0010
0000
,
0001
0000
0100
0000
0100
0000
1000
0000
0010
0000
0000
0000
0000
0000
0000
0000
0000
0000
0000
0000
0000
0000
0000
0000
0000
0000
0000
0000
0000
0000
1000
0100
,
0010
0000
0000
0100
1000
0000
0001
0000
0010
0000
0100
0000
0001
0000
0100
0000
,
0010
0000
0001
0000
0100
0000
0010
1000
0000
0100
1000
0001
0010
0000
0100
0000
,
0010
0000
0001
0000
1000
0010
0000
0010
0000
1000
0001
0000
0100
0000
0010
0000
,
1000
0000
0010
0000
0010
0000
0100
0000
1000
0000
0000
0000
0000
0000
0000
0000
0000
0000
0000
0000
0000
0000
0000
0000
0000
0000
0000
0000
0000
0000
0001
0010
,
0001
0000
0000
0001
0100
0000
0010
0000
0001
0000
0010
0000
1000
0000
0100
0000
,
1000
0000
0001
0000
0010
0000
0100
0010
0000
0100
0010
0100
1000
0000
0001
0000
,
1000
0000
0100
0000
0010
0001
0000
0100
0000
0001
1000
0000
0100
0000
0010
0000
,
0001
0000
0010
0000
0010
0000
1000
0000
0100
0000
0000
0000
0000
0000
0000
0000
0000
0000
0000
0000
0000
0000
0000
0000
0000
0000
0000
0000
0000
0000
1000
0100
,
1000
0000
0000
0001
0100
0000
0001
0000
0010
0000
0010
0000
0100
0000
0000
0000
,
1000
0010
0010
0001
0100
0000
0001
1000
0000
0100
0010
0001
0010
0000
0001
0000
,
1000
0000
0010
0000
1000
0001
0000
0001
0000
1000
0100
0000
0010
0000
0001
0000
,
1000
0100
0100
0001
1000
0000
0000
0000
0001
0100
1000
1000
0010
0000
0000
0000
,
0100
0010
0010
0001
0100
0100
1000
0100
0011
0000
0000
0000
0100
1000
0100
1000
,
0020
0000
0000
0000
2030
0000
0000
3200
,
0320
0032
2003
3020
,
0130
0001
1000
0010
0100
0001
0100
0001
1000
0100
1000
0001
0010
0100
0010
0001
,
1000
0100
0010
M00M
0010
0100
0001
0000
0200
0000
0300
M00M
0100
1000
0100
0010
,
0200
0000
0000
0000
2300
0000
0000
3020
,
0230
0302
2003
3002
,
0103
0010
1000
0010
0100
0001
1000
0001
0010
0100
1000
0010
0100
0010
0100
0010
,
2000
0000
3010
0100
0001
0000
1000
0000
0200
0000
0000
0000
0310
0001
0010
0100
,
0020
0000
0000
0000
0032
0000
0000
2003
,
3200
2300
3020
0230
,
0310
1000
0010
1000
0010
0100
0001
0010
0100
0010
0001
1000
0100
0010
0100
0010
,
0001
0100
0001
0000
0001
0100
0010
0000
2000
0000
0000
0000
3001
0010
0100
0010
,
0002
0000
0000
0000
0203
0000
0000
0302
,
0023
0032
2003
3200
,
0310
0001
0010
0100
1000
0001
0010
0100
1000
0010
0100
0010
1000
0100
0010
0001
,
1100
0000
0000
0010
0000
0000
0100
0000
0011
0000
0000
0000
1010
0000
0000
0000
,
0001
0010
0010
0100
0010
1000
0010
0100
0010
1000
0010
0100
0001
0010
0100
0010
,
0001
0010
0100
1000
0001
1000
0001
0020
0000
0030
0100
1000
0100
0010
0100
1000
,
0010
0100
0001
0010
0001
1000
0100
0010
0200
0000
M30M
0000
0100
0001
0010
0100
,
1000
0000
1000
0010
0000
0010
0100
0000
0002
0000
0000
0000
1003
0000
0100
0000
,
M00M
0000
0100
0010
1000
0001
0100
0001
1000
0100
1000
0010
0100
0001
0010
0100
,
0010
0001
1000
0010
1000
0001
1000
0020
0000
0030
0100
0001
1000
0001
0100
0010
,
0100
0001
0100
0001
1000
0010
1000
0001
0200
0000
M30M
0000
0100
1000
0100
0010
,
0001
0000
1000
0010
0000
0100
0001
1000
0200
0000
0310
0001
1000
0010
1000
0010
,
0100
1000
1000
0010
0100
0010
1000
0001
0100
0010
0100
0001
1000
0001
0010
0100
,
1000
0001
1000
0100
0010
0001
0100
0002
0000
0003
1000
0010
0100
0010
1000
0001
,
0100
0001
0010
0001
0010
0100
1000
0010
0002
0000
MMM3
0000
0001
0100
0010
0100
,
0001
0000
0001
0100
0000
0100
0010
0000
2000
0000
0000
0000
3100
0000
0010
0000
,
M00M
0000
0010
0100
0001
1000
0001
0010
0100
1000
0001
1000
0100
0010
0001
1000
,
0001
0100
0010
0100
0010
0100
0001
2000
0000
3000
0001
0010
0100
1000
0001
0010
,
0100
0010
0001
1000
0100
1000
0001
0010
2000
0000
3MMM
0000
1000
0100
0010
0100
,
0010
0001
1000
0001
0100
0010
0100
0001
0100
0001
1000
0010
0100
0001
0010
0001
,
1100
0000
0000
0000
0001
0000
0000
0000
0110
0000
0000
0001
0000
0000
1000
0000
,
0000
0000
0100
0000
1000
0000
0000
0000
0101
0000
0000
0020
0000
0030
0000
0000
,
0101
0000
0000
0000
0010
0000
0000
0000
1001
0000
0000
0010
0000
0000
0001
0000
,
0000
0000
0010
0000
0001
0000
0000
0000
1100
0000
0000
0020
0000
0030
0000
0000
,
0101
0000
0000
0000
0010
0000
0000
0000
0110
0000
0000
0001
0000
0000
0010
0000
,
0000
0000
0001
0000
1000
0000
0000
0000
0110
0000
0000
0002
0000
0003
0000
0000
,
1010
0000
0000
0000
0001
0000
0000
0000
1100
0000
0000
0010
0000
0000
0001
0000
,
0000
0000
0100
0000
0010
0000
0000
0000
1001
0000
0000
0100
0000
0000
0000
0000
,
1000
0010
0010
0001
1000
0100
0010
0100
1000
0010
0100
0001
0100
0010
0100
0001
,
1000
0000
0000
0100
0001
MMM0
0001
0000
0010
0000
0100
0000
1000
0000
0000
0000
;

//---------------dance-single - bblum----------------
#NOTES:
     dance-single:
     bblum:
     Hard:
     10:
     0.744727,0.758850,0.207930,0.527250,0.638641,603.000000,28.000000,71.000000,0.000000,2.000000,0.000000,0.744727,0.758850,0.207930,0.527250,0.638641,603.000000,28.000000,71.000000,0.000000,2.000000,0.000000:
// measure 0
0000
0000
0000
0000
,  // measure 1
0000
0000
0000
0000
,  // measure 2
0000
0000
0000
0000
,  // measure 3
0000
0000
0000
0000
,  // measure 4
0001
0000
0000
0000
1000
0000
0000
0000
0010
0000
0000
0100
0000
0000
0001
0000
,  // measure 5
0000
0000
1000
0000
0010
0000
0000
0000
1000
0000
0000
0001
0010
0000
0000
0000
,  // measure 6
0100
0000
0000
1000
0010
0000
0000
1000
0001
0000
0000
0010
0000
0000
0100
0000
,  // measure 7
0000
0000
1000
0000
0010
0000
0000
0100
0001
0000
0000
0010
0100
0000
0000
0000
,  // measure 8
2000
0000
0000
0000
0001
0000
0000
0000
0100
0000
0000
0010
0000
0000
0001
0000
,  // measure 9
0000
0000
0010
0000
0100
0000
0000
0001
3020
0000
0000
0100
2030
0000
0000
0000
,  // measure 10
3002
0000
0000
0000
0010
0000
0000
0000
1000
0000
0000
0100
0000
0000
0010
0000
,  // measure 11
0000
0000
0100
0000
1000
0000
0000
0010
0203
0000
0000
0010
0302
0000
0000
0000
,  // measure 12
0103
0000
0001
0010
0001
0000
1000
0100
0010
0001
0010
0100
1000
0000
0010
0000
,  // measure 13
0100
0000
0001
0010
0001
0000
1000
0010
1000
0010
0100
0010
0100
0000
0010
0000
,  // measure 14
0100
0000
0001
0010
0001
0000
1000
0010
1000
0001
0100
0001
0100
0000
0010
0000
,  // measure 15
1000
0000
0010
0100
0010
0000
1000
0100
1000
0001
0100
0001
1000
0000
0010
0000
,  // measure 16
0100
0000
0001
0000
0010
0000
0100
1000
0100
0010
0100
1000
0100
0010
0001
0000
,  // measure 17
0010
0000
0100
0000
0010
0000
0001
1000
0010
0100
0001
1000
0010
0100
0001
0000
,  // measure 18
0100
0000
0010
0000
0100
0000
0001
1000
0001
0100
0010
0100
0010
0100
0001
0000
,  // measure 19
0010
0000
0010
0000
0100
0000
1000
0010
0100
0001
1000
0001
0010
0100
1000
0000
,  // measure 20
0010
0000
0100
0000
0001
0000
0100
0001
1000
0100
1000
0001
0100
0001
0100
0000
,  // measure 21
0010
0000
1000
0000
0001
0000
0010
0100
0010
0001
1000
0100
0010
0100
1000
0000
,  // measure 22
0001
0000
0100
0000
0010
0000
1000
0010
0100
0001
1000
0100
1000
0100
0010
0000
,  // measure 23
0001
0000
0001
0000
1000
0000
0001
0010
0100
1000
0001
0010
0001
1000
0100
0000
,  // measure 24
1000
0000
0001
0000
1000
0000
0100
1000
0000
0001
0010
0001
0100
0000
0010
0000
,  // measure 25
1000
0000
0100
0000
0010
0001
0000
0001
0000
0001
0100
0000
0010
0000
1000
0000
,  // measure 26
0100
0000
1000
0000
0010
0000
1000
0000
0100
0000
0000
0000
0000
0000
0000
0000
0000
0000
0000
0000
0000
0000
0000
0000
0000
0000
0000
0000
0000
0000
0000
0100
,  // measure 27
0010
0000
0000
0001
1000
0000
0100
0000
0010
0000
0100
0000
1000
0000
0010
0000
,  // measure 28
0100
0000
0001
0000
0100
0000
0010
1000
0000
0010
1000
0010
0100
0000
0001
0000
,  // measure 29
0010
0000
0100
0000
1000
0010
0000
0010
0000
0010
1000
0000
0100
0000
0010
0000
,  // measure 30
0001
0000
0100
0000
0001
0000
0010
0000
0001
0000
0000
0000
0000
0000
0000
0000
0000
0000
0000
0000
0000
0000
0000
0000
0000
0000
0000
0000
0000
0000
0000
1000
,  // measure 31
0010
0000
0000
1000
0100
0000
0010
0000
0001
0000
0100
0000
0001
0000
0010
0000
,  // measure 32
0001
0000
1000
0000
0100
0000
0010
0100
0000
0100
0010
0100
1000
0000
0001
0000
,  // measure 33
0010
0000
0100
0000
1000
0010
0000
0010
0000
0010
0100
0000
0001
0000
0010
0000
,  // measure 34
0001
0000
0100
0000
0001
0000
0010
0000
0001
0000
0000
0000
0000
0000
0000
0000
0000
0000
0000
0000
0000
0000
0000
0000
0000
0000
0000
0000
0000
0000
0000
1000
,  // measure 35
0010
0000
0000
0010
0100
0000
0001
0000
0010
0000
0010
0000
0100
0000
0000
0000
,  // measure 36
1000
0010
1000
0100
1000
0000
0001
0010
0000
0010
0100
0010
0001
0000
1000
0000
,  // measure 37
0100
0000
0010
0000
0001
0100
0000
0100
0000
0100
0010
0000
1000
0000
0001
0000
,  // measure 38
1000
0100
1000
0010
1000
0000
0000
0000
0001
0100
0001
0010
0001
0000
0000
0000
,  // measure 39
1000
0100
0010
0001
1000
0100
0010
0001
1000
0000
0000
0000
0001
1000
0001
1000
,  // measure 40
0020
0000
0000
0000
2030
0000
0000
3020
,  // measure 41
0230
0320
2030
3200
,  // measure 42
2300
0010
0010
0001
3200
0001
0001
0010
,  // measure 43
1300
0100
1000
0000
0001
0100
0001
0000
0020
0000
0000
0000
0130
1000
0100
0010
,  // measure 44
0200
0000
0000
0000
2300
0000
0000
3020
,  // measure 45
0230
0302
2003
3002
,  // measure 46
0223
0000
0000
0330
0022
0000
0000
0133
,  // measure 47
2000
0000
3010
0100
0001
0000
1000
0000
0200
0000
0000
0000
0310
0001
0010
0100
,  // measure 48
0020
0000
0000
0000
0032
0000
0000
2003
,  // measure 49
3200
2300
3020
0230
,  // measure 50
0302
0010
1000
0100
0023
1000
0100
1000
,  // measure 51
0031
0100
0001
0000
1000
0100
1000
0000
0020
0000
0000
0000
1030
0100
1000
0100
,  // measure 52
0020
0000
0000
0000
0230
0000
0000
2300
,  // measure 53
3020
0230
0302
0023
,  // measure 54
0032
1000
1000
1000
0203
0010
0010
0300
,  // measure 55
1010
0000
0000
1100
0000
0000
0110
0000
0011
0000
0000
0000
1010
0000
0000
0000
,  // measure 56
0002
0000
0000
0000
1003
0000
0100
2000
0000
0000
0000
3000
0001
0000
0010
0000
,  // measure 57
1000
0000
0010
0000
0100
0000
1000
0020
0000
0000
0000
0030
0001
0000
0010
0000
,  // measure 58
0011
0000
0000
1100
0000
0000
0010
0000
0202
0000
0303
0000
1000
0100
0010
0001
,  // measure 59
0010
0000
0010
0100
0000
0100
1000
0000
0002
0000
0000
0000
1003
0000
0100
0000
,  // measure 60
0000
0000
0010
0000
0001
0000
1000
0200
0000
0300
0000
0000
0010
0000
1000
0000
,  // measure 61
0010
0000
1000
0000
0010
0000
0001
2000
0000
0000
0000
3000
0100
0000
0001
0000
,  // measure 62
0101
0000
0000
1010
0000
0000
0001
0000
2000
0000
0000
0000
3001
0100
0010
0100
,  // measure 63
0001
0000
0001
0010
0000
0010
0100
1000
0200
0000
0300
0000
0010
0001
0010
0001
,  // measure 64
2000
0000
0000
0000
3001
0000
0100
0002
0000
0000
0000
0003
0100
0000
0010
0000
,  // measure 65
0001
0000
0010
0000
0100
0000
1000
0200
0000
0000
0000
0300
0001
0000
1000
0000
,  // measure 66
0110
0000
0000
1001
0000
0000
0010
0000
2200
0000
3300
0000
0001
0010
0100
0010
,  // measure 67
0001
0000
0001
1000
0000
1000
0100
0000
0020
0000
0000
0000
0031
0000
0100
0000
,  // measure 68
0000
0000
0010
0000
0001
0000
1000
0200
0000
0300
0000
0000
0010
0000
1000
0000
,  // measure 69
0010
0000
0001
0000
0010
0000
0100
0002
0000
0000
0000
0003
0100
0000
1000
0000
,  // measure 70
1100
0000
0000
0011
0000
0000
0100
0000
0002
0000
0000
0000
1003
0100
1000
0010
,  // measure 71
0100
0000
0100
0001
0000
0001
0100
0001
0200
0000
0300
0000
0001
0010
0100
1000
,  // measure 72
0100
0000
0000
0000
0010
0000
0000
0000
1100
0000
0000
0001
0000
0000
1000
0000
,  // measure 73
0000
0000
0010
0000
1000
0000
0000
0000
0110
0000
0000
0002
0000
0003
0000
0000
,  // measure 74
1010
0000
0000
0000
0100
0000
0000
0000
0011
0000
0000
1000
0000
0000
0001
0000
,  // measure 75
0000
0000
0100
0000
0010
0000
0000
0000
1100
0000
0000
0020
0000
0030
0000
0000
,  // measure 76
1100
0000
0000
0000
0001
0000
0000
0000
0110
0000
0000
1000
0000
0000
0010
0000
,  // measure 77
0000
0000
1000
0000
0100
0000
0000
0000
0011
0000
0000
0200
0000
0300
0000
0000
,  // measure 78
1010
0000
0000
0000
0100
0000
0000
0000
0011
0000
0000
1000
0000
0000
0001
0000
,  // measure 79
0000
0000
0010
0000
0100
0000
0000
0000
1001
0000
0000
0010
0000
0000
0000
0000
,  // measure 80
1000
0100
1000
0100
0010
0001
1000
0001
0100
0010
1000
0001
0100
0010
0100
0001
,  // measure 81
1000
0000
0000
0100
0010
0000
0010
0000
0100
0000
0010
0000
0001
0000
0000
0000
;
