#TITLE:Battle Against a True Hero;
#SUBTITLE:;
#ARTIST:Toby Fox;
#TITLETRANSLIT:;
#SUBTITLETRANSLIT:;
#ARTISTTRANSLIT:;
#GENRE:;
#CREDIT:;
#BANNER:undertale-banner.jpg;
#BACKGROUND:undying.jpg;
#LYRICSPATH:;
#CDTITLE:;
#MUSIC:toby fox - UNDERTALE Soundtrack - 98 Battle Against a True Hero.mp3;
#OFFSET:0.015000;
#SAMPLESTART:100.012344;
#SAMPLELENGTH:12.000000;
#SELECTABLE:YES;
#BPMS:0.000000=150.000000
;
#STOPS:
;
#BGCHANGES:;
#KEYSOUNDS:;
#ATTACKS:;

//---------------dance-single - bblum----------------
#NOTES:
     dance-single:
     bblum:
     Challenge:
     14:
     1.000000,1.000000,0.070124,0.254996,1.000000,1281.000000,11.000000,40.000000,68.000000,7.000000,0.000000,1.000000,1.000000,0.070124,0.254996,1.000000,1281.000000,11.000000,40.000000,68.000000,7.000000,0.000000:
0000
0000
0000
0000
,
0000
0000
0000
0000
,
0000
0000
0000
0000
,
0000
0000
0000
0000
,
1000
0000
0000
1000
0000
0000
0001
0000
0000
0001
0000
0000
0010
0000
0000
0010
0000
0000
0100
0000
0000
0100
0000
0000
1000
0000
0000
0000
0010
0000
0000
0000
,
0100
0000
0000
0100
0000
0000
0001
0000
0000
0001
0000
0000
1000
0000
0000
1000
0000
0000
0010
0000
0000
0010
0000
0000
0100
0000
0000
0000
0001
0000
0000
0000
,
0010
0000
0000
0010
0000
0000
0100
0000
0000
0100
0000
0000
1000
0000
0000
1000
0000
0000
0001
0000
0000
0001
0000
0000
0010
0000
0000
0000
0100
0000
0000
0000
,
1000
0000
0000
1000
0000
0000
0001
0000
0000
0001
0000
0000
1000
0000
0000
1000
0000
0000
0010
0000
0000
0010
0000
0000
0100
0000
0001
0000
0010
0000
0100
0000
,
1000
0000
0000
1000
0000
0000
0100
0000
0000
0100
0000
0000
0010
0000
0000
0010
0000
0000
0001
0000
0000
0001
0000
0000
1000
0000
0000
0000
0010
0000
0000
0000
,
0100
0000
0000
0100
0000
0000
0010
0000
0000
0010
0000
0000
1000
0000
0000
1000
0000
0000
0001
0000
0000
0001
0000
0000
0010
0000
0000
0000
0100
0000
0000
0000
,
1000
0000
0000
1000
0000
0000
0010
0000
0000
0010
0000
0000
1000
0000
0000
1000
0000
0000
0100
0000
0000
0100
0000
0000
0010
0000
0000
0000
0001
0000
0000
0000
,
0100
0000
0000
0100
0000
0000
0010
0000
0000
0010
0000
0000
1000
0000
0000
1000
0000
0000
0001
0000
0000
0001
0000
0000
0100
0000
0000
0100
0000
0000
0100
0000
,
0001
0000
0000
0010
0000
0000
0001
0000
0000
1000
0000
0000
0100
0000
0000
1000
0000
0000
0010
0000
0000
0100
0000
0000
0010
0000
0000
0000
0100
0000
0000
0000
0000
0000
0000
0000
0010
0000
0000
0000
1000
0000
0000
0000
0100
0000
0000
0000
0010
0000
0000
0000
0001
0000
0000
0000
0010
0000
0000
0000
0001
0000
0000
0000
,
1000
0000
0000
0100
0000
0000
1000
0000
0000
0001
0000
0000
0010
0000
0000
0100
0000
0000
1000
0000
0000
0001
0000
0000
1000
0000
0000
0000
0100
0000
0000
0000
0000
0000
0000
0000
0010
0000
0000
0000
0100
0000
0000
0000
0010
0000
0000
0000
0001
0000
0000
0000
1000
0000
0000
0000
0100
0000
0000
0000
1000
0000
0000
0000
,
0100
0000
0000
0010
0000
0000
0100
0000
0000
1000
0000
0000
0001
0000
0000
1000
0000
0000
0100
0000
0000
0010
0000
0000
0001
0000
0000
0000
0100
0000
0000
0000
0000
0000
0000
0000
0001
0000
0000
0000
1000
0000
0000
0000
0010
0000
0000
0000
1000
0000
0000
0000
0001
0000
0000
0000
1000
0000
0000
0000
0001
0000
0000
0000
,
0010
0000
0100
1000
0000
0001
0010
0001
0000
0100
0001
0100
0010
1000
0001
1000
,
0100
0000
0000
0010
0000
0000
0001
0000
0000
1000
0000
0000
0100
0000
0000
0010
0000
0000
0100
0000
0000
1000
0000
0000
0001
0000
0000
0000
0100
0000
0000
0000
0000
0000
0000
0000
0001
0000
0000
0000
1000
0000
0000
0000
0001
0000
0000
0000
0010
0000
0000
0000
0100
0000
0000
0000
0010
0000
0000
0000
0100
0000
0000
0000
,
1000
0000
0000
0010
0000
0000
1000
0000
0000
0001
0000
0000
1000
0000
0000
0100
0000
0000
0010
0000
0000
0001
0000
0000
0010
0000
0000
0000
0100
0000
0000
0000
0000
0000
0000
0000
0010
0000
0000
0000
0001
0000
0000
0000
1000
0000
0000
0000
0010
0000
0000
0000
0100
0000
0000
0000
0010
0000
0000
0000
0100
0000
0000
0000
,
0001
0000
0000
1000
0000
0000
0100
0000
0000
0010
0000
0000
0100
0000
0000
0010
0000
0000
0100
0000
0000
1000
0000
0000
0010
0000
0000
0000
0100
0000
0000
0000
0000
0000
0000
0000
0010
0000
0000
0000
1000
0000
0000
0000
0100
0000
0000
0000
0010
0000
0000
0000
0001
0000
0000
0000
0010
0000
0000
0000
0001
0000
0000
0000
,
0100
0000
0001
0100
0000
0010
1000
0010
0000
1000
0010
0100
0010
1000
0010
1000
,
0001
0000
0000
1000
0000
0000
0100
0000
0000
0010
0000
0000
0001
0000
0000
0010
0000
0000
0001
0000
0000
1000
0000
0000
0100
0000
0000
0000
0010
0000
0000
0000
M00M
0000
0000
0000
0010
0000
0000
0000
1000
0000
0000
0000
0010
0000
0000
0000
0100
0000
0000
0000
0001
0000
0000
0000
0100
0000
0000
0000
0001
0000
0000
0000
,
1000
0000
0000
0100
0000
0000
0010
0000
0000
0100
0000
0000
0010
0000
0000
0001
0000
0000
0010
0000
0000
0100
0000
0000
1000
0000
0000
0000
0010
0000
0000
0000
M00M
0000
0000
0000
0010
0000
0000
0000
0001
0000
0000
0000
1000
0000
0000
0000
0001
0000
0000
0000
0100
0000
0000
0000
0001
0000
0000
0000
0100
0000
0000
0000
,
0010
0000
0000
0100
0000
0000
0001
0000
0000
0100
0000
0000
0010
0000
0000
0100
0000
0000
0001
0000
0000
1000
0000
0000
0010
0000
0000
0000
0100
0000
0000
0000
M00M
0000
0000
0000
0100
0000
0000
0000
1000
0000
0000
0000
0010
0000
0000
0000
0100
0000
0000
0000
0001
0000
0000
0000
0100
0000
0000
0000
0001
0000
0000
0000
,
0100
M00M
0100
0010
M00M
0010
1000
0010
M00M
0010
0100
1000
0001
0100
0001
1000
,
0010
0000
0000
0100
0000
0000
0001
0000
0000
1000
0000
0000
0010
0000
0000
0100
0000
0000
0001
0000
0000
1000
0000
0000
0001
0000
0000
0000
0100
0000
0000
0000
M00M
0000
0000
0000
0100
0000
0000
0000
1000
0000
0000
0000
0001
0000
0000
0000
0100
0000
0000
0000
0010
0000
0000
0000
0100
0000
0000
0000
0010
0000
0000
0000
,
1000
0000
0000
0100
0000
0000
1000
0000
0000
0001
0000
0000
0010
0000
0000
0001
0000
0000
1000
0000
0000
0001
0000
0000
0100
0000
0000
0000
0010
0000
0000
0000
M00M
0000
0000
0000
0010
0000
0000
0000
0001
0000
0000
0000
1000
0000
0000
0000
0100
0000
0000
0000
0010
0000
0000
0000
0100
0000
0000
0000
0010
0000
0000
0000
,
0001
0000
0000
1000
0000
0000
0010
0000
0000
0100
0000
0000
0010
0000
0000
1000
0000
0000
0001
0000
0000
1000
0000
0000
0100
0000
0000
0000
0010
0000
0000
0000
M00M
0000
0000
0000
0010
0000
0000
0000
1000
0000
0000
0000
0001
0000
0000
0000
0100
0000
0000
0000
0001
0000
0000
0000
0100
0000
0000
0000
0001
0000
0000
0000
,
0010
M00M
0010
0100
M00M
0100
1000
0100
M00M
0100
0001
0010
0100
1000
0100
1000
,
0001
0000
0000
0001
0000
0000
0100
0000
0000
0100
0000
0000
0010
0000
0000
0010
2000
0000
0100
0000
0000
0100
0000
0000
0001
0000
0000
0000
0100
0000
0000
0000
,
0001
0000
0000
0000
0000
0000
0010
0000
0000
0010
0000
0000
0001
0000
0000
0001
3000
0000
0100
0000
0000
0100
0000
0000
0010
0000
0000
0000
0100
0000
0000
0000
,
0012
0000
0000
0010
0000
0000
1000
0000
0000
1000
0000
0000
0100
0000
0000
0100
0000
0000
1000
0000
0000
1000
0000
0000
0023
0000
0000
0000
1000
0000
0000
0000
,
0132
0000
0000
0100
0000
0000
1000
0000
0000
1000
0000
0000
0010
0000
0000
0010
0103
0000
1000
0000
0010
1000
0000
0000
0001
0000
0000
0000
1000
0000
0000
0000
,
1200
0000
0000
1000
0000
0000
0010
0000
0000
0010
0000
0000
1000
0000
0000
1000
0000
0000
0010
0000
0000
0010
0000
0000
0301
0000
0000
0000
0010
0000
0000
0000
,
0201
0000
0000
0001
0000
0000
0010
0000
0000
0010
0000
0000
0001
0000
0000
0001
0000
0000
0010
0000
0000
0010
0000
0000
1300
0000
0000
0000
0010
0000
0000
0000
,
2001
0000
0000
0001
0000
0000
0100
0000
0000
0100
0000
0000
0001
0000
0000
0001
0000
0000
0010
0000
0000
0010
0000
0000
3002
0000
0000
0000
0010
0000
0000
0000
,
1203
0000
0000
1000
0000
0000
0010
0000
0000
0010
0000
0000
1000
0000
0000
1000
0000
0000
0010
0000
0000
0010
0000
0000
0301
0000
0000
0000
1000
0000
0000
0000
,
0100
0000
0000
0100
0000
0000
0001
0000
0000
0001
0000
0000
0010
0000
0000
0010
0002
0000
1000
0000
0000
1000
0000
0000
0100
0000
0000
0000
1000
0000
0000
0000
,
0010
0000
0000
0010
0000
0000
1000
0000
0000
1000
0000
0000
0100
0000
0000
0100
0003
0000
0010
0000
0000
0010
0000
0000
1000
0000
0000
0000
0100
0000
0000
0000
,
0021
0000
0000
0001
0000
0000
0100
0000
0000
0100
0000
0000
0001
0000
0000
0001
0000
0000
0100
0000
0000
0100
0000
0000
1030
0000
0000
0000
0001
0000
0000
0000
,
0100
0000
0000
0100
0000
0000
0010
0000
0000
0010
0000
0000
1000
0000
0000
1000
0001
0000
0010
0000
0100
0010
0000
0000
0001
0000
0000
0000
1000
0000
0000
0000
,
0102
0000
0000
0100
0000
0000
1000
0000
0000
1000
0000
0000
0010
0000
0000
0010
0000
0000
1000
0000
0000
1000
0000
0000
0013
0000
0000
0000
0100
0000
0000
0000
,
1020
0000
0000
1000
0000
0000
0100
0000
0000
0100
0000
0000
1000
0000
0000
1000
0000
0000
0100
0000
0000
0100
0000
0000
0032
0000
0000
0000
1000
0000
0000
0000
,
1203
0000
0000
1000
0000
0000
0010
0000
0000
0010
0000
0000
1000
0000
0000
1000
0000
0000
0010
0000
0000
0010
0000
0000
0301
0000
0000
0000
0100
0000
0000
0000
,
1002
0000
0000
1000
0000
0000
0010
0000
0000
0010
0000
0000
1000
0000
0000
1000
0000
0000
0100
0000
0000
0100
0000
0000
1003
0000
0000
0000
0001
0000
0000
0000
,
1000
0000
0000
0010
0000
0000
1000
0000
0000
0001
0000
0000
0100
0000
0000
0001
0000
0000
0100
0000
0000
0010
0000
0000
0100
0000
0000
0001
0000
0000
1000
0000
0000
0001
0000
0000
1000
0000
0000
0100
0000
0000
0010
0000
0000
0001
0000
0000
1000
0000
0000
0000
0100
0000
0000
0000
0010
0000
0000
0000
0100
0000
0000
0000
,
0010
0000
0000
0001
0000
0000
0100
0000
0000
0001
0000
0000
0010
0000
0000
0100
0000
0000
0010
0000
0000
0100
0000
0000
1000
0000
0000
0010
0000
0000
1000
0000
0000
0010
0000
0000
0100
0000
0000
0001
0000
0000
1000
0000
0000
0001
0000
0000
0100
0000
0000
0000
0010
0000
0000
0000
0100
0000
0000
0000
0010
0000
0000
0000
,
1000
0000
0000
0100
0000
0000
0010
0000
0000
0001
0000
0000
1000
0000
0000
0001
0000
0000
0010
0000
0000
0100
0000
0000
1000
0000
0000
0001
0000
0000
1000
0000
0000
0100
0000
0000
0010
0000
0000
0001
0000
0000
1000
0000
0000
0001
0000
0000
0010
0000
0000
0000
0001
0000
0000
0000
1000
0000
0000
0000
0001
0000
0000
0000
,
0100
M00M
0100
0010
M00M
0010
1000
0010
M00M
0010
0001
1000
0100
1000
0001
0010
,
0001
0000
0000
1000
0000
0000
0010
0000
0000
0100
0000
0000
0001
0000
0000
1000
0000
0000
0001
0000
0000
0100
0000
0000
0010
0000
0000
1000
0000
0000
0001
0000
0000
1000
0000
0000
0010
0000
0000
0100
0000
0000
0001
0000
0000
1000
0000
0000
0010
0000
0000
0000
0100
0000
0000
0000
0010
0000
0000
0000
1000
0000
0000
0000
,
0001
0000
0000
0100
0000
0000
0010
0000
0000
0100
0000
0000
0001
0000
0000
1000
0000
0000
0010
0000
0000
0100
0000
0000
0001
0000
0000
0010
0000
0000
0001
0000
0000
0100
0000
0000
0001
0000
0000
1000
0000
0000
0100
0000
0000
0010
0000
0000
0001
0000
0000
0000
1000
0000
0000
0000
0100
0000
0000
0000
1000
0000
0000
0000
,
0010
0000
0000
0100
0000
0000
0010
0000
0000
0100
0000
0000
0001
0000
0000
0010
0000
0000
0001
0000
0000
0010
0000
0000
0001
0000
0000
1000
0000
0000
0100
0000
0000
1000
0000
0000
0010
0000
0000
0100
0000
0000
0010
0000
0000
1000
0000
0000
0001
0000
0000
0000
0100
0000
0000
0000
0001
0000
0000
0000
0100
0000
0000
0000
,
0010
M00M
0010
0100
M00M
0100
0001
0010
M00M
0010
1000
0100
1000
0001
0010
0100
,
0010
0000
0000
0100
0000
0000
0010
0000
0000
0001
0000
0000
0100
0000
0000
0001
0000
0000
0010
0000
0000
0001
0000
0000
0100
0000
0000
0010
0000
0000
1000
0000
0000
0001
0000
0000
1000
0000
0000
0010
0000
0000
1000
0000
0000
0010
0000
0000
0100
0000
0000
0000
0010
0000
0000
0000
1000
0000
0000
0000
0001
0000
0000
0000
,
1000
0000
0000
0100
0000
0000
0010
0000
0000
0001
0000
0000
1000
0000
0000
0001
0000
0000
0010
0000
0000
0100
0000
0000
1000
0000
0000
0001
0000
0000
1000
0000
0000
0100
0000
0000
0010
0000
0000
0001
0000
0000
1000
0000
0000
0001
0000
0000
0010
0000
0000
0000
0001
0000
0000
0000
0100
0000
0000
0000
0001
0000
0000
0000
,
0010
0000
0000
0100
0000
0000
0010
0000
0000
0100
0000
0000
0010
0000
0000
0100
0000
0000
1000
0000
0000
0010
0000
0000
1000
0000
0000
0010
0000
0000
1000
0000
0000
0001
0000
0000
0100
0000
0000
0001
0000
0000
0100
0000
0000
0001
0000
0000
1000
0000
0000
0000
0100
0000
0000
0000
1000
0000
0000
0000
0100
0000
0000
0000
,
0010
M00M
0010
0100
M00M
0100
1000
0010
M00M
0010
0100
1000
0001
0100
0001
0100
,
0001
0000
0000
0010
0000
0000
0100
0000
0000
1000
0000
0000
0001
0000
0000
0010
0000
0000
0100
0000
0000
1000
0000
0000
0100
0000
0000
0010
0000
0000
0001
0000
0000
1000
0000
0000
0100
0000
0000
0010
0000
0000
0001
0000
0000
1000
0000
0000
0100
0000
0000
0000
0010
0000
0000
0000
0001
0000
0000
0000
0010
0000
0000
0000
,
0100
0000
0000
1000
0000
0000
0001
0000
0000
0010
0000
0000
0100
0000
0000
1000
0000
0000
0001
0000
0000
0010
0000
0000
0100
0000
0000
1000
0000
0000
0100
0000
0000
0010
0000
0000
0001
0000
0000
1000
0000
0000
0100
0000
0000
0010
0000
0000
0001
0000
0000
0000
0100
0000
0000
0000
0001
0000
0000
0000
0010
0000
0000
0000
,
0001
0000
0000
0100
0000
0000
0001
0000
0000
0100
0000
0000
0001
0000
0000
0100
0000
0000
0010
0000
0000
1000
0000
0000
0010
0000
0000
1000
0000
0000
0010
0000
0000
0100
0000
0000
0010
0000
0000
0100
0000
0000
0010
0000
0000
0100
0000
0000
0001
0000
0000
0000
0100
0000
0000
0000
0001
0000
0000
0000
1000
0000
0000
0000
,
0100
M00M
0100
0010
M00M
0010
0001
0100
M00M
0100
0010
0100
1000
0001
0010
0001
,
1MM0
0000
0000
0000
0001
0000
0000
0000
1000
0000
0000
0000
0100
0000
0000
0000
1000
0000
0000
0000
0010
0000
0000
0000
0200
0002
0000
0000
0303
0000
0000
0000
,
1000
0000
0000
0000
0010
0000
0000
0000
1000
0000
0000
0000
0010
0000
0000
0000
2000
0200
0000
0000
0000
0000
0000
0000
0000
0000
0000
0000
3302
0000
0000
0000
,
0000
0000
0000
0000
0000
0000
0000
0000
2003
0020
0000
0000
0000
0000
0000
0000
0000
0000
0000
0000
3230
0000
0000
0000
0000
0000
0000
0000
0000
0000
0000
0000
,
0301
0000
0000
0000
0010
0000
0000
0000
0100
0000
0000
0000
0010
0000
0000
0000
0001
0000
0000
0000
0010
0000
0000
0000
0200
2000
0000
0000
3300
0000
0000
0000
,
0001
0100
0001
0010
0001
0000
0100
0000
,
0010
0000
0000
0000
0000
1000
0100
0000
0020
0000
0000
0000
0000
0000
0000
0000
0000
0000
0000
0000
0000
0000
0000
0000
0030
0000
0000
0000
0000
0000
0000
0000
,
0100
0000
0000
0000
1000
0000
0000
0000
0001
0000
0000
0000
0010
0000
0000
0000
0001
0000
0000
0000
0100
0000
0000
0000
0002
0020
0000
0000
0033
0000
0000
0000
,
1000
0000
0000
0000
0100
0000
0000
0000
0010
0000
0000
0000
0100
0000
0000
0000
0020
0002
0000
0000
0000
0000
0000
0000
0000
0000
0000
0000
0233
0000
0000
0000
,
0000
0000
0000
0000
0000
0000
0000
0000
0302
2000
0000
0000
0000
0000
0000
0000
0000
0000
0000
0000
3023
0000
0000
0000
0000
0000
0000
0000
0000
0000
0000
0000
,
0130
0000
0000
0000
0001
0000
0000
0000
0100
0000
0000
0000
0010
0000
0000
0000
0100
0000
0000
0000
0001
0000
0000
0000
2000
0200
0000
0000
3300
0000
0000
0000
,
1000
0010
1000
0010
0100
0000
0001
0000
,
1000
0000
0000
0000
0000
0010
0100
0000
0002
0000
0000
0000
0000
0000
0000
0000
0000
0000
0000
0000
0000
0000
0000
0000
0003
0000
0000
0000
0000
0000
0000
0000
,
1000
0010
1000
0001
0010
0001
1000
0100
1000
0001
0100
0001
1000
0010
1000
0001
0010
0001
1000
0000
0000
MMMM
0000
0000
,
0100
0000
0000
0010
0000
0000
0001
0000
0000
0010
0000
0000
0100
0000
0000
0010
0000
0000
0001
0000
0000
0010
0000
0000
0001
0000
0100
0000
0001
0000
0100
0000
0000
0010
0000
0000
1000
0000
0000
0001
0000
0000
1000
0000
0010
0000
1000
0000
,
0010
0000
0000
0100
0000
0000
0001
0000
0000
0010
0000
0000
0100
0000
1000
0000
0100
0000
1000
0000
0000
0001
0000
0000
0100
0000
0000
0001
0000
0000
0010
0000
0100
0000
0010
0000
0100
0000
0000
1000
0000
0000
0010
0000
0000
1000
0000
0000
,
0001
0100
0001
0100
0001
0100
0010
1000
0010
1000
0010
1000
0001
0010
0001
0010
0001
0010
0100
0000
0000
MMMM
0000
0000
,
1000
0010
0100
0010
1000
0010
0100
0010
1000
0100
0010
0001
1000
0100
0010
0100
,
1000
0000
0001
0000
0010
0001
0010
0100
1000
0000
0001
0000
0010
0000
0100
0000
1000
0000
0100
0000
0010
0000
0001
0000
1000
0000
0001
0000
0010
0000
0100
0000
,
1000
0100
1000
0001
0100
0001
1000
0010
1000
0001
0010
0001
1000
0100
1000
0001
0100
0001
1000
0000
0000
MMMM
0000
0000
,
0100
0000
0000
0010
0000
0000
0100
0000
0000
1000
0000
0000
0100
0000
0000
0010
0000
0000
0100
0000
0000
1000
0000
0000
0001
0000
0010
0000
0100
0000
1000
0000
0000
0010
0000
0000
0100
0000
0000
0010
0000
0000
1000
0000
0100
0000
0010
0000
,
0001
0000
0000
1000
0000
0000
0010
0000
0000
0100
0000
0000
0001
0000
0100
0000
0010
0000
1000
0000
0000
0001
0000
0000
0010
0000
0000
0100
0000
0000
0010
0000
0001
0000
1000
0000
0010
0000
0000
0100
0000
0000
0010
0000
0000
1000
0000
0000
,
0100
1000
0100
1000
0100
1000
0100
0010
0001
1000
0010
1000
0001
0100
0010
0100
,
0001
1000
0010
0100
0010
1000
0100
0010
0001
0100
0001
0100
0001
0100
0001
0100
,
0001
0010
0100
1000
0001
0010
0100
1000
0001
1000
0010
0100
0001
1000
0010
0100
,
0001
0100
0001
0100
0001
0100
0010
1000
0010
1000
0010
1000
0100
0010
0100
0010
0100
0010
0100
0000
0000
M00M
0000
0000
,
0100
0000
0000
0010
0000
0000
1000
0000
0000
0010
0000
0000
0100
0000
0000
0010
0000
0000
1000
0000
0000
0010
0000
0000
0100
0000
0001
0000
0100
0000
0001
0000
0000
0010
0000
0000
0001
0000
0000
1000
0000
0000
0001
0000
0010
0000
0100
0000
,
1000
0000
0000
0001
0000
0000
1000
0000
0000
0010
0000
0000
0100
0000
0001
0000
0100
0000
0010
0000
0000
1000
0000
0000
0010
0000
0000
0100
0000
0000
0001
0000
0010
0000
0100
0000
1000
0000
0000
0001
0000
0000
0010
0000
0000
0100
0000
0000
,
1000
0100
1000
0001
0100
0001
1000
0010
1000
0001
0010
0001
1000
0100
1000
0001
0100
0001
0100
0000
0000
M00M
0000
0000
,
0100
0010
0001
0010
0100
0010
0001
0010
0001
0100
0010
1000
0001
0100
0010
0100
,
0001
0000
1000
0000
0010
0100
0010
0100
0001
0000
1000
0000
0100
0000
0010
0000
0001
0000
0100
0000
0001
0000
0100
0000
0010
0000
1000
0000
0001
0000
0100
0000
,
0010
1000
0010
1000
0010
1000
0001
0010
0001
0010
0001
0010
0100
1000
0100
1000
0100
1000
0100
0000
0000
M00M
0000
0000
,
0100
0000
0000
0001
0000
0000
0100
0000
0000
0010
0000
0000
0100
0000
0000
0001
0000
0000
0100
0000
0000
0010
0000
0000
1000
0000
0100
0000
0010
0000
0001
0000
0000
1000
0000
0000
0100
0000
0000
1000
0000
0000
0001
0000
0010
0000
0001
0000
,
0010
0000
0000
0100
0000
0000
0010
0000
0000
0001
0000
0000
1000
0000
0010
0000
1000
0000
0010
0000
0000
0100
0000
0000
0001
0000
0000
0100
0000
0000
0010
0000
0100
0000
0010
0000
1000
0000
0000
0100
0000
0000
0010
0000
0000
0001
0000
0000
,
1000
0010
1000
0010
1000
0010
1000
0010
1000
0100
0010
0001
0010
0100
0010
0100
,
0010
0001
1000
0010
0100
0001
1000
0100
0020
0000
0000
0000
0000
0000
0000
0000
,
0000
0000
0000
0000
0000
0000
0000
0000
0200
0000
0000
0000
0000
0000
0000
0000
0000
0000
0000
0030
0310
0100
0010
0100
0010
0100
0010
0100
0010
0100
0010
0100
,
0010
0000
0000
0000
;

//---------------dance-single - ----------------
#NOTES:
     dance-single:
     :
     Hard:
     12:
     1.000000,1.000000,0.000000,0.274121,1.000000,1076.000000,0.000000,43.000000,68.000000,4.000000,0.000000,1.000000,1.000000,0.000000,0.274121,1.000000,1076.000000,0.000000,43.000000,68.000000,4.000000,0.000000:
// measure 0
0000
0000
0000
0000
,  // measure 1
0000
0000
0000
0000
,  // measure 2
0000
0000
0000
0000
,  // measure 3
0000
0000
0000
0000
,  // measure 4
0001
0000
0000
0001
0000
0000
1000
0000
0000
1000
0000
0000
0010
0000
0000
0010
0000
0000
0100
0000
0000
0100
0000
0000
0001
0000
0000
0000
0010
0000
0000
0000
,  // measure 5
0100
0000
0000
0100
0000
0000
1000
0000
0000
1000
0000
0000
0001
0000
0000
0001
0000
0000
0010
0000
0000
0010
0000
0000
0100
0000
0000
0000
1000
0000
0000
0000
,  // measure 6
0010
0000
0000
0010
0000
0000
0100
0000
0000
0100
0000
0000
0001
0000
0000
0001
0000
0000
1000
0000
0000
1000
0000
0000
0010
0000
0000
0000
0100
0000
0000
0000
,  // measure 7
0001
0000
0000
0001
0000
0000
1000
0000
0000
1000
0000
0000
0001
0000
0000
0001
0000
0000
0010
0000
0000
0010
0000
0000
0200
0000
0000
0000
0000
0000
0000
0000
,  // measure 8
1300
0000
0000
1000
0000
0000
0010
0000
0000
0010
0000
0000
0100
0000
0000
0100
0000
0000
0001
0000
0000
0001
0000
0000
1000
0000
0000
0000
0100
0000
0000
0000
,  // measure 9
0010
0000
0000
0010
0000
0000
0100
0000
0000
0100
0000
0000
1000
0000
0000
1000
0000
0000
0001
0000
0000
0001
0000
0000
0100
0000
0000
0000
0010
0000
0000
0000
,  // measure 10
1000
0000
0000
1000
0000
0000
0100
0000
0000
0100
0000
0000
1000
0000
0000
1000
0000
0000
0010
0000
0000
0010
0000
0000
0100
0000
0000
0000
0001
0000
0000
0000
,  // measure 11
0010
0000
0000
0010
0000
0000
0100
0000
0000
0100
0000
0000
1000
0000
0000
1000
0000
0000
0001
0000
0000
0001
0000
0000
0200
0000
0000
0000
0000
0000
0000
0000
,  // measure 12
0301
0010
0001
1000
0100
1000
0010
0100
0000
0010
1000
0100
0010
0001
0010
0001
,  // measure 13
1000
0100
1000
0001
0010
0100
1000
0100
0000
0010
0100
0010
0001
1000
0100
1000
,  // measure 14
0100
0010
0100
1000
0001
1000
0010
0100
0000
0001
1000
0010
1000
0001
1000
0001
,  // measure 15
0010
0000
0100
1000
0000
0001
0010
0001
0000
0100
0001
0100
0010
1000
0001
1000
,  // measure 16
0100
0010
0001
1000
0100
0010
0100
1000
0000
0001
1000
0001
0010
0100
0010
0100
,  // measure 17
1000
0010
1000
0001
1000
0001
0010
0100
0000
0010
0001
1000
0010
0100
0010
0100
,  // measure 18
0001
1000
0100
0010
0100
1000
0010
0100
0000
0010
1000
0100
0010
0001
0010
0001
,  // measure 19
0100
0000
0001
0100
0000
0010
1000
0010
0000
1000
0010
0100
0010
1000
0010
1000
,  // measure 20
0001
1000
0100
0010
0001
1000
0100
0010
M00M
0010
1000
0010
0100
0001
0100
0001
,  // measure 21
1000
0100
0010
0100
0010
0100
1000
0010
M00M
0010
0001
1000
0001
0100
0001
0100
,  // measure 22
0010
0100
0001
0100
0010
1000
0001
0100
M00M
0100
1000
0010
0100
0001
0100
0001
,  // measure 23
0100
M00M
0100
0010
M00M
0010
1000
0010
M00M
0010
0100
1000
0001
0100
0001
1000
,  // measure 24
0010
0100
0001
1000
0010
0100
0001
0100
M00M
0100
1000
0001
0100
0010
0100
0010
,  // measure 25
1000
0100
1000
0001
1000
0001
0100
0010
M00M
0010
0001
1000
0100
0010
0100
0010
,  // measure 26
0001
1000
0010
0100
0010
1000
0100
0010
M00M
0010
1000
0001
0100
0001
0100
0001
,  // measure 27
0010
M00M
0010
0100
M00M
0100
1000
0100
M00M
0100
0001
0010
0100
1000
0100
1000
,  // measure 28
0002
0000
0000
0203
0000
0000
0310
0000
2000
0100
0000
0000
0001
0000
0100
0000
,  // measure 29
0001
0000
0000
0010
0000
0000
0001
0000
3000
0100
0000
0000
0010
0000
0100
0000
,  // measure 30
0002
0000
0000
1000
0000
0000
0100
0000
0000
1000
0000
0000
0010
0000
1000
0000
,  // measure 31
0100
0000
0000
1000
0000
0000
0010
0000
1003
0100
0010
0000
0001
0000
1000
0000
,  // measure 32
0200
0000
0000
0010
0000
0000
1000
0000
0000
0010
0000
0000
1300
0000
0010
0000
,  // measure 33
0200
0000
0000
0010
0000
0000
0001
0000
0000
0010
0000
0000
0301
0000
1000
0000
,  // measure 34
0002
0000
0000
0100
0000
0000
0010
0000
0000
0100
0000
0000
2003
0000
0010
0000
,  // measure 35
3200
0000
0000
0001
0000
0000
0010
0000
0000
0001
0000
0000
1300
0000
0100
0000
,  // measure 36
1000
0000
0000
0002
0000
0000
0013
0000
0002
0100
0000
0000
1000
0000
0100
0000
,  // measure 37
1000
0000
0000
0010
0000
0000
0100
0000
0003
0010
0000
0000
1000
0000
0100
0000
,  // measure 38
0020
0000
0000
0001
0000
0000
0100
0000
0000
0001
0000
0000
1030
0000
0001
0000
,  // measure 39
0100
0000
0000
0010
0000
0000
1000
0000
0001
0010
0100
0000
0010
0000
0100
0000
,  // measure 40
2000
0000
0000
0001
0000
0000
0010
0000
0000
0100
0000
0000
3001
0000
0100
0000
,  // measure 41
0020
0000
0000
0100
0000
0000
1000
0000
0000
0100
0000
0000
2030
0000
0001
0000
,  // measure 42
3200
0000
0000
0010
0000
0000
0001
0000
0000
0010
0000
0000
1300
0000
0100
0000
,  // measure 43
0020
0000
0000
0100
0000
0000
0001
0000
0000
0100
0000
0000
1030
0000
0001
0000
,  // measure 44
1000
0010
1000
0001
0100
0001
0100
0010
0100
0001
1000
0001
1000
0100
0010
0100
,  // measure 45
0010
0001
0100
0001
0010
0100
0010
0100
1000
0010
1000
0010
0100
0010
0100
0010
,  // measure 46
1000
0100
0010
0001
1000
0001
0010
0100
1000
0001
1000
0100
0010
0001
1000
0001
,  // measure 47
0100
M00M
0100
0010
M00M
0010
1000
0010
M00M
0010
0001
1000
0100
1000
0001
0010
,  // measure 48
0001
1000
0010
0100
0001
1000
0001
0100
0010
1000
0001
1000
0010
0100
0010
1000
,  // measure 49
0001
0100
0010
0100
0001
1000
0010
0100
0001
0010
0001
0100
0001
1000
0100
1000
,  // measure 50
0010
0100
0010
0100
0001
0010
0001
0010
0001
1000
0100
1000
0001
0100
0001
0100
,  // measure 51
0010
M00M
0010
0100
M00M
0100
0001
0010
M00M
0010
1000
0100
1000
0001
0010
0100
,  // measure 52
0010
0100
0010
0001
0100
0001
0010
0001
0100
0010
1000
0001
0100
0010
1000
0001
,  // measure 53
1000
0100
0010
0001
1000
0001
0010
0100
1000
0001
1000
0100
0010
0001
0100
0001
,  // measure 54
0010
0100
0010
0100
1000
0010
1000
0010
1000
0001
0100
0001
1000
0100
1000
0100
,  // measure 55
0010
M00M
0010
0100
M00M
0100
1000
0010
M00M
0010
0100
1000
0001
0100
0001
0100
,  // measure 56
0001
0010
0100
1000
0001
0010
0100
1000
0100
0010
0001
1000
0100
0010
0001
1000
,  // measure 57
0100
0010
0001
0010
0100
1000
0001
0010
0100
1000
0100
0010
0001
0100
0001
0010
,  // measure 58
0001
0100
0001
0100
0010
1000
0010
1000
0100
0010
0100
0010
0001
0100
0001
1000
,  // measure 59
0100
M00M
0100
0010
M00M
0010
0001
0100
M00M
0100
0010
0100
1000
0001
0010
0001
,  // measure 60
1MM0
0000
0000
0000
0001
0000
0000
0000
1000
0000
0000
0000
0100
0000
0000
0000
1000
0000
0000
0000
0010
0000
0000
0000
0200
0002
0000
0000
0303
0000
0000
0000
,  // measure 61
1000
0000
0000
0000
0010
0000
0000
0000
1000
0000
0000
0000
0010
0000
0000
0000
2000
0200
0000
0000
0000
0000
0000
0000
0000
0000
0000
0000
3302
0000
0000
0000
,  // measure 62
0000
0000
0000
0000
0000
0000
0000
0000
2003
0020
0000
0000
0000
0000
0000
0000
0000
0000
0000
0000
3230
0000
0000
0000
0000
0000
0000
0000
0000
0000
0000
0000
,  // measure 63
0301
0000
0000
0000
0010
0000
0000
0000
0100
0000
0000
0000
0010
0000
0000
0000
0001
0000
0000
0000
0010
0000
0000
0000
0200
2000
0000
0000
3300
0000
0000
0000
,  // measure 64
0001
0100
0001
0010
0001
0000
0100
0000
,  // measure 65
0010
0000
0000
0000
0000
1000
0100
0000
0020
0000
0000
0000
0000
0000
0000
0000
0000
0000
0000
0000
0000
0000
0000
0000
0030
0000
0000
0000
0000
0000
0000
0000
,  // measure 66
0100
0000
0000
0000
1000
0000
0000
0000
0001
0000
0000
0000
0010
0000
0000
0000
0001
0000
0000
0000
0100
0000
0000
0000
0002
0020
0000
0000
0033
0000
0000
0000
,  // measure 67
1000
0000
0000
0000
0100
0000
0000
0000
0010
0000
0000
0000
0100
0000
0000
0000
0020
0002
0000
0000
0000
0000
0000
0000
0000
0000
0000
0000
0233
0000
0000
0000
,  // measure 68
0000
0000
0000
0000
0000
0000
0000
0000
0302
2000
0000
0000
0000
0000
0000
0000
0000
0000
0000
0000
3023
0000
0000
0000
0000
0000
0000
0000
0000
0000
0000
0000
,  // measure 69
0130
0000
0000
0000
0001
0000
0000
0000
0100
0000
0000
0000
0010
0000
0000
0000
0100
0000
0000
0000
0001
0000
0000
0000
2000
0200
0000
0000
3300
0000
0000
0000
,  // measure 70
1000
0010
1000
0010
0100
0000
0001
0000
,  // measure 71
1000
0000
0000
0000
0000
0010
0100
0000
0002
0000
0000
0000
0000
0000
0000
0000
0000
0000
0000
0000
0000
0000
0000
0000
0003
0000
0000
0000
0000
0000
0000
0000
,  // measure 72
1000
0010
1000
0001
0010
0001
1000
0100
1000
0001
0100
0001
1000
0000
MMMM
0000
,  // measure 73
0100
0010
0001
0010
0100
0010
0001
0010
0001
0100
0010
1000
0001
1000
0010
0100
,  // measure 74
0001
0010
0100
1000
0100
0010
0100
1000
0001
0010
0100
1000
0100
0010
0001
1000
,  // measure 75
0001
0100
0001
0100
0010
1000
0010
1000
0001
0010
0001
0010
0100
0000
MMMM
0000
,  // measure 76
1000
0010
0100
0010
1000
0010
0100
0010
1000
0100
0010
0001
1000
0100
0010
0100
,  // measure 77
1000
0000
0001
0000
0010
0001
0010
0100
1000
0000
0001
0000
0010
0000
0100
0000
1000
0000
0100
0000
0010
0000
0001
0000
1000
0000
0001
0000
0010
0000
0100
0000
,  // measure 78
1000
0010
1000
0001
0010
0001
1000
0100
1000
0001
0100
0001
1000
0000
MMMM
0000
,  // measure 79
0100
0010
0100
1000
0100
0010
0100
1000
0010
0100
0001
0100
0010
0100
0001
1000
,  // measure 80
0010
0100
0001
0100
0010
1000
0001
0010
0100
0010
0001
1000
0010
0100
0010
1000
,  // measure 81
0100
1000
0100
1000
0100
1000
0100
0010
0001
1000
0010
1000
0001
0100
0010
0100
,  // measure 82
0001
1000
0010
0100
0010
1000
0100
0010
0001
0100
0001
0100
0001
0100
0001
0100
,  // measure 83
0001
0010
0100
1000
0001
0010
0100
1000
0001
1000
0010
0100
0001
1000
0010
0100
,  // measure 84
0001
0100
0001
0100
0010
1000
0010
1000
0100
0010
0100
0010
0100
0000
M00M
0000
,  // measure 85
0100
0010
1000
0010
0100
0010
1000
0010
0100
0001
0010
0001
1000
0001
0010
0100
,  // measure 86
1000
0001
1000
0010
0100
0001
0100
0010
0100
0001
0010
0100
1000
0001
0010
0100
,  // measure 87
1000
0100
1000
0001
0100
0001
1000
0010
1000
0001
0010
0001
0100
0000
M00M
0000
,  // measure 88
0100
0010
0001
0010
0100
0010
0001
0010
0001
0100
0010
1000
0001
0100
0010
0100
,  // measure 89
0001
0000
1000
0000
0010
0100
0010
0100
0001
0000
1000
0000
0100
0000
0010
0000
0001
0000
0100
0000
0001
0000
0100
0000
0010
0000
1000
0000
0001
0000
0100
0000
,  // measure 90
0010
1000
0010
1000
0001
0010
0001
0010
0100
1000
0100
1000
0100
0000
M00M
0000
,  // measure 91
0100
0001
0100
0010
0100
0001
0100
0010
1000
0100
0010
0001
1000
0100
1000
0001
,  // measure 92
0010
0100
0010
0001
1000
0010
0100
0001
0100
0010
0100
0001
1000
0100
0010
0001
,  // measure 93
1000
0010
1000
0010
1000
0010
1000
0010
1000
0100
0010
0001
0010
0100
0010
0100
,  // measure 94
0010
0001
1000
0010
0100
0001
1000
0100
0020
0000
0000
0000
0000
0000
0000
0000
,  // measure 95
0000
0200
0000
0000
,  // measure 96
0330
0000
0000
0000
;
