#VERSION:0.82;
#TITLE:ASGORE;
#SUBTITLE:;
#ARTIST:Toby Fox;
#TITLETRANSLIT:;
#SUBTITLETRANSLIT:;
#ARTISTTRANSLIT:;
#GENRE:;
#ORIGIN:;
#CREDIT:;
#BANNER:banner.png;
#BACKGROUND:asgore.png;
#PREVIEWVID:;
#JACKET:jacket.png;
#CDIMAGE:;
#DISCIMAGE:;
#LYRICSPATH:;
#CDTITLE:;
#MUSIC:toby fox - UNDERTALE Soundtrack - 77 ASGORE.mp3;
#OFFSET:-0.015000;
#SAMPLESTART:99.997345;
#SAMPLELENGTH:12.000000;
#SELECTABLE:YES;
#DISPLAYBPM:230.000000;
#BPMS:0.000=229.695,
420.000=114.848,
436.000=114.900,
452.000=229.695;
#STOPS:;
#DELAYS:;
#WARPS:;
#TIMESIGNATURES:0.000=4=4;
#TICKCOUNTS:0.000=4;
#COMBOS:0.000=1;
#SPEEDS:0.000=1.000=0.000=0;
#SCROLLS:0.000=1.000;
#FAKES:;
#LABELS:0.000=Song Start;
#BGCHANGES:;
#KEYSOUNDS:;
#ATTACKS:
;

//---------------dance-single - bblum----------------
#NOTEDATA:;
#CHARTNAME:bblum;
#STEPSTYPE:dance-single;
#DESCRIPTION:bblum;
#CHARTSTYLE:;
#DIFFICULTY:Challenge;
#METER:13;
#RADARVALUES:0.950214,1.000000,0.243504,0.736920,0.442152,873.000000,38.000000,115.000000,81.000000,29.000000,4.000000,0.000000,0.000000,0.950214,1.000000,0.243504,0.736920,0.442152,873.000000,38.000000,115.000000,81.000000,29.000000,4.000000,0.000000,0.000000;
#CREDIT:bblum;
#DISPLAYBPM:230.000000;
#NOTES:
1100
0000
0110
0000
,
0202
0000
0303
0000
0000
0001
0100
0000
,
2000
0000
3000
0002
0000
0003
0010
0000
,
1000
0100
0010
0001
0100
0010
0100
0001
,
0100
0010
1000
0001
0100
0010
1000
0100
,
1000
0100
0010
0001
0010
0100
1000
0100
,
1000
0010
1000
0010
0100
0001
1000
0100
,
0010
0100
0010
0001
1000
0001
0010
0100
,
0011
0000
0101
0000
,
222M
000M
000M
333M
0000
0100
0010
0000
,
0002
0000
0000
0203
0000
0000
0310
0000
,
22M2
00M0
00M0
33M3
0000
1000
0200
0300
,
0002
0000
0003
2000
3000
0010
0001
0000
,
2M22
0M00
0M00
0M00
0M00
0M00
0M00
0M00
,
0M00
0M00
0M00
0M00
3M33
0000
1000
0100
,
0020
0000
0030
MMMM
,
0110
MMMM
1010
MMMM
,
0101
1000
0100
0010
0100
1000
0010
1000
,
0001
0100
0010
1000
0100
0010
0001
0100
,
1000
0100
0010
1000
0001
1000
0010
0001
,
0010
0100
0001
1000
0010
1000
0100
0010
,
0100
1000
0001
0100
0010
1000
0001
0100
,
1000
0100
0001
0100
0010
1000
0010
0100
,
0010
1000
0010
0001
0010
0100
0001
1000
,
0101
0000
1010
0000
,
M222
M000
M000
M333
0000
0010
0100
0000
,
2000
0000
3000
0020
0000
0000
0130
0000
,
2M22
0M00
0M00
3M33
0000
0001
0100
0000
,
0020
0030
00M0
0010
0000
1000
0200
0300
,
M222
M000
M000
M000
M000
M000
M000
M000
,
M000
M000
M000
M000
M333
0000
0001
0010
,
0200
0000
0300
MMMM
,
1100
0000
1100
0000
,
0001
0100
0001
0100
0001
0010
0100
1000
0100
0000
0000
0000
0002
0000
0000
0000
,
0003
0100
0001
0100
0011
0000
0000
0000
,
1000
0010
0100
0010
0100
0010
1000
0001
1000
0000
0000
0000
0000
0000
0002
0000
,
0000
1003
0100
0010
0101
0000
0000
0000
,
0001
0010
0100
0010
0001
1000
0100
0010
0100
0000
0000
0000
0000
0000
2000
0000
,
3000
0001
0100
0001
1100
0000
0000
0000
,
2000
0000
0000
0000
0000
0000
0000
0000
3000
0000
0000
0000
0020
0000
0000
0000
0000
0000
0000
0000
0030
0000
0000
0000
0100
0000
0000
0000
0000
0000
0000
0001
,
1000
0000
0000
0000
0100
0000
0000
0000
0000
0000
0000
0000
0020
0000
0000
0000
0000
0000
0000
0000
0030
0000
0000
0010
0002
0000
0000
0000
0003
0000
0000
0000
,
1000
0100
0010
0001
0010
0100
1000
0100
0010
0000
0000
0000
0000
0000
0200
0000
,
0000
0301
0100
0010
1100
0000
0000
0000
,
0001
0100
0010
1000
0001
0100
0010
1000
0001
0000
0000
0000
0000
0000
0200
0000
,
0300
0001
0010
0100
1010
0000
0000
0000
,
1000
0100
1000
0100
0010
0001
0010
0001
0010
0000
0000
0000
0000
0000
2000
0000
,
0000
3100
0001
0100
1100
0000
0000
0000
,
0002
0000
0000
0000
0000
0000
0000
0000
0000
0000
0000
0000
0203
0000
0000
0000
0000
0000
0000
0000
0300
0000
0000
0000
0010
0000
0000
0000
0000
0000
0000
0100
,
0001
0000
0000
0000
0100
0000
0000
0000
0000
0000
0000
0000
0020
0000
0000
0000
0000
0000
0000
0000
0030
0000
0000
1000
0002
0000
0000
0000
0003
0000
0000
0000
,
1000
0100
0010
0100
0010
0001
0100
0010
,
1000
0001
0100
0001
0010
0100
1000
0001
,
1000
0100
0010
0001
0010
0100
0001
0100
,
0010
1000
0010
0100
1000
0100
0010
0001
,
1000
0100
0010
0100
1000
0010
0100
0001
,
0010
0100
1000
0100
0010
0001
0010
0100
,
1000
0001
1000
0010
0100
0001
0100
0001
1000
0010
0100
0001
0010
0100
1000
0100
,
0010
0100
1000
0001
0100
0001
0100
0010
0100
0001
1000
0010
0100
0010
1000
0100
,
0010
0001
0010
0100
0010
0001
0010
0100
,
1000
0001
0100
0001
0010
0001
1000
0010
,
0100
0001
0010
0100
0010
0100
1000
0001
,
0010
0100
0010
0001
1000
0010
0100
0001
,
0010
0100
1000
0001
0100
0010
1000
0100
,
0010
0001
0100
0001
1000
0100
0010
0001
,
1000
0001
1000
0010
1000
0010
0100
0001
0100
0001
1000
0100
0010
0001
0010
0100
,
0010
0001
1000
0010
1000
0010
0100
0010
1000
0001
0010
0100
1000
0100
0010
0001
,
1000
0100
1000
0100
0001
0100
0010
0001
,
1000
0001
0100
0010
1000
0010
0001
0010
,
0100
0001
0010
0100
1000
0100
0001
0100
,
1000
0010
0100
0001
0010
0100
1000
0100
,
0001
0100
0010
0001
1000
0010
0100
0001
,
1000
0010
1000
0100
1000
0001
0010
0100
,
1000
0100
1000
0100
0010
0100
0010
0100
1000
0100
0010
0001
0010
0001
1000
0001
,
0100
0010
0100
0010
1000
0010
0100
0001
1000
0010
0100
0010
1000
0100
0010
0001
,
1000
0010
0100
0001
1000
0100
0001
0100
,
1000
0100
0010
1000
0010
0100
1000
0001
,
0100
0001
0010
0100
0010
0100
1000
0001
,
0100
1000
0100
0010
1000
0001
0100
0010
,
0100
0001
0100
0010
0001
0010
1000
0100
,
0010
0100
1000
0001
0100
0001
0010
0100
,
1000
0001
1000
0001
1000
0010
0100
0010
1000
0001
0100
0010
0100
0000
0000
0000
,
0010
0000
0000
0000
0100
0000
0000
0000
0000
0000
0000
0000
0002
0000
0000
0000
0003
0000
0000
1000
0020
0000
0000
0000
0000
0000
0000
0000
0030
0000
0000
0000
,
0200
0000
0000
0000
,
0300
0000
1000
0100
,
0002
0000
0003
1000
,
0001
0000
0000
0000
0010
0000
0000
0000
0000
0000
0000
0010
0200
0000
0000
0000
0000
0000
0000
0000
0300
0000
0000
0000
1000
0000
0000
0000
0000
0000
0000
0000
,
2000
0000
0000
3000
,
0001
0000
1000
0001
0000
0001
0100
0000
,
0020
0000
0000
0030
,
2000
0000
0000
0022
0000
3000
1000
0133
,
0010
0001
1000
0001
0100
0010
0100
0001
,
0010
1000
0010
0100
0010
1000
0001
0010
,
0100
1000
0100
1000
0100
1000
0100
1000
0010
0000
0000
0000
0001
0000
0000
0000
,
0110
0000
0001
0011
0000
0000
0200
0000
,
0020
0000
0000
0300
,
0030
0000
1000
0100
,
0010
0001
0010
0001
0010
0001
0010
0001
1000
0000
0000
0000
0001
0000
0000
0000
,
0010
0000
0100
1010
0000
0000
0002
0000
,
2000
0000
0000
0003
,
3000
0000
0001
0001
,
1000
0010
0100
0001
1000
0010
0100
0001
1000
0000
0000
0000
0010
0000
0000
0000
,
0100
0000
0010
0110
0000
0000
0020
0000
,
2000
0000
0000
0000
,
0000
0000
0000
0030
,
3001
0000
0000
0000
0010
0000
0000
0000
0001
0000
0000
0000
0010
0000
0000
0000
0000
0000
0000
0000
0001
0000
0000
0000
1000
0000
0000
0000
0000
0000
0000
0010
,
0100
0000
0000
0000
0001
0000
0000
0000
0000
0000
0000
0000
0010
0000
0000
0000
0000
0000
0000
0001
1000
0000
0000
0000
0000
0000
0000
0000
0000
0000
0000
0000
,
MMM1
0010
0100
0010
0001
0000
0200
0000
0302
0000
0003
1000
0000
0000
0010
0100
,
0002
0000
0000
0103
0000
0100
0010
0000
0101
0000
0000
0000
0000
0000
0000
0000
,
1000
0100
0010
0001
1000
0000
2000
0000
3002
0000
0003
1000
0000
0000
0001
1000
,
0002
0000
0000
0023
0000
0031
1000
0000
0110
0000
0000
0000
0000
0000
0000
0000
,
2000
0020
3200
0032
0320
0003
0200
0030
2000
0300
0000
3200
0000
0000
2300
0020
,
3200
0030
0300
0002
0000
0203
0002
0300
0443
0000
0000
0000
0330
0000
0000
0000
,
0002
0020
0203
2030
0302
3000
0200
0003
2000
0300
0000
3200
0000
0000
0301
0010
,
0200
0000
0000
0310
0000
0001
0001
0000
4040
0000
0000
0000
3030
0000
0000
0000
,
1MMM
0100
1000
0001
0100
0001
0100
0001
,
0010
0100
0010
0001
1000
0010
0100
0001
,
1000
0010
0100
0001
1000
0100
0010
0001
,
2000
0000
0200
0000
0020
3000
1330
0100
,
0010
0001
0010
0100
1000
0100
0010
0001
,
1000
0000
1000
0100
0000
0010
0001
0010
,
0001
0000
0001
0100
0000
0001
1000
0000
,
0002
0000
0020
0000
0200
0000
2000
0033
,
3310
0001
0010
0100
0010
0001
1000
0100
,
0010
0000
0010
0001
0000
1000
0001
1000
,
0010
0100
0001
0100
0010
0001
0010
1000
,
0002
0000
0200
0000
0020
0003
0331
1000
,
0100
1000
0001
0010
0001
1000
0010
0100
,
0001
0000
0100
0001
0000
1000
0010
1000
,
0200
0000
0000
0020
0030
0000
0002
0303
,
0010
0100
0010
0100
0010
0100
0010
0100
0010
0000
0000
0000
0001
0000
0001
0000
,
0020
0000
0000
0002
0003
0000
2000
3030
,
0001
0010
0001
0010
0001
0010
0001
0010
0100
0000
0000
0000
1000
0000
0100
0000
,
2000
0000
0000
0020
0030
0000
0020
3030
,
0001
0010
0001
0010
0100
1000
0100
0010
0001
0000
0000
0000
1000
0000
1000
0000
,
0020
0000
0000
0002
0003
0000
2000
3030
,
0001
0100
0001
0100
0001
1000
0010
1000
0010
0000
0000
0000
0010
0000
0000
0000
,
M111
0000
0000
1000
0000
0000
0100
0000
,
1M11
0000
0000
0010
0000
0000
0001
0000
,
11M1
0000
0000
0010
0000
0000
0100
0000
,
111M
0000
0000
0001
0000
0000
0010
0000
,
1111
0000
MMMM
MMMM
MMMM
0000
0000
0000
;

//---------------dance-single - bblum----------------
#NOTEDATA:;
#CHARTNAME:bblum;
#STEPSTYPE:dance-single;
#DESCRIPTION:bblum;
#CHARTSTYLE:;
#DIFFICULTY:Hard;
#METER:10;
#RADARVALUES:0.856841,1.000000,0.281952,0.941976,0.124956,733.000000,44.000000,147.000000,4.000000,27.000000,14.000000,0.000000,0.000000,0.856841,1.000000,0.281952,0.941976,0.124956,733.000000,44.000000,147.000000,4.000000,27.000000,14.000000,0.000000,0.000000;
#CREDIT:bblum;
#DISPLAYBPM:230.000000;
#NOTES:
1010
0000
1100
0000
,
0220
0000
0330
0000
0000
0001
0100
0000
,
0020
0000
0030
2000
0000
3000
0010
0000
,
1000
0010
0100
0001
0010
0100
1000
0001
,
0100
0010
1000
0001
0100
0010
1000
0100
,
1000
0010
0100
0001
0010
0100
0010
0100
,
1000
0010
0100
0010
0100
0001
1000
0010
,
0100
0001
0010
0001
0100
0001
0010
0100
,
1010
0000
0101
0000
,
2022
0000
0000
3033
0000
0100
1000
0000
,
0002
0000
0000
0203
0000
0000
0301
0000
,
2220
0000
0000
3330
0000
0001
0200
0300
,
0020
0000
0030
2000
3000
0100
0010
0000
,
2202
0000
0000
0000
,
0000
0000
0000
0000
3303
0000
0010
0100
,
2000
0000
3000
0000
,
0011
0000
1010
0000
,
0001
1000
0100
0010
0100
1000
0010
1000
,
0001
0100
0010
1000
0010
0100
0001
0010
,
0100
0010
0001
1000
0100
1000
0010
1000
,
0100
0010
0001
1000
0100
1000
0010
0100
,
0010
1000
0001
0100
0010
1000
0001
0100
,
0001
0010
0001
0100
0010
1000
0010
0100
,
0001
1000
0100
1000
0001
0100
0001
1000
,
0110
0000
1001
0000
,
2022
0000
0000
3033
0000
0100
0010
0000
,
2000
0000
3000
0020
0000
0000
1030
0000
,
0222
0000
0000
0333
0000
1000
0100
0000
,
0020
0030
0000
0010
0000
0001
0200
0300
,
2022
0000
0000
0000
,
0000
0000
0000
0000
3033
0000
0100
0010
,
0002
0000
0003
0000
,
1001
0000
0110
0000
,
0001
0100
1000
0100
0001
0000
0020
0000
,
0030
0100
0001
1000
0010
0000
0000
0000
,
0100
1000
0100
0001
0100
0000
0000
0020
,
0000
0031
0100
1000
0100
0000
0000
0000
,
0010
1000
0010
0001
0010
0000
0000
2000
,
0000
3001
0100
0001
0010
0000
0000
0000
,
0200
0000
0000
0000
0000
0000
0000
0000
0300
0000
0000
0000
0020
0000
0000
0000
0000
0000
0000
0000
0030
0000
0000
0000
0100
0000
0000
0000
0000
0000
0000
1000
,
0100
0000
0000
0000
0010
0000
0000
0000
0000
0000
0000
0000
0002
0000
0000
0000
0000
0000
0000
0000
0003
0000
0000
1000
0200
0000
0000
0000
0300
0000
0000
0000
,
1000
0010
0001
0010
0100
0000
0000
0002
,
0000
0013
0100
0010
1000
0000
0000
0000
,
0001
0100
1000
0100
0010
0000
0000
0002
,
0000
1003
0100
0010
1000
0000
0000
0000
,
0010
0100
0001
0100
1000
0000
0000
0002
,
0000
0103
0010
0100
1000
0000
0000
0000
,
0200
0000
0000
0000
0000
0000
0000
0000
0000
0000
0000
0000
0302
0000
0000
0000
0000
0000
0000
0000
0000
0000
0000
0000
0013
0000
0000
0000
0000
0000
0000
0100
,
1000
0000
0000
0000
0100
0000
0000
0000
0000
0000
0000
0000
0020
0000
0000
0000
0000
0000
0000
0000
0030
0000
0000
0001
0200
0000
0000
0000
0300
0000
0000
0000
,
0001
0100
0010
0100
0010
1000
0100
0010
,
0001
1000
0100
1000
0010
0100
0001
1000
,
0001
0100
0010
1000
0100
0010
0001
0100
,
0010
1000
0100
0010
0001
0100
0010
1000
,
0001
0100
0001
0010
0001
0100
0010
1000
,
0001
0100
0001
0100
0010
1000
0010
0100
,
0022
0000
0000
0000
0000
0000
0000
0000
0033
0000
0000
0000
2200
0000
0000
0000
0000
0000
0000
0000
3300
0000
0000
0000
0001
0000
0000
0000
0000
0000
0000
0040
,
0002
0000
0000
0000
0000
0000
0000
0000
0003
0000
0000
0030
0200
0000
0000
0000
0000
0000
0000
0000
0300
0000
0000
1000
0020
0000
0000
0000
0030
0000
0000
0000
,
1000
0001
0010
0100
0010
0001
0010
0100
,
1000
0010
1000
0100
0010
0001
0100
0001
,
0010
0100
0010
0001
0100
0010
1000
0001
,
0010
0001
1000
0010
1000
0100
0010
0001
,
0100
0001
1000
0010
0100
0010
1000
0100
,
0010
0001
0100
0001
1000
0100
0010
0001
,
2020
0000
0000
0000
0000
0000
0000
0000
3030
0000
0000
0000
0220
0000
0000
0000
0000
0000
0000
0000
0330
0000
0000
0000
1000
0000
0000
0000
0000
0000
0000
0400
,
0020
0000
0000
0000
0000
0000
0000
0000
0030
0000
0000
0300
2000
0000
0000
0000
0000
0000
0000
0000
3000
0000
0000
0001
0200
0000
0000
0000
0300
0000
0000
0000
,
0010
0100
0001
0010
0001
1000
0010
1000
,
0100
1000
0100
0010
0001
0100
0001
0010
,
0100
1000
0010
0100
0001
1000
0001
0100
,
0001
0010
0100
1000
0010
0100
0001
0100
,
0010
0100
0001
1000
0001
0010
0100
1000
,
0001
0010
0001
0100
0001
1000
0010
0100
,
2002
0000
0000
0000
0000
0000
0000
0000
3003
0000
0000
0000
0202
0000
0000
0000
0000
0000
0000
0000
0303
0000
0000
0000
0010
0000
0000
0000
0000
0000
0000
4000
,
0200
0000
0000
0000
0000
0000
0000
0000
0300
0000
0000
3000
0002
0000
0000
0000
0000
0000
0000
0000
0003
0000
0000
0100
0020
0000
0000
0000
0030
0000
0000
0000
,
1000
0100
0010
0001
1000
0010
1000
0100
,
0010
0001
0100
0001
1000
0100
1000
0001
,
0100
0001
0010
0100
0010
0001
1000
0010
,
0100
0010
1000
0100
1000
0001
0100
0010
,
1000
0001
0010
0100
1000
0010
1000
0100
,
0010
0100
1000
0001
0100
0001
0010
0100
,
0022
0000
0000
0000
0000
0000
0000
0000
0033
0000
0000
0000
2200
0000
0000
0000
0000
0000
0000
0000
3300
0000
0000
0000
0010
0000
0000
0000
0000
0000
0000
0004
,
0200
0000
0000
0000
0000
0000
0000
0000
0300
0000
0000
0003
2000
0000
0000
0000
0000
0000
0000
0000
3000
0000
0000
0001
0020
0000
0000
0000
0030
0000
0000
0000
,
0200
0000
0000
0000
,
0300
0000
1000
0010
,
2002
0000
3003
0100
,
1000
0000
0000
0000
0001
0000
0000
0000
0000
0000
0000
0010
0200
0000
0000
0000
0000
0000
0000
0000
0300
0000
0000
0000
1000
0000
0000
0000
0000
0000
0000
0000
,
0022
0000
0000
0033
,
1000
0000
0100
0010
0000
0010
0100
0000
,
0020
0000
0000
0030
,
2000
0000
0000
0002
0000
3000
0103
0010
,
4000
0100
0000
0001
0000
0010
0000
3001
,
0010
0001
1000
0100
0010
0001
1000
0010
,
0400
0001
0000
0010
1300
0000
0001
0000
,
1100
0000
0010
0110
0000
0000
2000
0000
,
0004
3010
0000
0100
0000
0010
0000
1000
,
0103
1000
0010
0100
0001
0000
1000
0000
,
0040
0100
0000
1000
0031
0000
1000
0000
,
0010
0000
0100
0110
0000
0000
0002
0000
,
4000
0013
0000
0100
0000
0010
0000
0001
,
3100
0001
0010
0100
0010
0000
0001
0000
,
4000
0001
0000
0010
3100
0000
0010
0000
,
0100
0000
0010
0110
0000
0000
2000
0000
,
0002
0000
0000
0000
,
0000
0000
0000
3000
,
0103
0000
0000
0000
0010
0000
0000
0000
1000
0000
0000
0000
0100
0000
0000
0000
0000
0000
0000
0000
0010
0000
0000
0000
0100
0000
0000
0000
0000
0000
0000
0010
,
0001
0000
0000
0000
1000
0000
0000
0000
0000
0000
0000
0000
0010
0000
0000
0000
0000
0000
0000
1000
0100
0000
0000
0000
0000
0000
0000
0000
0000
0000
0000
0000
,
10MM
0100
0010
0001
0100
0000
0020
0000
2030
0000
3000
0010
0000
0000
0100
0010
,
2000
0000
0000
3010
0000
0100
0010
0000
1001
0000
0000
0000
0000
0000
0000
0000
,
0100
0001
0100
0010
0100
0000
0002
0000
0023
0000
0030
0100
0000
0000
1000
0010
,
2000
0000
0000
3200
0000
0310
0001
0000
1100
0000
0000
0000
0000
0000
0000
0000
,
2000
0020
3002
2030
0203
3000
0002
0300
2000
0003
0000
3200
0000
0000
0320
0200
,
0032
0300
0003
0200
0000
2300
0002
3000
0443
0000
0000
0000
0330
0000
0000
0000
,
0002
0020
0203
2030
0302
3000
0200
0003
2000
0300
0000
3200
0000
0000
0301
0010
,
2000
0000
0000
3010
0000
0001
0100
0000
4040
0000
0000
0000
3030
0000
0000
0000
,
0MM1
1000
0100
1000
0001
0100
0001
1000
,
0010
0100
0010
1000
0001
0010
0100
1000
,
0001
0010
0100
1000
0001
0100
0010
1000
,
0002
0000
0200
0000
2003
0300
3100
0001
,
0010
0001
0010
0100
1000
0010
0100
0001
,
1000
0000
1000
0010
0000
0100
0001
0100
,
0001
0000
0001
0100
0000
0001
1000
0000
,
0002
0020
2003
0031
,
3100
0010
0001
1000
0010
1000
0001
0100
,
0010
0000
0010
0100
0000
0001
0100
0001
,
0010
0100
1000
0010
0100
0001
0010
0001
,
2000
0000
0200
0000
3002
0300
0103
1000
,
0100
0010
0001
1000
0010
0100
0010
1000
,
0001
0000
0100
0010
0000
1000
0010
1000
,
0200
0000
0000
0002
0000
0003
0020
0030
,
2302
0000
0000
0000
3003
0000
0100
0001
,
0020
0000
0000
2000
0000
3000
0200
0330
,
0202
0000
0000
0000
0303
0000
1000
0010
,
0200
0000
0000
2000
0000
3000
0002
0003
,
0322
0000
0000
0000
0033
0000
0100
1000
,
0020
0000
0000
2000
0000
3000
0002
0033
,
2200
0000
3300
0010
,
1101
0000
0000
0010
0000
0000
0100
0000
,
1011
0000
0000
0100
0000
0000
1000
0000
,
0111
0000
0000
1000
0000
0000
0100
0000
,
1011
0000
0000
0001
0000
0000
0010
0000
,
1111
0000
0000
0000
;

//---------------dance-single - Dreamland200----------------
#NOTEDATA:;
#CHARTNAME:Dreamland200;
#STEPSTYPE:dance-single;
#DESCRIPTION:Dreamland200;
#CHARTSTYLE:;
#DIFFICULTY:Medium;
#METER:9;
#RADARVALUES:0.686571,0.715133,0.371664,0.313992,0.038448,643.000000,58.000000,49.000000,0.000000,0.000000,0.000000,0.000000,0.000000,0.686571,0.715133,0.371664,0.313992,0.038448,643.000000,58.000000,49.000000,0.000000,0.000000,0.000000,0.000000,0.000000;
#CREDIT:Dreamland200;
#DISPLAYBPM:230.000000;
#NOTES:
// measure 0
1001
0000
0110
0000
,  // measure 1
0010
0100
1000
0100
,  // measure 2
0010
0000
0000
0100
0000
0000
1000
0000
,  // measure 3
0001
0100
0010
0100
,  // measure 4
0001
0000
0000
0100
0000
0000
0010
0000
,  // measure 5
1000
0001
0010
0001
,  // measure 6
1000
0000
0010
0000
0100
0000
0010
1000
,  // measure 7
0002
0000
0003
0000
,  // measure 8
1100
0000
0011
0000
,  // measure 9
1000
0100
0010
0100
1000
0000
0000
0010
,  // measure 10
0000
1000
0100
0010
0100
0000
0000
0000
,  // measure 11
0010
0001
0010
0100
0010
0000
0000
0001
,  // measure 12
0000
0100
0010
0100
0001
0000
0000
0000
,  // measure 13
0100
0010
0100
0001
1000
0000
0000
0100
,  // measure 14
0000
1000
0001
0100
0010
0000
0100
0000
,  // measure 15
0002
0000
0000
2003
0000
0000
3100
0000
,  // measure 16
0010
0001
0000
2000
0000
0000
3010
0000
,  // measure 17
0100
0001
0100
0010
0100
0000
0000
0001
,  // measure 18
0000
1000
0100
1000
0001
0000
0100
0000
,  // measure 19
0010
1000
0010
0100
0010
0000
0000
1000
,  // measure 20
0000
0001
0010
0001
1000
0000
0100
0000
,  // measure 21
0010
0001
0010
0100
0010
0000
0000
0001
,  // measure 22
0000
1000
0100
1000
0001
0000
0100
0000
,  // measure 23
0020
0000
0000
0230
0000
0000
0301
0000
,  // measure 24
1000
0100
0000
0020
0000
0000
0031
0000
,  // measure 25
0100
0010
0100
0010
0100
0000
0001
0000
,  // measure 26
0100
0010
1000
0010
1000
0000
0100
0000
,  // measure 27
0010
0001
0010
0001
0010
0000
0100
1000
,  // measure 28
0000
0001
0100
0001
0100
0000
0010
0000
,  // measure 29
0100
0001
0100
0001
0010
0000
0100
1000
,  // measure 30
0000
0010
1000
0010
1000
0000
0100
0000
,  // measure 31
0010
0000
0000
0011
0000
0000
1100
0000
,  // measure 32
1000
0001
0000
0101
0000
0000
1010
0000
,  // measure 33
1000
0010
0100
0010
1000
0000
0100
1000
,  // measure 34
0000
0010
0100
0010
0100
0000
0001
0000
,  // measure 35
0010
0001
0100
0001
0010
0000
0001
1000
,  // measure 36
0000
0001
0100
0010
0100
0000
0001
0000
,  // measure 37
0010
0100
0010
0001
0010
0000
0100
1000
,  // measure 38
0000
0001
0100
0001
0100
0000
0010
0000
,  // measure 39
1010
0000
0000
0101
0000
0000
1001
0000
,  // measure 40
1000
0100
0000
0011
0000
0000
1100
0000
,  // measure 41
1000
0001
1000
0001
0100
0000
0010
0100
,  // measure 42
0000
0001
0010
0001
0010
0000
0100
0000
,  // measure 43
1000
0010
1000
0010
0100
0000
0010
1000
,  // measure 44
0000
0100
0010
0100
0010
0000
0100
0000
,  // measure 45
1000
0001
1000
0001
0100
0000
0001
0010
,  // measure 46
0000
0001
0100
0001
0100
0000
0010
0000
,  // measure 47
1010
0000
0000
0101
0000
0000
1001
0000
,  // measure 48
1000
0100
0000
0011
0000
0000
1100
0000
,  // measure 49
1000
0100
1000
0100
0010
0000
0100
1000
,  // measure 50
0000
0010
0100
0010
0100
0000
0001
0000
,  // measure 51
0010
0001
0010
0001
1000
0000
0010
0100
,  // measure 52
0000
0010
1000
0010
1000
0000
0100
0000
,  // measure 53
0010
0001
0010
0001
0100
0000
0010
0100
,  // measure 54
0000
0001
1000
0001
1000
0000
0100
0000
,  // measure 55
0011
0000
0000
1100
0000
0000
1001
0000
,  // measure 56
0001
0100
0000
1010
0000
0000
0101
0000
,  // measure 57
0001
0010
0100
1000
0001
0000
0000
0100
,  // measure 58
0000
0010
0100
0001
1000
0000
1001
0000
,  // measure 59
1000
0100
1000
0001
0100
0000
0010
0100
,  // measure 60
0000
0001
0010
0100
1000
0000
1100
0000
,  // measure 61
1000
0010
0100
0001
0100
0000
0000
0010
,  // measure 62
1000
0000
0001
1000
0100
0000
0010
0000
,  // measure 63
0011
0000
0000
1100
0000
0000
1001
0000
,  // measure 64
0001
0100
0000
1010
0000
0000
0101
0000
,  // measure 65
0001
0010
0100
1000
0010
0000
1000
0001
,  // measure 66
0000
0100
0010
0100
0001
0000
1000
0000
,  // measure 67
0100
1000
0010
0100
0001
0000
0010
0001
,  // measure 68
0000
0100
0010
1000
0100
0000
0010
0000
,  // measure 69
0100
1000
0010
0100
0001
0000
0100
0010
,  // measure 70
0000
1000
0001
0010
0100
0000
1000
0000
,  // measure 71
1100
0000
0000
1001
0000
0000
0101
0000
,  // measure 72
0001
0100
0000
1010
0000
0000
0110
0000
,  // measure 73
0010
0100
0001
0100
0010
0000
1000
0001
,  // measure 74
0000
1000
0100
0010
0001
0000
1001
0000
,  // measure 75
1000
0100
1000
0010
0100
0000
0001
0010
,  // measure 76
0000
0001
0100
0010
1000
0000
1001
0000
,  // measure 77
0001
0010
0100
1000
0010
0000
1000
0100
,  // measure 78
0000
0010
0001
1000
0100
0000
1000
0000
,  // measure 79
1010
0000
0000
1001
0000
0000
0101
0000
,  // measure 80
0001
1000
0000
1001
0000
0000
1000
0000
,  // measure 81
0020
0000
0000
0000
,  // measure 82
0000
0000
0130
0001
,  // measure 83
2000
0000
0000
3100
,  // measure 84
1000
0010
0000
0100
0000
0000
0001
0000
,  // measure 85
0020
0000
0000
0030
,  // measure 86
0100
0000
1000
0010
0000
1000
0100
0000
,  // measure 87
0020
0000
0000
0030
,  // measure 88
0200
0000
0000
2300
0000
0000
3002
0000
,  // measure 89
0013
0100
0010
0001
,  // measure 90
1000
0100
0010
0001
0000
0000
1000
0000
,  // measure 91
0010
0100
0001
0100
,  // measure 92
0010
0000
0100
0001
0000
0000
1000
0000
,  // measure 93
0100
0010
0001
1000
,  // measure 94
0010
0100
0001
1000
0000
0000
0010
0000
,  // measure 95
0100
0010
1000
0100
,  // measure 96
0010
0000
0001
1000
0000
0000
0100
0000
,  // measure 97
1000
0010
0100
0010
,  // measure 98
1000
0100
0010
0001
0000
0000
1000
0000
,  // measure 99
0010
0100
0001
0100
,  // measure 100
0010
0000
0100
0001
0000
0000
0010
0000
,  // measure 101
0100
1000
0100
0010
,  // measure 102
0001
0100
0010
1000
0000
0000
0010
0000
,  // measure 103
0200
0000
0000
0000
,  // measure 104
0302
0000
0000
2003
0000
0000
3001
0000
,  // measure 105
0200
0000
0320
0000
,  // measure 106
2030
3002
0023
0000
,  // measure 107
0230
0000
0302
0000
,  // measure 108
0203
2300
3020
0000
,  // measure 109
0130
0001
0100
0001
1000
0000
0100
0000
0010
0000
0000
0100
0000
0000
1000
0100
,  // measure 110
1000
0000
0000
0001
0000
0100
0001
0000
0020
0000
0000
0000
0000
0000
0000
0000
,  // measure 111
0130
1000
0100
1000
0010
0000
0100
0000
0001
0000
0000
1000
0000
0000
0001
0010
,  // measure 112
0001
0000
0000
0100
0000
0010
0100
0000
0002
0000
0000
0000
0000
0000
0000
0000
,  // measure 113
1003
0010
1000
0100
1000
0010
1000
0100
,  // measure 114
1000
0100
0000
1100
0000
0000
1000
0000
,  // measure 115
0001
0100
0001
0010
0001
0100
0001
0010
,  // measure 116
0001
0000
0100
0000
0001
0000
0000
0001
,  // measure 117
1000
0010
1000
0001
0010
0001
1000
0010
,  // measure 118
1000
0000
0000
0101
0000
0000
0010
1000
,  // measure 119
0200
0000
0000
2300
0000
0000
3001
0000
,  // measure 120
0001
0100
0010
1000
,  // measure 121
0001
0100
0001
0010
0001
0100
0001
0010
,  // measure 122
0001
0010
0000
0011
0000
0000
0001
0000
,  // measure 123
1000
0010
1000
0100
1000
0010
1000
0100
,  // measure 124
1000
0000
0010
0000
1000
0000
0000
1000
,  // measure 125
0001
0100
0001
1000
0100
1000
0001
0100
,  // measure 126
0001
0000
0000
1010
0000
0000
0100
0001
,  // measure 127
0020
0000
0000
0032
0000
0000
2003
0000
,  // measure 128
3020
0000
0000
0000
0000
0000
0130
0001
,  // measure 129
2000
0000
0000
3020
0000
0000
0230
0000
,  // measure 130
0302
0000
0000
0000
0000
0000
0013
0001
,  // measure 131
0200
0000
0000
0320
0000
0000
2030
0000
,  // measure 132
3002
0000
0000
0000
0000
0000
0013
0001
,  // measure 133
2000
0000
0000
3020
0000
0000
0230
0000
,  // measure 134
0302
0000
0000
0013
,  // measure 135
0011
0000
0000
0011
0000
0000
1001
0000
,  // measure 136
1100
0000
0000
1100
0000
0000
1010
0000
,  // measure 137
1001
0000
0000
1001
0000
0000
0101
0000
,  // measure 138
0110
0000
0000
0110
0000
0000
1010
0000
,  // measure 139
2002
0000
3003
0000
;
