#TITLE:Zankyo Sanka;
#SUBTITLE:;
#ARTIST:Aimer;
#TITLETRANSLIT:;
#SUBTITLETRANSLIT:;
#ARTISTTRANSLIT:;
#GENRE:;
#CREDIT:;
#BANNER:Zankyo Sanka-bn.jpg;
#BACKGROUND:Zankyo Sanka-bg.png;
#LYRICSPATH:;
#CDTITLE:cdtitle_ukiarrow.png;
#MUSIC:Zankyo Sanka.mp3;
#OFFSET:0.560000;
#SAMPLESTART:48.147964;
#SAMPLELENGTH:12.000000;
#SELECTABLE:YES;
#BPMS:0.000000=171.000000
;
#STOPS:
;
#BGCHANGES:0.750=Zankyo Sanka.mp4=1.000=0=0=1=====,
99999=-nosongbg-=1.000=0=0=0 // don't automatically add -songbackground-
;
#KEYSOUNDS:;
#ATTACKS:;

//---------------dance-single - ----------------
#NOTES:
     dance-single:
     :
     Hard:
     11:
     0.563773,0.593312,0.398053,0.420799,0.028432,347.000000,312.000000,35.000000,37.000000,0.000000,0.000000,0.563773,0.593312,0.398053,0.420799,0.028432,347.000000,312.000000,35.000000,37.000000,0.000000,0.000000:
0000
0000
0000
0000
,
0000
0000
0000
0000
,
0000
0000
0000
0000
,
0000
0000
1000
0000
0010
0100
0000
0001
,
0000
0100
0000
0010
0000
0001
0000
0010
,
0000
0000
0000
0000
1000
0000
0000
0100
0000
0000
0010
0000
0000
0000
0001
0000
,
0000
0010
0000
1000
0010
0100
0110
0000
,
1001
0000
1000
0000
0100
0010
0000
1010
,
0000
0001
0000
0011
0000
1000
0000
2002
,
0000
3003
0001
0100
0000
0010
0000
1000
,
0000
0001
1000
0100
0000
0010
0000
0001
,
0000
0000
0001
0000
0010
0100
0000
0101
,
0000
1000
0000
1100
0000
0001
0000
2002
,
0000
3003
1000
0010
0000
0100
0000
0001
,
0000
1000
0001
0010
0100
1000
0000
0002
,
0000
0000
1003
0000
0010
0000
1000
0100
,
0010
0001
1000
0000
0010
0000
0220
0000
,
0330
0000
0001
0000
0100
0000
0001
0010
,
0100
1000
0001
0010
0001
0000
1000
0010
,
1000
0000
0000
0000
0001
0000
0100
0000
0010
0000
1000
0000
0001
0000
0000
1000
,
0000
0001
0100
0000
0110
0000
1001
0000
,
0002
0000
0013
1000
0020
0000
0031
0000
,
1000
0000
0001
0000
0010
0000
0000
0100
0000
0000
1000
0000
0001
0000
0000
0000
,
1001
0002
0203
1300
,
0100
0001
0200
0000
0301
0000
0220
0000
,
0330
0000
0010
1000
0020
0000
1030
0010
,
0001
0010
0100
0000
0010
0000
0220
0000
,
0330
0000
0002
0000
0103
1000
0020
0000
,
0031
0100
2000
0000
3010
0001
0200
0000
,
0310
0000
1001
0000
1000
0100
0010
0000
,
0010
0001
1000
0000
1000
0010
0100
0001
,
0000
0001
1000
0100
1000
0010
1000
0010
,
0100
0001
0100
0001
0010
0001
1000
0100
,
1000
0000
0001
0000
0010
0000
0000
0100
0000
0000
1000
0000
0000
0100
0000
0000
,
0010
0001
0000
1000
0001
1000
0000
2001
,
0000
0000
3001
0000
0100
0000
0010
1000
,
0100
1000
0010
0100
0001
0000
0020
0000
,
0130
0010
0010
0000
0010
0001
0100
0000
,
0101
0000
0110
0000
0010
1000
0002
0000
,
0003
0000
0200
0000
0301
0100
1000
0000
,
1000
0100
0001
0000
0001
0100
0020
0000
,
1030
0100
0100
0010
0100
0000
0100
0001
,
0100
0000
2200
0000
3300
0000
0100
1000
,
0100
0010
0001
0000
0101
0000
0100
1000
,
0100
0001
0200
0000
0310
0000
2002
0000
,
3003
0010
1000
0000
0001
1000
0100
0000
,
0010
0000
0011
0000
0001
1000
0010
0100
,
0010
0100
0002
0000
1003
0100
0001
0000
,
0001
0100
1000
0000
1000
0100
0010
0000
,
0110
0000
0001
0010
0100
0010
0001
0000
,
1000
0010
0001
0000
0001
0010
1000
0000
,
1001
0000
1000
0100
0100
0001
0010
0010
,
1000
0001
2000
0000
3000
0000
0110
0000
,
1001
0000
0001
0100
0001
1000
0000
1010
,
0000
0100
0000
0101
0000
0010
0000
2002
,
0000
3003
1000
0100
0000
1100
0000
0011
,
0000
0001
1000
0010
0000
1010
0000
0101
,
0000
0100
0001
0010
0001
0010
0001
0100
,
0010
1000
0100
0010
0100
0010
0001
1000
,
0010
0100
0001
0010
0100
0010
1000
0010
,
0001
1000
0010
0100
0010
0001
0000
0011
,
0000
2020
0000
3030
0000
0000
0000
0000
;

//---------------dance-single - ----------------
#NOTES:
     dance-single:
     :
     Medium:
     10:
     0.489037,0.556137,0.113729,0.443545,0.028432,301.000000,291.000000,10.000000,39.000000,0.000000,0.000000,0.489037,0.556137,0.113729,0.443545,0.028432,301.000000,291.000000,10.000000,39.000000,0.000000,0.000000:
0000
0000
0000
0000
,
0000
0000
0000
0000
,
0000
0000
0000
0000
,
0000
0000
1000
0000
0010
0100
0000
0001
,
0000
1000
0000
0100
0000
0010
0000
0001
,
0000
0000
0010
0000
0001
0000
0000
0100
0000
0000
0010
0000
0000
0000
1000
0000
,
0000
0100
0000
0010
0001
1000
1100
0000
,
1100
0000
0100
0000
0010
0001
0000
1000
,
0000
0010
0000
0100
0000
0001
0000
1000
,
0001
0000
0010
0001
0000
0010
0000
0100
,
1000
0000
0010
1000
0000
0010
0000
0110
,
0000
0100
0001
0000
0001
0010
0000
0100
,
0000
1000
0000
0001
0000
0100
0000
0010
,
1000
0000
0001
0100
0000
0010
0000
0100
,
0000
0001
0000
1000
0000
0010
0000
0200
,
0000
0000
0301
0000
1000
0000
0100
1000
,
0100
0010
0002
0000
1003
0000
2002
0000
,
3003
0000
1000
0000
0001
0000
0100
0001
,
0100
0010
2000
0000
3001
0000
0002
1000
,
1003
0000
1000
0000
0001
0010
0100
0000
,
1000
0100
1000
0000
2000
0000
3001
0000
,
0010
0001
0010
0000
0100
1000
0100
0000
,
1000
0000
0010
0000
1000
0000
0000
0001
0000
0000
0100
0000
0002
0000
0000
0000
,
0003
1000
0100
0010
,
0010
0001
0200
0000
0310
0000
0220
0000
,
0330
0000
0001
0100
0010
0000
0010
1000
,
0200
0320
0130
0220
,
0330
0000
1000
0000
1000
0100
0001
0000
,
0001
0100
1000
0000
1000
0100
0020
0000
,
0031
0000
1001
0000
0001
0010
0001
0000
,
1000
0010
1000
0000
0001
0100
0001
0100
,
0020
0000
1030
0010
0100
0000
0001
0100
,
0010
0000
1000
0100
0010
0000
0001
0010
,
0100
0000
0000
0000
1000
0000
0000
0100
0000
0000
0010
0000
0000
0001
0000
0000
,
1000
0001
0000
0002
2000
0000
3003
0000
,
0000
0000
0002
0000
0103
0000
0010
1000
,
0010
1000
0010
0000
0200
0000
0002
0000
,
0303
0001
0020
0000
0000
0100
0130
0000
,
1000
0000
0001
1000
0000
0010
1000
0100
,
0200
0000
0310
0000
0010
0001
0100
0000
,
0100
0001
0010
0000
0010
0001
2000
0000
,
3000
0001
0001
0100
0010
0000
1000
0010
,
0100
0000
0000
0000
0001
0000
0000
1000
0000
0000
0100
0000
0000
0000
0220
0000
,
0000
0330
2000
0000
3010
0000
0100
0001
,
0100
0001
0100
0000
0020
0000
2000
0000
,
3030
1000
0200
0000
0000
0010
0310
0000
,
0002
0000
2000
0000
0003
0002
0000
0000
,
3003
0000
0001
0000
0001
0100
1000
0000
,
1000
0100
0001
0000
0001
0100
0020
0000
,
0030
0000
1000
0000
1000
0010
0001
0000
,
0001
0010
1000
0000
1000
0100
0020
0000
,
0030
0000
0001
0010
0001
1000
0100
1000
,
0001
0100
0020
0000
0030
0000
0100
0000
,
0100
0000
0002
0000
1003
0100
0000
0010
,
0000
0001
0000
1000
0000
0100
0000
1000
,
0001
0000
0001
0100
0000
0010
0000
1000
,
0001
0000
0001
0010
0000
0100
0000
1000
,
0000
0001
0200
0000
0301
0100
0001
0100
,
0001
1000
0001
1000
0001
0010
0001
0010
,
0001
0000
1000
0100
1000
0100
1000
0001
,
1000
0001
1000
0100
0010
0001
0000
1001
,
0000
1001
0000
0000
0000
0000
0000
0000
;

//---------------dance-single - ----------------
#NOTES:
     dance-single:
     :
     Easy:
     4:
     0.295696,0.382344,0.420799,0.000000,0.000000,182.000000,145.000000,37.000000,0.000000,0.000000,0.000000,0.295696,0.382344,0.420799,0.000000,0.000000,182.000000,145.000000,37.000000,0.000000,0.000000,0.000000:
// measure 0
0000
0000
0000
0000
,  // measure 1
0000
0000
0000
0000
,  // measure 2
0000
0000
0000
0000
,  // measure 3
0000
0000
0000
0000
,  // measure 4
0000
0000
0000
0000
,  // measure 5
0000
0000
0000
0000
,  // measure 6
0000
0000
0000
0000
,  // measure 7
0000
1001
1001
0000
,  // measure 8
0010
0000
0100
0000
,  // measure 9
0001
1001
1001
0000
,  // measure 10
1000
1001
1001
0000
,  // measure 11
0001
0100
0100
0000
,  // measure 12
0010
0000
1000
0000
,  // measure 13
0001
1001
1001
0000
,  // measure 14
0000
0110
0110
0000
,  // measure 15
0000
0001
0001
0100
,  // measure 16
0000
0010
0000
1000
,  // measure 17
0000
1000
1000
0100
,  // measure 18
0000
0010
0000
1001
,  // measure 19
0000
0001
0001
0001
,  // measure 20
0000
0100
0100
0100
,  // measure 21
0000
0010
0010
1000
,  // measure 22
0000
0001
0000
1001
,  // measure 23
0000
1000
1000
1000
,  // measure 24
0000
0100
0000
0110
,  // measure 25
0000
0001
0001
0001
,  // measure 26
0000
0100
0000
0110
,  // measure 27
0000
1000
0000
0100
,  // measure 28
0000
0001
0000
0010
,  // measure 29
0000
1001
0000
0110
,  // measure 30
0000
1001
0000
1001
,  // measure 31
0000
0001
0001
0100
,  // measure 32
0000
0010
0010
1000
,  // measure 33
0000
0000
1001
0000
0000
1001
0000
0000
,  // measure 34
1001
0000
0000
1000
1000
0000
0000
0000
,  // measure 35
0000
0001
0001
1000
,  // measure 36
0000
1000
1000
0001
,  // measure 37
0000
1001
0000
0110
,  // measure 38
0000
1001
0000
0110
,  // measure 39
0000
0010
0010
0100
,  // measure 40
0000
0100
0100
0010
,  // measure 41
0000
0110
0000
1001
,  // measure 42
0000
0110
0000
0000
,  // measure 43
0000
1000
0010
0010
,  // measure 44
0000
0100
0001
0001
,  // measure 45
0000
1001
0000
0110
,  // measure 46
0000
1001
0000
1001
,  // measure 47
0000
0001
0001
1000
,  // measure 48
1000
0001
1000
0001
,  // measure 49
0000
1000
1000
0001
,  // measure 50
0001
1000
0001
1000
,  // measure 51
0000
0010
0010
0010
,  // measure 52
0010
0110
0000
1001
,  // measure 53
0000
1000
1000
1000
,  // measure 54
0000
0100
0000
0010
,  // measure 55
0000
0001
0001
0001
,  // measure 56
0000
1000
1000
1000
,  // measure 57
0000
0001
0001
1000
,  // measure 58
1000
0001
1000
0001
,  // measure 59
1000
0001
0001
1000
,  // measure 60
1000
0000
1001
0000
0000
0110
0000
0000
,  // measure 61
0000
1001
0000
0000
0000
0000
0000
0000
;
