#VERSION:0.83;
#TITLE:VIVID VICE;
#SUBTITLE:;
#ARTIST:Who-ya Extended;
#TITLETRANSLIT:;
#SUBTITLETRANSLIT:;
#ARTISTTRANSLIT:;
#GENRE:;
#ORIGIN:;
#CREDIT:;
#BANNER:VIVID VICE-bn.jpg;
#BACKGROUND:VIVID VICE-bg.png;
#PREVIEWVID:;
#JACKET:VIVID VICE-jacket.jpg;
#CDIMAGE:;
#DISCIMAGE:;
#LYRICSPATH:;
#CDTITLE:cdtitle_ukiarrow.png;
#MUSIC:VIVID VICE.mp3;
#OFFSET:0.960000;
#SAMPLESTART:51.479980;
#SAMPLELENGTH:12.000000;
#SELECTABLE:YES;
#BPMS:0.000=184.000;
#STOPS:;
#DELAYS:;
#WARPS:;
#TIMESIGNATURES:0.000=4=4;
#TICKCOUNTS:0.000=4;
#COMBOS:0.000=1;
#SPEEDS:0.000=1.000=0.000=0;
#SCROLLS:0.000=1.000,
221.000=0.500,
228.500=1.000;
#FAKES:;
#LABELS:0.000=Song Start;
#BGCHANGES:3.125=VIVID VICE.mp4=1.000=0=0=1=====,
99999=-nosongbg-=1.000=0=0=0 // don't automatically add -songbackground-
;
#KEYSOUNDS:;
#ATTACKS:
;

//---------------dance-single - ----------------
#NOTEDATA:;
#CHARTNAME:;
#STEPSTYPE:dance-single;
#DESCRIPTION:;
#CHARTSTYLE:;
#DIFFICULTY:Hard;
#METER:13;
#RADARVALUES:0.593508,0.863712,0.329568,0.279634,0.059922,416.000000,383.000000,33.000000,28.000000,0.000000,0.000000,0.000000,0.000000,0.000000,0.593508,0.863712,0.329568,0.279634,0.059922,416.000000,383.000000,33.000000,28.000000,0.000000,0.000000,0.000000,0.000000,0.000000;
#CREDIT:;
#NOTES:
0000
0000
0000
0000
,
0000
0000
0000
0000
,
0000
0000
0000
0000
,
0000
0000
0000
0000
,
0000
0000
0000
0000
,
0000
0000
0100
1000
0100
1000
0001
1000
,
0010
1000
0001
0100
0001
0100
0001
1000
,
0010
0000
0010
1000
0010
1000
0001
1000
,
0100
1000
0010
1000
0001
0020
0000
0100
,
0000
0030
0001
0100
0001
0100
0001
1000
,
0001
0010
0100
1000
0001
1000
0010
1000
,
0001
2020
0000
0000
,
3030
0000
0001
0100
0010
0100
0000
0101
,
0000
1010
0000
0010
1000
0100
0010
0001
,
1000
0010
0100
0001
0010
0100
1000
0001
,
0000
1001
0000
1000
0100
1000
0010
0100
,
0001
0010
0100
1000
0010
0100
0000
0110
,
0000
1001
0000
0001
0010
0001
0100
0010
,
1000
0100
0010
0100
1000
0010
0100
0001
,
0000
0000
1000
0100
1000
0000
1010
0000
,
0001
0010
0100
0010
0001
1000
0000
1001
,
0000
0100
0000
1100
0000
0110
0000
0011
,
0000
0002
0000
1003
0010
0100
0001
1000
,
0010
0000
0001
0010
0001
0000
0101
0000
,
1000
0100
0000
0110
0000
1100
0000
1001
,
0000
0010
1000
0010
0100
0001
1000
0100
,
0000
2000
0000
3001
0100
0010
1000
1001
,
0000
0000
0001
0100
0001
0010
0000
1000
,
0010
0001
0000
0001
0010
0100
0000
0010
,
0100
1000
0001
1000
0010
1000
0000
0100
,
1000
0000
0010
0000
1000
0000
0000
0001
0000
0000
0100
0000
0000
0000
0010
0000
,
0100
0001
1000
0001
0100
0010
1000
0000
,
0100
1000
0001
1000
0000
1010
0000
0010
,
0100
0001
0000
0001
0010
1000
0000
1000
,
0010
0100
1000
0100
0010
0001
1000
0001
,
0100
0002
0000
0103
,
0000
0000
0010
0100
0000
0100
0010
0000
,
1000
2000
0000
3100
,
0000
0000
0010
0100
0000
0100
0010
0001
,
0000
2002
0000
3000
,
0000
0000
0203
0000
0310
0000
1000
1001
,
0000
0002
0000
0103
0010
1000
0001
0100
,
0001
0000
0010
0000
0100
0000
0000
1000
0000
0000
0001
0000
0010
0000
0100
0000
,
0000
1100
0000
1000
0100
0010
0001
1000
,
0001
0100
0010
1000
0001
0010
0100
1000
,
0000
0011
0000
0001
0010
0001
1000
0001
,
0100
0000
0001
0000
1000
0000
0000
0010
0000
0000
0100
0000
0010
0000
1000
0000
,
0000
1001
0000
0001
0100
0110
0000
0010
,
0100
0101
0000
0001
1000
0010
0100
0100
,
0000
1001
0000
1000
0100
1000
0010
0100
,
0001
1000
0001
0010
0100
0001
0100
1000
,
0000
0011
0000
0001
0010
1000
0001
0100
,
1000
0010
0100
0100
0001
0010
0100
1000
,
0000
0110
0000
0010
0001
0010
0100
0010
,
1000
0010
0100
1000
0001
0100
0010
1000
,
0000
0102
0000
0000
0000
0000
0000
0000
,
0000
0003
0000
0000
,
0000
0110
0000
0001
1000
0100
0001
0100
,
1000
0010
0001
0010
1000
0100
0010
0001
,
0000
0011
0000
1000
0001
0100
1000
0100
,
0001
0010
1000
0010
0001
0100
0010
1000
,
0000
1001
0000
0001
1000
0100
0010
1000
,
0001
0100
0010
0001
1000
0100
0010
1000
,
0000
0110
0000
2000
3020
0230
2300
3002
,
0023
0230
0302
2003
3020
0230
2300
3002
,
0023
0030
2002
0000
0000
0000
0000
0000
,
0000
0000
0000
0000
,
0000
0000
3003
0000
0100
0001
0100
0000
0010
0100
0010
0000
0100
0001
0100
0000
,
0010
0100
0010
0000
0100
1000
0100
0000
0010
0100
0010
0000
0100
1000
0100
0000
,
0010
0100
0001
1000
0000
0000
0000
0000
0000
0000
0000
0000
0000
0000
0000
0000
;

//---------------dance-single - ----------------
#NOTEDATA:;
#CHARTNAME:;
#STEPSTYPE:dance-single;
#DESCRIPTION:;
#CHARTSTYLE:;
#DIFFICULTY:Medium;
#METER:11;
#RADARVALUES:0.530733,0.582549,0.289621,0.169778,0.009987,372.000000,343.000000,29.000000,17.000000,0.000000,0.000000,0.000000,0.000000,0.000000,0.530733,0.582549,0.289621,0.169778,0.009987,372.000000,343.000000,29.000000,17.000000,0.000000,0.000000,0.000000,0.000000,0.000000;
#CREDIT:;
#OFFSET:0.960000;
#BPMS:0.000000=184.000000
;
#STOPS:161.000000=0.652176
;
#DELAYS:;
#WARPS:;
#TIMESIGNATURES:0.000000=4=4
;
#TICKCOUNTS:0.000000=4
;
#COMBOS:0.000000=1
;
#SPEEDS:0.000000=1.000000=0.000000=0
;
#SCROLLS:0.000000=1.000000
,219.000000=0.500000
,226.500000=1.000000
;
#FAKES:;
#LABELS:0.000000=Song Start
;
#NOTES:
0000
0000
0000
0000
,
0000
0000
0000
0000
,
0000
0000
0000
0000
,
0000
0000
0000
0000
,
0000
0000
0000
0000
,
0000
0000
0100
1000
0001
1000
0000
0010
,
0000
0100
0000
0001
0000
1000
0000
0100
,
0000
0010
0001
0000
0001
0000
1000
0000
,
1000
0000
0010
0100
0001
1000
0000
0100
,
0010
0000
0001
0010
0001
1000
0000
0100
,
0000
0010
0000
0001
0000
1000
0000
0010
,
0000
0100
0002
0000
0000
0000
0000
0000
,
0003
0000
0001
0010
0000
0011
0000
1100
,
0000
1010
0000
0010
0100
0001
1000
0001
,
0100
0010
0100
0001
1000
0001
0100
0010
,
0000
0110
0000
0010
1000
0001
1000
0010
,
0100
0010
1000
0001
1000
0010
0100
0010
,
0000
1010
0000
1000
0001
0100
0010
0100
,
0001
1000
0001
0100
0010
0100
0001
1000
,
0001
0000
2000
0000
3010
0000
0100
0001
,
0000
0010
0100
1000
0001
1000
0000
0010
,
0000
1010
0000
1000
0000
1001
0000
0001
,
0000
0101
0000
0100
0010
0000
2000
0000
,
0000
0000
3001
0000
0010
0000
0100
1000
,
0000
0001
0000
1000
0010
0000
0100
0001
,
0000
0101
0000
1000
0000
1100
0000
0001
,
0000
1001
0000
0100
0000
0110
0000
0002
,
0000
0000
1003
0100
1000
0100
0000
0010
,
0100
0010
0000
0001
0010
0001
0000
1000
,
0001
0100
0001
0100
0010
1000
0000
0010
,
1000
0000
0001
0000
0010
0000
0000
0001
0000
0000
2000
0000
0000
0000
0000
0000
,
3001
0100
0000
0001
0100
0001
1000
0000
,
0010
1000
0001
1000
0000
0100
0000
0010
,
0100
0010
0000
0011
0000
0110
0000
1100
,
0000
1000
0000
0100
0010
0001
0000
1000
,
0000
0010
0200
0000
0000
0301
0200
0000
,
0300
0010
0000
1000
0000
0001
2000
0000
,
0000
0000
3200
0000
0000
1300
0200
0000
,
0000
0310
0000
0001
0000
1000
0001
0100
,
0000
0220
0000
0000
,
0000
0000
0330
0000
0000
1001
0000
1000
,
0100
0010
0001
0010
0100
0000
1000
0100
,
0010
0001
0010
0100
0000
0110
0000
1000
,
0010
0100
0001
0100
0010
1000
0010
0100
,
0001
0100
0000
0102
0000
1003
0000
0001
,
0100
0000
0001
0000
1000
0000
0001
0000
0100
0000
0001
0000
1000
0000
0000
0010
,
0000
0100
0000
0001
0000
1001
0000
1000
,
0000
1100
0000
0100
0010
0000
0110
0000
,
0001
0000
0001
1000
0000
1001
0000
0001
,
0100
0010
0100
0001
1000
0010
0100
0010
,
1000
0001
0100
0010
0000
1010
0000
0010
,
1000
0001
0010
0100
0010
0001
1000
0010
,
1000
0001
0010
0100
0000
0110
0000
1000
,
0100
1000
0100
0010
0001
0010
0001
1000
,
0010
1000
0000
0001
0100
0002
0000
0000
,
1000
0000
1000
0000
1000
0000
1000
0003
,
0000
0000
0000
0000
0000
1000
0000
0100
,
1000
0100
0010
0001
0010
0100
1000
0100
,
0010
0001
0010
0100
0000
1001
0000
0001
,
0100
0010
1000
0010
0100
0001
0100
0010
,
1000
0010
0100
0001
0000
1001
0000
1000
,
0010
0100
0001
0100
0010
1000
0010
0100
,
0001
0100
0010
1000
0000
0002
0000
1003
,
0001
0100
0010
1000
0100
0010
0001
0100
,
0010
1000
0100
0010
0001
0000
2002
0000
,
0000
0000
0000
0000
,
0000
0000
0000
0000
3003
0000
0001
0010
,
0100
1000
0010
0100
0001
0010
1000
0010
,
0001
0100
1000
0100
0001
1001
0000
0000
;

//---------------dance-single - ----------------
#NOTEDATA:;
#CHARTNAME:;
#STEPSTYPE:dance-single;
#DESCRIPTION:;
#CHARTSTYLE:;
#DIFFICULTY:Easy;
#METER:6;
#RADARVALUES:0.316728,0.342676,0.079895,0.519320,0.000000,222.000000,214.000000,8.000000,52.000000,0.000000,0.000000,0.000000,0.000000,0.000000,0.316728,0.342676,0.079895,0.519320,0.000000,222.000000,214.000000,8.000000,52.000000,0.000000,0.000000,0.000000,0.000000,0.000000;
#CREDIT:;
#OFFSET:0.960000;
#BPMS:0.000000=184.000000
;
#STOPS:161.000000=0.652176
;
#DELAYS:;
#WARPS:;
#TIMESIGNATURES:0.000000=4=4
;
#TICKCOUNTS:0.000000=4
;
#COMBOS:0.000000=1
;
#SPEEDS:0.000000=1.000000=0.000000=0
;
#SCROLLS:0.000000=1.000000
,219.000000=0.500000
,226.500000=1.000000
;
#FAKES:;
#LABELS:0.000000=Song Start
;
#NOTES:
0000
0000
0000
0000
,
0000
0000
0000
0000
,
0000
0000
0000
0000
,
0000
0000
0000
0000
,
0000
0000
0000
0000
,
0000
0100
1000
0001
,
0010
0001
1000
0200
,
0300
0010
0100
1000
,
0001
0100
0001
2000
,
3000
0001
1000
0010
,
1000
0001
0010
0002
,
0003
2002
0000
0000
,
3003
0000
0001
0010
0000
0100
0000
1000
,
0000
1001
0000
0000
0200
0000
0302
0000
,
0203
0320
2030
3001
,
0000
1001
0000
0000
0002
0000
2003
0000
,
3020
0230
0320
1030
,
0000
1001
0000
0000
2000
0000
3200
0000
,
0320
0032
0203
0320
,
0000
0130
0001
0001
,
0000
0010
0000
0100
0000
1000
0000
0010
,
0000
1000
0000
1000
0000
0001
0000
0001
,
0000
0100
0000
0010
1000
0000
2000
0000
,
0000
3001
0010
0100
,
0000
1000
0000
0010
0000
0100
0000
0001
,
0000
0100
0000
1000
0000
0100
0000
0001
,
0000
1000
0000
0100
0000
0010
0000
0002
,
0000
0000
1003
0000
0100
0010
0000
0001
,
0000
1000
0000
0010
0000
0100
0000
0001
,
0000
0000
0001
0000
0100
0010
0000
1000
,
0000
0001
2000
0000
0000
3001
0000
0000
,
0000
0001
0100
0010
,
1000
0000
0010
0100
0000
0001
0000
0010
,
0000
0100
0000
1000
0000
0100
0000
0010
,
0000
0001
0000
1000
0000
0001
0000
0020
,
0000
0230
0300
2000
,
0000
3020
0000
0230
,
0000
0302
0003
2000
,
0000
3200
0000
0320
,
0000
0200
0000
0000
,
0000
0330
0000
0001
,
0010
0100
1000
0100
,
0010
0000
0001
0100
0000
0200
0000
0000
,
0310
0100
0001
0100
,
0010
0000
1000
0001
0000
0002
0000
0000
,
1003
0001
0100
0001
,
1000
0000
0100
0010
0000
0220
0000
0330
,
0000
2002
0000
3003
0000
0220
0000
0330
,
0000
0000
0001
1000
0000
2000
0000
0000
,
3001
0010
0100
0010
,
1000
0000
0001
1000
0000
2000
0000
0000
,
3001
0100
0010
0100
,
1000
0000
1000
0001
0000
0002
0000
0000
,
0103
0010
1000
0010
,
0100
0000
0001
0100
0000
0002
0000
0000
,
0000
0000
0000
0000
,
0000
0000
0003
0000
0000
2000
0000
0000
,
3100
0010
0001
0010
,
0100
0000
1000
0100
0000
0020
0000
0000
,
0031
0010
0100
1000
,
0100
0000
0010
0001
0000
0020
0000
0000
,
0130
1000
0100
0010
,
0001
0000
0010
0100
0000
2000
0000
0000
,
3100
0010
0001
0010
,
0100
0000
1000
0001
1000
0000
2002
0000
,
0000
0000
0000
0000
,
0000
0000
3003
0001
,
0100
1000
0010
0001
,
0100
0000
1000
0000
0010
0001
0000
0000
;

//---------------dance-single - ----------------
#NOTEDATA:;
#CHARTNAME:;
#STEPSTYPE:dance-single;
#DESCRIPTION:;
#CHARTSTYLE:;
#DIFFICULTY:Beginner;
#METER:3;
#RADARVALUES:0.212579,0.273642,0.069908,0.019974,0.000000,149.000000,142.000000,7.000000,2.000000,0.000000,0.000000,0.000000,0.000000,0.000000,0.212579,0.273642,0.069908,0.019974,0.000000,149.000000,142.000000,7.000000,2.000000,0.000000,0.000000,0.000000,0.000000,0.000000;
#CREDIT:;
#OFFSET:0.960000;
#BPMS:0.000000=184.000000
;
#STOPS:161.000000=0.652176
;
#DELAYS:;
#WARPS:;
#TIMESIGNATURES:0.000000=4=4
;
#TICKCOUNTS:0.000000=4
;
#COMBOS:0.000000=1
;
#SPEEDS:0.000000=1.000000=0.000000=0
;
#SCROLLS:0.000000=1.000000
,219.000000=0.500000
,226.500000=1.000000
;
#FAKES:;
#LABELS:0.000000=Song Start
;
#NOTES:
// measure 0
0000
0000
0000
0000
,  // measure 1
0000
0000
0000
0000
,  // measure 2
0000
0000
0000
0000
,  // measure 3
0000
0000
0000
0000
,  // measure 4
0000
0000
0000
0000
,  // measure 5
0000
1000
0000
0100
,  // measure 6
0000
1000
1000
1000
,  // measure 7
0000
0001
0000
0010
,  // measure 8
0000
0001
0001
0001
,  // measure 9
0000
1000
0000
0010
,  // measure 10
0000
0100
0100
0100
,  // measure 11
0000
1001
0000
0000
,  // measure 12
0000
1001
0000
0000
,  // measure 13
0000
0001
0000
0100
,  // measure 14
0000
0001
0000
0100
,  // measure 15
0000
0010
0000
1000
,  // measure 16
0000
0010
0000
1000
,  // measure 17
0000
0001
0000
0100
,  // measure 18
0000
0001
0000
0100
,  // measure 19
0000
1000
0000
0100
,  // measure 20
0000
0010
0000
0001
,  // measure 21
0000
0001
0000
0010
,  // measure 22
0000
0100
0000
1000
,  // measure 23
0000
0001
0000
0100
,  // measure 24
0000
0010
0000
1000
,  // measure 25
0000
1000
0000
0010
,  // measure 26
0000
0100
0000
0001
,  // measure 27
0000
1000
1000
1000
,  // measure 28
0000
0100
0100
0100
,  // measure 29
0000
0010
0010
0010
,  // measure 30
0000
0001
0000
0001
,  // measure 31
0000
0100
0100
0100
,  // measure 32
0000
0001
0001
0001
,  // measure 33
0000
1000
1000
1000
,  // measure 34
0000
0010
0010
0010
,  // measure 35
0000
1000
0000
0100
,  // measure 36
0000
0001
0000
0100
,  // measure 37
0000
1000
0000
0010
,  // measure 38
0000
0001
0000
0010
,  // measure 39
0000
2002
0000
3003
,  // measure 40
0000
0000
0000
0001
,  // measure 41
0000
0010
0000
0100
,  // measure 42
0100
0100
0000
1000
,  // measure 43
0000
0010
0000
0100
,  // measure 44
0100
0100
0000
0001
,  // measure 45
0000
0100
0000
0010
,  // measure 46
0010
0010
0000
1000
,  // measure 47
0000
0100
0000
0010
,  // measure 48
0010
0010
0000
0001
,  // measure 49
0000
1000
0000
0010
,  // measure 50
0010
0010
0000
1000
,  // measure 51
0000
0001
0000
0010
,  // measure 52
0010
0010
0000
0001
,  // measure 53
0000
0100
0000
0001
,  // measure 54
0001
0001
0000
1000
,  // measure 55
0000
0000
0000
0000
,  // measure 56
0000
0000
0000
0000
,  // measure 57
1000
1000
0000
0010
,  // measure 58
0000
0110
0000
0100
,  // measure 59
0100
0100
0000
0001
,  // measure 60
0000
1001
0000
0010
,  // measure 61
0010
0010
0000
0100
,  // measure 62
0000
0110
0000
1000
,  // measure 63
1000
1000
0000
0001
,  // measure 64
0001
0001
0000
1001
,  // measure 65
0000
0000
0000
0000
,  // measure 66
0000
0000
0000
0010
,  // measure 67
0010
0010
0010
0010
,  // measure 68
0010
0010
0010
0000
;
