#VERSION:0.83;
#TITLE:Thor;
#SUBTITLE:;
#ARTIST:Pascu y Rodri;
#TITLETRANSLIT:;
#SUBTITLETRANSLIT:;
#ARTISTTRANSLIT:;
#GENRE:;
#ORIGIN:;
#CREDIT:;
#BANNER:Thor-bn.jpg;
#BACKGROUND:Thor-bg.jpg;
#PREVIEWVID:;
#JACKET:Thor-jacket.jpg;
#CDIMAGE:;
#DISCIMAGE:;
#LYRICSPATH:;
#CDTITLE:cdtitle_ukiarrow.png;
#MUSIC:Thor.mp3;
#OFFSET:0.820000;
#SAMPLESTART:21.807983;
#SAMPLELENGTH:12.000000;
#SELECTABLE:YES;
#BPMS:0.000=140.000;
#STOPS:;
#DELAYS:;
#WARPS:;
#TIMESIGNATURES:0.000=4=4;
#TICKCOUNTS:0.000=4;
#COMBOS:0.000=1;
#SPEEDS:0.000=1.000=0.000=0;
#SCROLLS:0.000=1.000;
#FAKES:;
#LABELS:0.000=Song Start;
#BGCHANGES:2.000=Thor.mp4=1.000=0=0=1=====,
447.000=Thor-bg.jpg=1.000=0=0=1=====,
99999=-nosongbg-=1.000=0=0=0 // don't automatically add -songbackground-
;
#KEYSOUNDS:;
#ATTACKS:
;

//---------------dance-single - ----------------
#NOTEDATA:;
#CHARTNAME:;
#STEPSTYPE:dance-single;
#DESCRIPTION:;
#CHARTSTYLE:;
#DIFFICULTY:Hard;
#METER:13;
#RADARVALUES:0.505896,0.702204,0.229291,0.504441,0.621634,695.000000,650.000000,45.000000,99.000000,0.000000,0.000000,0.000000,0.000000,0.000000,0.505896,0.702204,0.229291,0.504441,0.621634,695.000000,650.000000,45.000000,99.000000,0.000000,0.000000,0.000000,0.000000,0.000000;
#CREDIT:;
#NOTES:
0000
0000
0000
0000
,
0000
0000
0000
0000
,
0000
0000
0000
0000
,
0000
0000
0000
0000
,
0000
0000
0000
0000
,
0000
0000
0000
2000
0000
0000
3100
0000
0010
0002
0000
1000
,
0003
0000
0010
0200
0000
0000
0301
0000
0000
2002
0000
0000
,
3003
0000
0000
0001
0000
0010
0100
0000
1000
0100
0000
0010
,
0001
0000
1000
0020
0000
0000
1030
0000
1000
0001
0000
0000
,
1001
0000
0000
2000
0000
0000
3010
0000
0100
0002
0000
1000
,
0003
0000
0000
1000
0000
0001
1000
0000
0002
2000
0000
0000
,
3003
0000
0100
0002
0000
0000
0103
0000
0010
2000
0000
0001
,
3000
0000
0100
0020
0000
0000
1030
0000
0001
0100
0000
0000
,
1001
0001
0101
0010
,
1010
0000
1000
0001
0000
0001
1000
0000
1000
0001
0000
0000
,
1001
0000
0000
2000
0000
0000
3010
0000
0000
0100
0000
0100
,
0001
0000
0001
2000
0000
0000
3100
0000
0000
0010
0000
0000
,
1001
0000
0000
2000
0000
0000
3100
0000
0010
0002
0000
1000
,
0003
0000
0000
0001
0000
0001
0100
0000
0100
0020
0000
0000
,
1030
0000
0001
0010
0000
0010
0100
0000
0100
1000
0000
0002
,
0000
0000
0000
1003
0000
0010
1000
0000
1000
0001
0000
0000
,
1001
0000
0000
2000
0000
0000
3010
0000
0100
0002
0000
1000
,
0003
0000
0000
0001
0000
1000
0100
0000
0020
0002
0000
0000
,
0033
0000
1000
0002
0000
0000
0103
0000
0100
0020
0000
0000
,
1030
0000
0100
0010
0000
0001
1000
0000
0010
0100
0000
0000
,
0110
0001
0101
1000
,
1010
0000
1000
0001
0000
0001
1000
0000
1000
0001
0000
0000
,
1001
0000
0000
1000
0000
0000
1010
0000
0000
0001
0000
0100
,
0001
0000
1000
0010
0000
0000
0110
0000
0000
1000
0000
0000
,
1001
0020
0000
0030
,
1000
0000
1000
0200
0000
0000
0310
0000
0010
0002
0000
0000
,
0013
0000
0010
0200
0000
0000
1300
0000
0010
1000
0001
1000
,
0001
0000
0001
0200
0000
0000
0310
0000
0010
2000
0000
0000
,
3100
0000
0100
0020
0000
0000
0031
0000
0010
0001
1000
0001
,
1000
0000
1000
0010
0000
0010
0100
0000
0100
0001
0000
1000
,
0100
0000
0010
0001
0000
0001
0010
0000
0100
2000
0000
0001
,
3001
0000
0000
1000
0010
1000
0010
0000
0000
0100
0001
0100
,
0001
0000
0000
1000
0100
1000
0100
1000
0100
0010
0001
0010
,
0001
0002
0103
2000
,
3010
0200
0000
0010
,
0300
2000
3100
0002
,
0013
0200
0000
0001
,
0300
0020
0031
0002
,
1003
0200
2300
3001
,
1001
0000
0000
0002
0000
0000
0013
0000
0100
0010
0000
0000
,
0100
0000
0000
2200
0000
3300
1000
0000
0000
0022
0000
0033
,
0001
0000
2001
0000
0100
3100
1002
0000
,
0100
0000
0103
0000
1000
0000
0100
0000
0200
0000
0000
0000
0310
0000
0100
1000
,
0100
0010
0002
0000
0103
0100
2000
0000
,
3100
0000
0000
0001
0000
0000
1001
0000
0000
1000
0000
0000
0010
0000
0000
0000
0000
0000
1000
0000
0001
0000
1000
0000
,
0001
0010
0100
2000
0000
0000
3100
0000
0010
0002
0000
1000
,
0003
0000
0010
0100
0000
0100
0001
0000
0002
2000
0000
0000
,
3003
0000
0000
0002
0000
0000
0013
0000
0100
1000
0000
0100
,
0010
0000
0001
0010
0000
0001
1000
0000
1000
0001
0000
0000
,
1001
0000
1000
1000
0000
0010
0100
0000
0100
0002
0000
1000
,
0003
0000
0001
1000
0000
0010
1000
0000
0200
2000
0000
0000
,
3300
0000
1000
0001
0000
0100
0010
0000
0010
1000
0000
0001
,
0100
0000
0100
0010
0000
1000
0100
0000
0010
0001
0000
0000
,
1001
0000
0000
0001
0000
0001
0100
0010
0100
0020
0000
0000
,
1030
0000
0000
0001
0000
1000
0001
0000
0001
1000
0000
0000
,
1001
0000
0000
1000
0000
1000
0010
0000
0010
0100
0000
0100
,
0001
0000
0001
0010
0000
0100
1000
0000
1000
0001
0000
0000
,
1001
0000
0000
2000
0000
0000
3100
0000
0010
0002
0000
0000
,
1003
0000
0000
0001
0000
0001
0100
0000
0100
0020
0000
0000
,
1030
0000
0000
1000
0000
1000
0010
0000
0010
0100
0000
0100
,
0001
0000
0001
0010
0000
0100
1000
0000
1000
0001
0000
0000
,
1001
2000
3200
0302
,
0103
0000
0100
0001
0000
0001
0100
0000
0100
1000
0000
0000
,
1001
0000
0000
2000
0000
0000
3020
0000
0000
0031
0000
0001
,
0010
0000
0010
1000
0000
0000
1001
0000
0000
0100
0000
0000
,
0110
0000
0000
0001
0100
0001
0100
0001
0100
0010
1000
0010
,
1000
0010
1000
0002
0000
0000
0013
0000
0010
0100
0000
0000
,
1000
0000
1000
0100
0000
0000
0010
0001
0010
0001
0100
0001
,
1000
0000
0000
2000
0000
0000
3100
0000
0100
0010
0000
0000
,
0001
0000
0001
0010
0000
0000
0100
1000
0100
1000
0010
1000
,
0001
0000
0001
0010
0000
0010
0100
0000
0100
1000
0000
1000
,
0001
0000
0001
0100
0000
0100
0010
0000
0010
1000
0000
1000
,
1000
0000
0001
0200
0000
0000
0310
0000
0010
2000
0000
0000
,
3001
0000
0001
0010
0000
0000
0011
0000
0000
0100
0000
0000
,
1100
0000
0000
0002
0000
0000
0013
0000
0010
0100
0000
0000
,
1000
0000
1000
0100
0000
0000
0010
0001
0010
0001
0100
0001
,
1000
0000
0000
2000
0000
0000
3100
0000
0100
0010
0000
0000
,
0001
0000
0001
0010
0000
0000
0100
1000
0100
1000
0010
1000
,
0001
0000
0000
0100
0000
0100
0010
0000
0010
1000
0000
1000
,
0001
0000
0001
0010
0000
0010
0100
0000
0100
1000
0000
0000
,
1001
0000
0000
0002
0000
0000
0103
0000
0010
2000
0000
0000
,
3100
0000
0010
0001
0000
0000
1010
0000
0000
0001
0000
0000
,
1100
0000
0012
0000
1000
1003
0102
0000
,
1000
0000
1003
0000
0012
0000
0010
0000
1003
0000
0000
0000
1000
0000
0100
0010
,
0100
0010
0021
0000
0001
0031
0210
0000
,
0010
0310
1100
1000
0001
0000
0101
0001
,
0100
0000
0000
0010
0000
0000
1010
0000
0000
0000
1000
0000
0000
0000
0001
0000
0000
0000
0101
0000
0001
0000
1000
0000
,
0200
0000
0000
0310
0000
0001
0000
1000
0000
0020
0000
0000
,
0000
0000
0000
0130
0000
0100
0002
0000
0000
2003
0000
0000
,
3010
0000
0010
0100
0000
0001
0010
0000
0100
1000
0000
0000
,
1001
0000
0000
0001
0000
0010
0001
0000
0100
0001
0000
0001
,
0010
0000
0100
2000
0000
0000
0010
0000
0000
0001
0000
0000
,
3010
0000
0000
1000
0010
1000
0010
1000
0010
0100
0001
0100
,
0002
0000
1000
2003
0000
0000
3100
0000
0100
0020
0000
0000
,
0031
0000
0001
0200
0000
0000
0310
1000
0010
0100
0001
0100
,
0020
0000
1000
2030
0000
0000
3100
0000
0100
0002
0000
0000
,
0103
0000
0100
2000
0000
0000
3001
0100
0001
1000
0100
1000
,
0001
0000
0000
2000
0000
0000
3010
0000
0010
0200
0000
0000
,
0300
0000
0000
0001
0000
0010
0100
0000
1000
0001
0000
0000
,
1001
0000
0000
0001
0000
0010
0000
0001
0000
1000
0000
0100
,
0000
0010
0000
0001
0000
0001
1000
0000
1000
0010
0000
0010
,
0100
0010
0000
1000
0010
1000
0001
1000
0001
0100
0001
0100
,
0001
1000
0001
1000
0010
1000
0010
0100
0010
0100
0001
0100
,
0001
0010
0001
2000
0000
0000
0000
0000
0000
0000
0000
0000
,
0000
0000
0000
0000
,
0000
3000
0000
0000
;

//---------------dance-single - ----------------
#NOTEDATA:;
#CHARTNAME:;
#STEPSTYPE:dance-single;
#DESCRIPTION:;
#CHARTSTYLE:;
#DIFFICULTY:Medium;
#METER:8;
#RADARVALUES:0.345029,0.449411,0.535013,0.820353,0.040763,474.000000,369.000000,105.000000,161.000000,0.000000,0.000000,0.000000,0.000000,0.000000,0.345029,0.449411,0.535013,0.820353,0.040763,474.000000,369.000000,105.000000,161.000000,0.000000,0.000000,0.000000,0.000000,0.000000;
#CREDIT:;
#NOTES:
0000
0000
0000
0000
,
0000
0000
0000
0000
,
0000
0000
0000
0000
,
0000
0000
0000
0000
,
0000
0000
0000
0000
,
0000
2000
3100
0020
,
0031
0011
0101
2002
,
3003
0002
0013
2000
,
3010
0011
1010
2002
,
3003
2000
3010
0200
,
0301
1001
0110
2002
,
3003
0002
0103
0020
,
1030
0101
0011
2002
,
3003
1000
0001
0100
,
0010
0110
1001
2002
,
3003
1000
0100
0100
,
0010
0002
0000
2000
,
3003
2000
3001
0200
,
0310
0110
1001
0220
,
0330
2000
3100
0020
,
0031
1010
0011
2002
,
3003
2000
3100
0002
,
0103
1100
0101
2002
,
3003
0002
0103
0020
,
1030
1100
1010
2002
,
3003
0001
0100
0100
,
0001
1010
0101
2020
,
3030
1000
0100
0100
,
1000
2200
3300
0022
,
0000
0033
0000
0000
,
0001
1001
0010
1010
,
0100
1100
2020
3030
,
1000
1001
0010
0011
,
0100
0102
0000
0003
,
1000
0020
0130
0002
,
1003
1001
0110
2002
,
3003
2000
3100
0200
,
0301
2002
0000
3003
,
0000
0002
0003
0200
,
0300
0020
0000
0000
,
0030
2000
3000
0200
,
0300
0020
0000
0000
,
0030
0002
0103
2000
,
3100
0020
0000
0030
,
0000
0002
0013
2000
,
3010
0022
0033
2020
,
3030
2001
0100
3002
,
0100
2003
0001
0010
,
0010
3002
0010
2003
,
0100
3002
1000
0010
,
0103
0002
0013
2000
,
3010
0011
1010
2002
,
3003
0002
0103
0002
,
0013
0011
0101
2002
,
3003
2000
3100
0020
,
0130
1100
0110
2002
,
3003
0002
0013
0200
,
1300
0011
1100
2002
,
3003
0002
1003
2000
,
3001
0000
0000
0001
0000
0001
1000
0000
1000
0002
0000
0000
,
0003
0000
0000
1000
0000
1000
0001
0000
0001
1000
0000
1000
,
0001
0000
0001
1000
0000
1000
0001
0000
0001
1000
0000
0000
,
1001
0020
0130
0200
,
0310
0000
0000
0100
0000
0100
0010
0000
0010
0200
0000
0000
,
0300
0000
0000
0010
0000
0010
0100
0000
0100
0010
0000
0010
,
0100
0000
0100
0010
0000
0010
0100
0000
0100
0010
0000
0000
,
0110
2000
3200
0302
,
0103
0101
1100
2002
,
3003
2000
3010
0101
,
0110
2002
3000
2000
,
0000
3003
0000
0000
,
0000
0001
0010
0010
,
0100
1100
0011
2002
,
3003
0001
0100
0100
,
0010
1010
0101
2002
,
3003
0002
0013
2000
,
3010
1000
1001
0001
,
1001
2000
3010
0002
,
0013
1100
0110
2002
,
3003
0002
0013
0200
,
1300
1100
0011
2002
,
3003
0002
0103
0200
,
0310
2001
3200
0320
,
0031
1000
1001
0001
,
1001
0100
0110
0020
,
0130
1000
1001
0001
,
1001
2000
3010
0002
,
0013
0000
0002
0000
1003
1000
0020
0000
,
1030
1000
0001
0001
2000
0000
3100
0010
,
0001
0001
0020
0000
0130
0100
2000
0000
,
3100
0100
0010
0001
0002
0000
0103
0010
,
1000
0001
2000
0000
0000
0000
3001
0000
,
1001
0002
0000
2000
,
3003
1000
1010
0001
,
0101
0002
1003
2002
,
3003
1000
0110
0001
,
0110
2000
0000
0002
,
3003
0220
0000
0000
,
0330
0002
0013
0020
,
0130
1100
0011
2002
,
3003
0002
0103
0020
,
1030
0011
1010
2002
,
3003
2000
3100
0002
,
0103
1000
0001
2002
,
3003
0002
0000
2003
,
0000
3020
0130
0200
,
0310
1010
1000
1001
,
1000
1100
0100
0110
,
0001
2002
0000
0000
,
0000
0000
0000
0000
,
0000
3003
0000
0000
;

//---------------dance-single - ----------------
#NOTEDATA:;
#CHARTNAME:;
#STEPSTYPE:dance-single;
#DESCRIPTION:;
#CHARTSTYLE:;
#DIFFICULTY:Easy;
#METER:6;
#RADARVALUES:0.243121,0.280882,0.071335,0.112098,0.000000,334.000000,320.000000,14.000000,22.000000,0.000000,0.000000,0.000000,0.000000,0.000000,0.243121,0.280882,0.071335,0.112098,0.000000,334.000000,320.000000,14.000000,22.000000,0.000000,0.000000,0.000000,0.000000,0.000000;
#CREDIT:;
#NOTES:
0000
0000
0000
0000
,
0000
0000
0000
0000
,
0000
0000
0000
0000
,
0000
0000
0000
0000
,
0000
0000
0000
0000
,
0000
1000
1000
0100
,
0000
0010
0001
1001
,
0000
0001
0010
0100
,
0100
1000
0001
1000
,
0000
0001
0010
0100
,
0000
1000
0100
0110
,
0000
0010
0001
1000
,
0000
0010
0100
1001
,
0000
1000
0001
0100
,
0010
1000
1000
1000
,
0000
0100
0010
0001
,
1000
0002
0000
0003
,
0000
0010
0100
1000
,
0000
0001
0100
0110
,
0000
0010
0010
0100
,
0100
0001
1000
0001
,
0000
1000
1000
0001
,
0000
0010
0100
0110
,
0000
0010
0001
1000
,
0000
0100
1000
1001
,
0000
0001
0001
1000
,
1000
0010
0100
0001
,
0000
0010
0010
0100
,
0100
2000
0000
0002
,
0000
3003
0000
0000
,
0001
0010
0100
1000
,
0100
0010
0002
0003
,
0001
1000
0100
0010
,
0001
2000
0000
3000
,
1000
0010
0010
0100
,
0100
0001
1000
0001
,
0001
0020
0130
0200
,
1300
0002
0000
0003
,
0000
1000
0000
1000
,
0000
0200
0000
0000
,
0300
0001
0000
0001
,
0000
0020
0000
0000
,
0030
0001
0000
0100
,
0000
0010
0000
0010
,
0000
1000
0000
0001
,
0000
0010
0000
0100
,
0000
1000
1000
0010
,
0010
0100
0100
0100
,
0100
0001
0001
0100
,
0100
0010
0010
0010
,
0010
1000
0100
0010
,
0000
0001
0100
1001
,
0000
1000
0010
0100
,
0100
0001
1000
0001
,
0000
0100
0010
0100
,
0000
0100
0001
1001
,
0000
0001
0001
0010
,
0010
0100
1000
0001
,
0000
0010
0010
0100
,
0000
0010
0010
0010
,
0000
0010
0100
0100
,
0010
0010
0100
0110
,
0000
1000
1000
0001
,
0000
1000
1000
1000
,
0000
1000
0001
0001
,
1000
1000
0001
1001
,
0000
1000
0100
0010
,
0001
1000
0001
1000
,
0000
0010
0010
0100
,
0100
0002
0003
2000
,
3000
0000
0000
0000
,
0000
0001
0010
0010
,
0100
1000
0001
1000
,
0000
1000
0100
1000
,
0001
0010
0010
0010
,
0000
0001
1000
1000
,
0001
0010
0010
0100
,
0100
1000
0001
0001
,
1000
0020
0000
0030
,
0000
1000
0010
0100
,
0001
0010
0010
0010
,
0000
0001
0100
0100
,
0010
1000
1000
1000
,
0000
0001
0001
1000
,
1000
0010
0100
0010
,
0010
1000
0100
1000
,
0100
0020
0000
0030
,
0000
0001
0001
1000
,
1000
0010
0010
0010
,
0010
0100
0100
0001
,
0001
1000
1000
1000
,
1000
0002
0000
2003
,
0000
3020
0000
0130
,
0000
0001
0010
0100
,
1000
0010
0010
0010
,
0000
1000
0010
0100
,
0001
2000
0000
3000
,
0000
2002
0000
3003
,
0000
0001
0010
0100
,
0000
1000
0100
1100
,
0000
1000
0010
0100
,
0000
0001
1000
1001
,
0000
1000
1000
0001
,
0001
0010
0100
1000
,
0000
0001
0010
0100
,
1000
0010
0010
0010
,
0010
0100
0001
0100
,
0010
0100
1000
0100
,
0001
2002
0000
0000
,
0000
0000
0000
0000
,
0000
3003
0000
0000
;

//---------------dance-single - ----------------
#NOTEDATA:;
#CHARTNAME:;
#STEPSTYPE:dance-single;
#DESCRIPTION:;
#CHARTSTYLE:;
#DIFFICULTY:Beginner;
#METER:3;
#RADARVALUES:0.157956,0.224705,0.005095,0.127384,0.000000,217.000000,216.000000,1.000000,25.000000,0.000000,0.000000,0.000000,0.000000,0.000000,0.157956,0.224705,0.005095,0.127384,0.000000,217.000000,216.000000,1.000000,25.000000,0.000000,0.000000,0.000000,0.000000,0.000000;
#CREDIT:;
#NOTES:
0000
0000
0000
0000
,
0000
0000
0000
0000
,
0000
0000
0000
0000
,
0000
0000
0000
0000
,
0000
0000
0000
0000
,
0000
1000
0000
0001
,
0000
0100
0100
0100
,
0000
0001
0000
0010
,
0000
0100
0100
0100
,
0000
1000
0000
1000
,
0000
0001
0001
0001
,
0000
0100
0000
0010
,
0000
1000
1000
1000
,
0000
0001
0000
0001
,
0000
0001
0001
0001
,
0000
0100
0000
0100
,
0000
0200
0000
0300
,
0000
0010
0000
1000
,
0000
0001
0001
0001
,
0000
0001
0000
0010
,
0000
1000
1000
1000
,
0000
0010
0000
0100
,
0000
0100
0100
0100
,
0000
0010
0000
1000
,
0000
0010
0010
0010
,
0000
0001
0000
0001
,
0000
0001
0001
0001
,
0000
0010
0000
0010
,
0000
0020
0000
0030
,
0000
0000
0000
0000
,
0000
1000
0000
0001
,
0000
1000
1000
0000
,
0000
0010
0000
0100
,
0000
0020
0000
0030
,
0000
0100
0000
0100
,
0000
0010
0010
0010
,
0000
1000
0000
0001
,
0000
1001
0000
0000
,
0000
0001
0000
0001
,
0000
0002
0000
0003
,
0000
1000
0000
1000
,
0000
2000
0000
3000
,
0000
0010
0000
0010
,
0000
0020
0000
0030
,
0000
0100
0000
0001
,
0000
1000
0000
0010
,
0000
2000
0000
3000
,
0000
0020
0000
0030
,
0000
0200
0000
0300
,
0000
0002
0000
0003
,
0000
1000
0000
1000
,
0000
0010
0010
0010
,
0000
0100
0000
0001
,
0000
0001
0001
0001
,
0000
0010
0000
0100
,
0000
0010
0010
0010
,
0000
0100
0000
1000
,
0000
1000
1000
1000
,
0000
0010
0000
0010
,
0000
0010
0010
0010
,
0000
0010
0010
0010
,
0010
0010
0010
0010
,
0000
0010
0000
0010
,
0000
0010
0010
0010
,
0000
0010
0010
0010
,
0010
0010
0010
0010
,
0000
1000
0000
0001
,
0000
1000
1000
1000
,
0000
0001
0000
1000
,
0000
0001
0000
0001
,
0000
0002
0000
0003
,
0000
1000
0000
0010
,
0000
0100
0100
0000
,
0000
0001
0000
0010
,
0000
0200
0000
0300
,
0000
1000
1000
1000
,
0000
0001
0001
0001
,
0000
0100
0000
0010
,
0000
0020
0000
0030
,
0000
1000
0000
0010
,
0000
1000
1000
1000
,
0000
0001
0000
0100
,
0000
0020
0000
0030
,
0000
0010
0010
0010
,
0000
0100
0100
0100
,
0000
0001
0000
1000
,
0000
0002
0000
0003
,
0000
2000
0000
3000
,
0000
2000
0000
3000
,
0000
0200
0000
0300
,
0000
0200
0000
0300
,
0000
0001
0000
0001
,
0000
0002
0000
0003
,
0000
1000
0000
0010
,
0000
0100
0100
0100
,
0000
0100
0000
0001
,
0000
0020
0000
0030
,
0000
0020
0000
0030
,
0000
0001
0001
0001
,
0000
0100
0100
0000
,
0000
0010
0010
0010
,
0000
2000
0000
3000
,
0000
1000
0000
0001
,
0000
1000
1000
1000
,
0000
0100
0000
1000
,
0000
0002
0000
0003
,
0000
0100
0100
0100
,
0000
0100
0100
0100
,
0100
0200
0000
0000
,
0000
0000
0000
0000
,
0000
0300
0000
0000
;
