#TITLE:The Rumbling;
#SUBTITLE:;
#ARTIST:SiM;
#TITLETRANSLIT:;
#SUBTITLETRANSLIT:;
#ARTISTTRANSLIT:;
#GENRE:;
#CREDIT:;
#BANNER:The Rumbling-bn.jpg;
#BACKGROUND:The Rumbling-bg.jpg;
#LYRICSPATH:;
#CDTITLE:cdtitle_ukiarrow.png;
#MUSIC:The Rumbling.mp3;
#OFFSET:1.699999;
#SAMPLESTART:56.227959;
#SAMPLELENGTH:12.000000;
#LASTBEATHINT:1.575664;
#SELECTABLE:YES;
#BPMS:0.000000=145.000000
;
#STOPS:138.500000=0.414000
;
#BGCHANGES:4.125=The Rumbling.mp4=1.000=0=0=1=====,
99999=-nosongbg-=1.000=0=0=0 // don't automatically add -songbackground-
;
#KEYSOUNDS:;
#ATTACKS:;

//---------------dance-single - ----------------
#NOTES:
     dance-single:
     :
     Hard:
     13:
     0.641432,0.751802,0.609756,0.066519,0.249446,405.000000,350.000000,55.000000,6.000000,0.000000,0.000000,0.641432,0.751802,0.609756,0.066519,0.249446,405.000000,350.000000,55.000000,6.000000,0.000000,0.000000:
0000
0000
0000
0000
,
0000
0000
0000
0000
,
0000
0000
0000
0000
,
0000
0000
0000
0000
,
0000
0000
0000
0000
,
0000
0000
1100
1000
0100
0000
0101
0001
,
0100
0000
1010
1000
0010
0000
0011
0001
,
0010
0000
1001
0001
0100
0000
0110
0010
,
1000
0000
0000
0000
1001
0000
1000
0000
0100
0000
0000
0000
0010
0000
0000
0001
,
0000
0100
0110
0010
1000
0000
0010
0100
,
0001
1000
0001
0010
0100
0000
1000
0010
,
0100
0000
0110
0010
0100
0000
0001
0100
,
0010
0000
1000
0010
0100
0000
0100
0000
0000
0000
0100
0001
1000
0000
0001
0000
,
1000
0000
1000
0000
0001
0000
0000
0010
0000
0000
0100
0000
1000
0000
0001
0000
,
1000
0010
0000
0010
0100
0000
0101
0000
,
0010
1000
0000
0000
0001
0000
0000
0001
0000
0000
1000
0000
0100
0000
0000
0000
,
0010
0000
0000
0001
0000
0000
0010
0000
0100
0000
0000
0000
1000
0000
0001
1000
,
0010
0000
0000
0000
1010
0000
1000
0010
0000
0100
0010
0000
0000
0000
0100
0001
,
0100
0010
0100
0000
0101
0000
0001
0100
0000
0010
0100
0000
0010
1000
0010
0000
,
1000
0001
0010
0100
1000
0000
0000
1000
0000
0000
0100
0000
0010
0000
0001
0000
,
0010
0100
0000
1000
0001
0100
0110
0010
,
1000
0001
1000
0000
0001
0000
0000
0001
0000
0000
0100
0000
0010
0000
0000
0000
,
0100
0000
0000
0010
0000
0000
1000
0000
0001
0000
0000
0000
1001
0000
0001
1000
,
0100
0000
0000
0000
0010
0001
0010
0100
0000
0010
0100
0000
0000
0000
1000
0100
,
0010
0100
1000
0001
0010
0000
0001
1000
0000
0001
0100
0000
0101
0000
0010
0000
,
0010
0010
1000
0100
1100
0000
0100
0010
,
0011
0000
0001
0100
0110
0000
0010
1000
,
1010
0000
1000
0100
1100
0000
0100
0010
,
0110
0000
0000
0000
0001
0000
2002
0000
3003
0000
0100
0010
0100
0000
0200
0000
,
0000
0310
1000
0001
1001
0000
0001
0100
,
0110
0000
0010
0100
0110
0000
0001
1000
,
1001
0000
0001
0010
1000
0000
0001
0100
,
1000
0000
0100
0000
0110
0000
0110
0000
0000
0000
0001
1000
0001
0000
0010
0000
,
0100
0010
0200
0000
1300
1000
0010
0010
,
0100
0100
0001
0001
0010
0010
0000
0000
,
1001
0000
1100
0010
0001
0000
0001
1000
,
1001
0101
0000
0010
1000
0010
1000
0000
,
1001
0001
1000
0100
0010
0001
1000
0001
,
0010
0200
0000
0310
0110
0001
1001
0000
,
1001
0000
1100
0010
0001
0000
0001
1000
,
1001
0000
0101
0010
1000
0100
0010
0001
,
1001
0000
1100
0010
0001
0000
1000
0001
,
0010
0000
0100
0000
1000
0000
0100
0000
0010
0000
0001
1000
0010
1000
0010
1000
,
0001
0000
0101
0010
1000
0000
0100
0010
,
0110
0001
0000
1000
0100
1000
1000
0001
,
1001
0000
0001
0010
0011
0100
1000
0001
,
1000
0020
0000
0130
0010
1000
0001
0000
,
0010
0000
0100
0010
0000
0100
0010
0000
0001
0000
1000
0000
0001
0000
0100
0000
,
0010
0000
0100
0010
0000
0100
0010
1000
0010
0000
1000
0000
0100
0000
0010
0000
,
0001
0000
0010
0001
0000
0010
0001
0000
1000
0000
0100
0000
0010
0000
0001
0010
,
0100
0000
1000
0100
0000
1000
0100
0000
0000
0000
0000
0000
0110
0000
0000
0000
,
1001
1000
0100
0000
0110
0010
0001
1000
,
0001
0100
0110
0000
1001
0001
0100
0000
,
0010
1000
1001
0000
0001
0010
0110
0100
,
1100
0110
1001
0000
0000
0000
0000
0000
;

//---------------dance-single - ----------------
#NOTES:
     dance-single:
     :
     Medium:
     9:
     0.517897,0.541297,0.399113,0.232816,0.044346,327.000000,291.000000,36.000000,21.000000,0.000000,0.000000,0.517897,0.541297,0.399113,0.232816,0.044346,327.000000,291.000000,36.000000,21.000000,0.000000,0.000000:
0000
0000
0000
0000
,
0000
0000
0000
0000
,
0000
0000
0000
0000
,
0000
0000
0000
0000
,
0000
0000
0000
0000
,
0000
0000
1000
0100
1000
0000
0100
0001
,
0000
0001
0010
0001
0010
0000
1000
0010
,
1000
0000
0001
0010
0001
0000
0010
1000
,
0000
1000
0100
1000
0100
0000
0001
0100
,
1001
0000
1000
1000
0200
0000
0010
0000
,
0001
2300
0000
0002
,
3003
0000
0001
0001
0020
0000
0100
0000
,
1000
0000
0031
0002
0000
0000
1003
0001
,
1000
0000
0001
0100
0001
0000
1000
0000
,
0010
1000
0000
1000
0010
0000
1010
0000
,
0101
0000
0001
0010
0001
0000
1000
0100
,
1000
0001
0000
0010
0100
0000
1000
0001
,
1000
0000
0000
0000
1010
0000
0000
0100
0000
0000
0001
0000
0000
0000
1000
0000
,
0001
0000
0001
0000
0011
0000
0000
0100
0000
0000
1000
0000
0000
0000
2020
0000
,
0000
3030
0001
0100
0001
0000
1000
0100
,
1000
0010
0000
0010
0100
0000
0110
0000
,
1001
0000
1000
0100
1000
0100
0010
0100
,
1000
0100
0000
1000
0001
0000
0100
0010
,
0110
0000
0000
0000
0101
0000
0000
0010
0000
0000
1000
0000
0000
0000
0100
0000
,
1000
0000
0100
0000
1100
0000
0000
0010
0000
0000
0001
0000
2000
0000
0001
0000
,
0001
3001
1001
0000
0100
0000
0010
0100
,
0110
0000
0001
0010
0001
0000
0010
0100
,
0110
0000
1000
0010
1000
0000
0010
0100
,
0110
0000
0001
1000
1001
0000
0100
0010
,
0110
0000
0001
0100
0001
0100
0010
1000
,
0001
0000
1000
0100
1000
0100
0010
0001
,
1000
0000
0001
0100
0001
0001
1000
0100
,
1000
0000
0010
0010
0100
0001
1000
1000
,
1000
0000
0002
0000
0103
0001
0010
0001
,
1000
0001
0100
0110
0110
0110
0000
0000
,
2001
0000
3100
0010
0001
0000
0001
1000
,
0001
0002
0000
0103
0010
1000
0000
1000
,
0001
0001
1000
0100
0010
0001
1000
0000
,
0100
0010
0000
0100
0010
0001
1000
0000
,
2001
0000
3100
0010
0001
0000
0001
1000
,
1002
0000
0103
0010
1000
0001
0000
0001
,
2001
0000
3100
0010
0001
0000
0001
0010
,
0100
1000
0100
0010
0001
0000
0010
0001
,
2001
0000
3100
0010
0001
0000
0100
0000
,
0120
0100
0000
1030
0010
0100
0100
0001
,
2000
0000
3001
0010
0100
1000
0001
0000
,
1000
0100
0000
1000
0001
1000
0010
0100
,
0002
0000
0000
0010
0000
0000
0013
0000
0100
0000
0010
0000
0110
0000
0000
0000
,
0200
0000
0000
1000
0000
0000
1300
0000
0010
0000
0100
0000
0110
0000
0000
0000
,
0001
0000
0000
0001
0000
0000
1000
0000
0100
0000
0010
0000
0100
0000
0010
0000
,
0011
0000
0000
0110
0000
0000
2200
0000
0000
0000
0000
0000
3300
0000
0000
0000
,
1001
1000
0100
0000
0010
0100
0010
0000
,
0001
0100
0110
0000
1000
0001
0100
0000
,
0110
0010
1000
0000
0001
0010
0100
1000
,
0001
1001
1001
0000
0000
0000
0000
0000
;

//---------------dance-single - ----------------
#NOTES:
     dance-single:
     :
     Easy:
     5:
     0.272411,0.300721,0.188470,0.543237,0.000000,172.000000,155.000000,17.000000,49.000000,0.000000,0.000000,0.272411,0.300721,0.188470,0.543237,0.000000,172.000000,155.000000,17.000000,49.000000,0.000000,0.000000:
// measure 0
0000
0000
0000
0000
,  // measure 1
0000
0000
0000
0000
,  // measure 2
0000
0000
0000
0000
,  // measure 3
0000
0000
0000
0000
,  // measure 4
0000
0000
0000
0000
,  // measure 5
0000
1000
0100
1000
,  // measure 6
0100
0010
0001
0010
,  // measure 7
0001
1000
0010
1000
,  // measure 8
0010
0100
0001
0100
,  // measure 9
0001
2000
3000
0020
,  // measure 10
0130
0200
0300
0002
,  // measure 11
0003
0002
0003
0020
,  // measure 12
0130
2000
3000
2002
,  // measure 13
3003
0001
0100
0001
,  // measure 14
1000
0010
1000
0010
,  // measure 15
0000
1000
0100
1000
,  // measure 16
0100
0010
0001
0020
,  // measure 17
0030
0000
0110
0000
0000
0220
0000
0000
,  // measure 18
0330
0000
1001
0000
0000
2002
0000
3003
,  // measure 19
0000
0001
0100
0001
,  // measure 20
1000
0010
1000
0002
,  // measure 21
0003
1000
0100
1000
,  // measure 22
0001
0010
0002
0003
,  // measure 23
0000
0000
0101
0000
0000
0202
0000
0000
,  // measure 24
0303
0000
1010
0000
0000
2020
0000
0000
,  // measure 25
3030
0001
0100
0001
,  // measure 26
0100
0001
1000
0001
,  // measure 27
1000
0001
0010
0001
,  // measure 28
0010
0220
0330
2002
,  // measure 29
3003
1000
0100
1000
,  // measure 30
0100
1000
0001
1000
,  // measure 31
0001
1000
0010
1000
,  // measure 32
0010
1000
0001
2000
,  // measure 33
3000
0020
0000
0230
,  // measure 34
0000
0000
0310
0010
0010
0010
0000
0000
,  // measure 35
2002
3003
2000
3000
,  // measure 36
0002
0003
0200
0300
,  // measure 37
0001
0010
0100
1000
,  // measure 38
0001
0000
2002
3003
,  // measure 39
2002
3003
2000
3000
,  // measure 40
0002
0003
0200
0300
,  // measure 41
0001
1000
0200
0300
,  // measure 42
1000
0001
1000
0001
,  // measure 43
2002
3003
2000
3000
,  // measure 44
0002
0003
0200
0300
,  // measure 45
0001
0010
0100
1000
,  // measure 46
0001
0000
0220
0330
,  // measure 47
0001
0010
0001
0100
,  // measure 48
0001
0010
0100
1000
,  // measure 49
0010
1000
0100
0010
,  // measure 50
0220
0000
0330
0000
,  // measure 51
0001
0010
0001
0010
,  // measure 52
0001
1000
0001
1000
,  // measure 53
0001
0100
0001
0100
,  // measure 54
0100
0010
0010
0000
0000
0000
0000
0000
;

//---------------dance-single - ----------------
#NOTES:
     dance-single:
     :
     Beginner:
     3:
     0.232816,0.300721,0.354767,0.022173,0.000000,147.000000,115.000000,32.000000,2.000000,0.000000,0.000000,0.232816,0.300721,0.354767,0.022173,0.000000,147.000000,115.000000,32.000000,2.000000,0.000000,0.000000:
// measure 0
0000
0000
0000
0000
,  // measure 1
0000
0000
0000
0000
,  // measure 2
0000
0000
0000
0000
,  // measure 3
0000
0000
0000
0000
,  // measure 4
0000
0000
0000
0000
,  // measure 5
0000
1000
1000
1000
,  // measure 6
0000
0100
0000
0010
,  // measure 7
0000
0001
0001
0001
,  // measure 8
0000
0100
0000
0010
,  // measure 9
0000
1010
0000
0110
,  // measure 10
0000
0101
0000
1001
,  // measure 11
0000
0011
0000
0110
,  // measure 12
0000
1001
0000
1001
,  // measure 13
0000
0001
0001
0001
,  // measure 14
0000
0010
0000
0001
,  // measure 15
0000
1000
1000
1000
,  // measure 16
0000
0100
0000
1000
,  // measure 17
0000
0000
1001
0000
0000
1001
0000
0000
,  // measure 18
0000
0000
1001
0000
0000
1001
0000
0000
,  // measure 19
0000
1000
1000
1000
,  // measure 20
0000
0001
0000
0100
,  // measure 21
0000
0001
0001
0001
,  // measure 22
0000
1000
0000
0100
,  // measure 23
0000
0000
0110
0000
0000
0110
0000
0000
,  // measure 24
0000
0000
1001
0000
0000
1001
0000
0000
,  // measure 25
0000
0001
0000
0010
,  // measure 26
0000
0100
0000
1100
,  // measure 27
0000
1000
0000
0010
,  // measure 28
0000
0110
0000
1001
,  // measure 29
0000
0001
0000
0100
,  // measure 30
0000
1000
0000
0100
,  // measure 31
0000
0001
0000
0100
,  // measure 32
0000
1001
0000
1001
,  // measure 33
0000
1000
1000
0001
,  // measure 34
0001
1000
0001
0000
,  // measure 35
0100
0000
1001
0000
,  // measure 36
0010
0000
1001
0000
,  // measure 37
1000
1000
1000
1000
,  // measure 38
2000
0000
3000
0000
,  // measure 39
0100
0000
1001
0000
,  // measure 40
0010
0000
1001
0000
,  // measure 41
0100
0000
1001
0000
,  // measure 42
0010
0000
1001
0000
,  // measure 43
0100
0000
0110
0000
,  // measure 44
0010
0000
1001
0000
,  // measure 45
0001
0001
0001
0001
,  // measure 46
0001
0000
1001
0000
,  // measure 47
1000
1000
1000
0000
,  // measure 48
0010
0010
0010
0000
,  // measure 49
0100
0100
0100
0000
,  // measure 50
0002
0000
0003
0000
,  // measure 51
0001
0001
0001
0000
,  // measure 52
0010
0000
1001
0000
,  // measure 53
1000
1000
1000
0000
,  // measure 54
0100
0110
0000
0000
;
