#VERSION:0.83;
#TITLE:Samsara;
#SUBTITLE:;
#ARTIST:Tungevaag & Raaban;
#TITLETRANSLIT:;
#SUBTITLETRANSLIT:;
#ARTISTTRANSLIT:;
#GENRE:;
#ORIGIN:;
#CREDIT:;
#BANNER:Samsara-bn.jpg;
#BACKGROUND:Samsara-bg.jpg;
#PREVIEWVID:;
#JACKET:Samsara-jacket.jpg;
#CDIMAGE:;
#DISCIMAGE:;
#LYRICSPATH:;
#CDTITLE:cdtitle_ukiarrow.png;
#MUSIC:Samsara.mp3;
#OFFSET:0.340000;
#SAMPLESTART:68.107811;
#SAMPLELENGTH:12.000000;
#SELECTABLE:YES;
#BPMS:0.000=128.000,
139.000=115.000,
140.000=108.900,
217.000=128.000,
315.250=108.900;
#STOPS:;
#DELAYS:;
#WARPS:;
#TIMESIGNATURES:0.000=4=4;
#TICKCOUNTS:0.000=4;
#COMBOS:0.000=1;
#SPEEDS:0.000=1.000=0.000=0;
#SCROLLS:0.000=1.000;
#FAKES:;
#LABELS:0.000=Song Start;
#BGCHANGES:0.750=Samsara.mp4=1.000=0=0=1=====,
99999=-nosongbg-=1.000=0=0=0 // don't automatically add -songbackground-
;
#KEYSOUNDS:;
#ATTACKS:
;

//---------------dance-single - ----------------
#NOTEDATA:;
#CHARTNAME:;
#STEPSTYPE:dance-single;
#DESCRIPTION:;
#CHARTSTYLE:;
#DIFFICULTY:Hard;
#METER:9;
#RADARVALUES:0.353914,0.513117,0.073830,0.233794,0.094338,604.000000,586.000000,18.000000,57.000000,0.000000,1.000000,0.000000,0.000000,0.000000,0.353914,0.513117,0.073830,0.233794,0.094338,604.000000,586.000000,18.000000,57.000000,0.000000,1.000000,0.000000,0.000000,0.000000;
#CREDIT:;
#NOTES:
0000
0000
0000
0000
,
0000
0000
0000
0000
,
0000
0000
0000
0000
,
0000
0000
0000
0000
,
0000
0000
0000
0000
,
0000
0000
0000
0000
,
0000
1000
0001
0100
,
0100
0001
1000
0100
,
0100
0010
0010
0001
,
1000
0100
0100
1000
,
0001
0000
1000
0000
0010
0100
0000
0001
,
0000
0200
0000
0302
0000
0003
1000
0000
,
0100
2000
0000
3002
0000
0003
0100
0010
,
0000
2000
0000
3010
1000
0000
0001
0000
,
1000
0100
0000
0020
0000
0030
0001
2000
,
0000
3001
0100
0010
,
1000
0020
0000
0030
0000
0000
1000
0001
,
0100
0020
0000
0000
0130
0000
0001
0000
,
0100
0010
1000
0000
0001
0010
0001
1000
,
0100
0000
1000
0000
0001
0000
0000
0001
0000
0000
1000
0000
0010
0000
0000
0020
,
0000
0000
0130
0000
0001
0100
0020
0000
,
1030
0000
0001
0000
0010
0000
0000
0010
0000
0000
0100
0000
1000
0000
0000
1000
,
0000
0000
0001
0000
0100
0000
0000
0010
0000
0000
1000
0000
0001
0000
0000
1000
,
0000
0000
0010
0000
0100
0000
0000
0001
0000
0000
0010
0000
0100
0000
0000
1000
,
0000
0001
0100
0000
0010
1000
0010
0100
,
0001
0000
1000
0000
0100
0000
0000
0100
0000
0000
0010
0000
0001
0000
0000
2000
,
0000
0000
3001
0100
0001
0000
1000
0100
,
1000
0000
0001
0010
0001
0010
0001
1000
,
0010
0000
0000
0000
1000
0000
0100
0000
1000
0000
0001
0000
0100
0000
0000
0001
,
0000
0000
0100
0000
0010
0000
0000
1000
0000
0000
0001
0000
1000
0000
0100
0000
,
0010
0000
0001
0010
0100
1000
1000
0100
,
0010
0001
0001
0100
0010
1000
1000
0010
,
0100
0000
0001
0000
1000
0000
0100
0000
0010
0000
0001
0000
0100
0000
0000
0010
,
0000
0000
0100
0000
0001
0000
0000
1000
0000
0000
0100
0000
0010
0000
0001
0000
,
1000
0100
0020
0000
0000
0000
0230
0000
,
0000
2300
0000
3002
,
1000
1000
1003
0000
0010
0000
0100
0001
,
0100
0000
0001
0010
0001
0010
0100
1000
,
0001
0000
1000
0100
1000
0000
0001
0100
,
0001
0000
1000
0010
1000
0010
0100
0001
,
1000
0000
0001
0100
0001
0000
1000
0100
,
1000
0000
0001
0010
0100
1000
0100
0010
,
0001
0000
1000
0010
0100
0000
0001
0010
,
0100
1000
0100
0020
,
0032
0000
1003
0010
0001
0000
0001
0010
,
1000
0000
0001
0010
1000
0010
0001
0010
,
0100
0000
1000
0100
0001
0000
0001
0100
,
1000
0000
0001
0100
1000
0100
0001
0100
,
0010
1000
0001
0001
0010
0000
1000
1000
,
0010
0000
0001
0010
1000
0010
0001
0010
,
1000
0000
0001
0001
0100
0000
1000
1000
,
0100
2002
0000
0000
,
3003
0200
0000
0300
,
0000
0000
0000
0000
,
0000
1000
0100
0010
,
0010
0001
1000
0100
,
0100
0000
1000
0001
0100
0000
0010
0000
,
0010
0000
0001
1000
0010
0000
0100
0000
,
0100
0000
0001
0010
0100
0000
1000
0000
,
1000
0000
0001
0100
0010
0000
0100
0000
,
0100
0000
0001
1000
0100
0000
0010
0000
,
0010
0000
0001
1000
0001
0000
1000
0000
,
1000
0000
0001
0100
0001
0000
0100
1000
,
0100
0000
1000
0010
1000
0000
0010
0001
,
0010
0000
0001
0010
0001
0000
0010
1000
,
0010
0000
1000
0100
1000
0000
0100
0001
,
0100
0001
0000
0001
0010
0000
0001
0100
,
0001
0000
1000
0100
0010
0000
0001
0010
,
0001
0000
0010
0100
1000
0000
0100
0010
,
0100
0000
1000
0001
0100
0000
0010
1000
,
0010
0000
1000
0000
0010
1000
0010
0100
,
0001
0000
1000
0000
0100
0000
0000
0010
0000
0000
0001
0000
1000
0000
0000
0001
,
0000
0010
0001
0000
0010
0001
1000
0000
,
0010
0000
0100
0000
0001
0000
0000
0010
0000
0000
0100
0000
1000
0000
0000
0001
,
0000
0000
0100
0000
0010
0000
0000
1000
0000
0000
0001
0000
0010
0000
0000
0001
,
0000
0000
1000
0000
0100
0000
0000
1000
0000
0000
0001
0000
0100
0000
0000
0002
,
0000
0000
0003
0000
0010
0100
1000
0001
,
1000
0000
0010
0000
0100
0000
0000
0001
0000
0000
1000
0000
0100
0000
0000
1000
,
0000
0010
2002
0000
0000
0000
0000
0000
,
0000
3003
0000
0000
,
0000
0000
0000
0000
1000
0000
0100
0000
1000
0000
0001
0000
0010
0001
0020
0000
,
0000
0000
0031
1000
0001
0000
0100
0000
0001
0000
0100
0000
0010
1000
0010
0000
,
2000
0000
0000
0000
3001
0000
0010
0000
0001
0000
1000
0000
0100
1000
0200
0000
,
0000
0000
1300
0001
1000
0000
0010
0000
1000
0000
0001
0000
0001
0000
0100
0000
,
0001
0000
1000
0010
1000
0000
0100
0000
1000
0000
0001
0000
0010
0001
0020
0000
,
0000
0000
0031
0100
0001
0000
0100
0000
0010
0000
1000
0000
0010
1000
0010
0000
,
0200
0000
0000
0000
0301
0000
0010
0000
0001
0000
1000
0000
0100
1000
0200
0000
,
0000
0000
1300
0010
2000
0000
3002
0000
2003
0000
3020
0000
0230
0000
0302
0000
,
2003
0000
3020
0000
0131
0000
0001
0000
0100
0000
0010
0000
1000
0010
2000
0000
,
0000
0000
3010
0100
0001
0000
0010
0000
0001
0000
1000
0000
0100
1000
0001
0000
,
2002
0000
3003
0000
1010
0000
1000
0000
0010
0000
0100
0000
0001
0100
0002
0000
,
0000
0000
0103
0010
1000
0000
0100
0000
1000
0000
0001
0000
0001
0000
1000
0000
,
0010
0000
0100
0001
0101
0000
0001
0000
0110
0000
0010
0000
1000
0010
2000
0000
,
3002
0000
0013
0100
1000
0000
0010
0000
0100
0000
0001
0000
0100
0010
1000
0000
,
2002
0000
3003
0000
1010
0000
1000
0000
0010
0000
0100
0000
0001
0100
0020
0000
,
0230
0000
0301
1000
0020
0000
1000
0000
0230
0000
0001
0000
0320
0000
1030
0000
,
2002
3003
1000
0100
0110
0000
0100
0010
,
0001
1000
0001
0010
0110
0000
0010
0100
,
1000
0100
0010
0001
1001
0000
1000
0001
,
0100
0010
0100
0001
1001
1000
0020
0000
,
0230
0000
0301
0010
0110
0000
0010
0100
,
1000
0001
1000
0100
0110
0010
0001
0010
,
0100
1000
0001
1000
1001
0000
0001
1000
,
0010
0100
0010
1000
1001
0001
0200
0000
,
0320
1030
0000
0000
;

//---------------dance-single - ----------------
#NOTEDATA:;
#CHARTNAME:;
#STEPSTYPE:dance-single;
#DESCRIPTION:;
#CHARTSTYLE:;
#DIFFICULTY:Challenge;
#METER:16;
#RADARVALUES:0.440049,0.705536,0.180473,0.397861,0.352742,751.000000,707.000000,44.000000,97.000000,0.000000,7.000000,0.000000,0.000000,0.000000,0.440049,0.705536,0.180473,0.397861,0.352742,751.000000,707.000000,44.000000,97.000000,0.000000,7.000000,0.000000,0.000000,0.000000;
#CREDIT:;
#NOTES:
0000
0000
0000
0000
,
0000
0000
0000
0000
,
0000
0000
0000
0000
,
0000
0000
0000
0000
,
0000
0000
0000
0000
,
0000
0000
0000
0000
,
0000
0000
0001
0100
,
0100
0000
0001
0000
1000
0100
0000
0200
,
0000
0000
0300
0000
0010
0000
0001
2000
,
0000
3200
0000
0320
0000
0031
1000
0000
,
0001
1000
1001
0000
0010
0200
0000
0302
,
0000
2003
0000
3002
0000
0003
1000
0000
,
0100
2000
0000
3002
0000
0003
0100
0020
,
0000
2030
0000
3010
0100
0000
0001
0000
,
1000
0200
0000
0320
0000
0030
0001
2000
,
0000
3001
0100
0010
,
1000
0020
0000
0030
0000
0000
1000
0001
,
0100
0020
0000
0000
0130
0000
0001
0000
,
0100
0010
1000
0000
0001
0010
0100
1000
,
1000
0000
0100
0000
0001
0000
0000
0001
0000
0000
0100
0000
1000
0000
0000
2000
,
0000
0000
3001
0000
0100
0010
2000
0000
,
3001
0000
0010
0000
0100
0000
0000
1000
0000
0000
0001
0000
0100
0000
0000
0001
,
0000
0000
1000
0000
0100
0000
0000
0110
0000
0000
0001
0000
0100
0000
0000
0110
,
0000
0000
1000
0000
0100
0000
0000
1001
0000
0000
0001
0000
0010
0000
0000
2002
,
0000
0000
3003
0000
0010
1000
0001
0100
,
0100
0000
0001
0000
1000
0000
0000
0100
0000
0000
0010
0000
0001
0000
0000
2000
,
0000
0000
3001
0100
0001
0100
0010
1000
,
0010
1000
0001
0010
0100
1000
0001
1000
,
0100
0000
0010
0000
0001
0000
1000
0000
0100
0000
0010
0000
0010
0000
0000
0011
,
0000
0000
0001
0000
0100
0000
0000
0202
0000
0000
0303
0000
1000
0000
0000
0000
,
1000
0000
0001
0010
0100
1000
1000
0100
,
0010
0001
0001
0100
0010
1000
1000
0010
,
0100
0000
0001
0000
1000
0100
1000
0100
0010
0100
0010
0100
0010
0001
0010
0001
,
1000
0001
1000
0001
1000
0010
0100
0001
0010
0100
1000
0001
0100
0001
1000
0100
,
0010
0001
1000
0100
0020
0000
0000
0000
0000
0000
0000
0000
0230
0000
0000
0000
,
0000
2300
0000
3002
,
1000
0000
0000
1003
0000
0000
1001
0000
0000
0000
0000
0000
0110
0000
0000
0000
0000
0000
0100
0000
0001
0100
0000
0001
,
0000
0000
0000
1000
0000
1000
0000
0000
0100
0010
0001
0010
0001
0000
0000
0010
0000
0000
0010
0000
0000
0100
0000
0000
,
2000
0000
0000
0000
0000
0000
3110
0000
0000
0000
0000
0000
1001
0000
0000
0000
0000
0000
0001
0000
0100
0010
0000
0010
,
0000
0000
0000
1000
0000
1000
0000
0000
0001
0100
0010
0100
0010
0000
0000
1000
0000
0000
1000
0000
0000
0100
0000
0000
,
0110
0000
0000
0010
0000
0001
1001
0000
0000
0000
0000
0000
0110
0000
0000
0000
0000
0000
1000
0000
0100
0010
0000
0010
,
0000
0000
0000
0001
0000
0001
0000
0000
1000
0100
0010
0100
0010
0000
0000
0001
0000
0000
0001
0000
0000
0100
0000
0000
,
0020
0000
0000
0000
0000
0000
1031
0000
0000
0000
0000
0000
0110
0000
0000
0000
0000
0000
0001
0000
0010
0100
0000
0100
,
0000
0000
0000
1000
0000
1000
0000
0000
0100
0010
0001
0010
0001
0000
0000
1000
0000
0000
2000
0000
0000
3010
0000
0000
,
0200
0000
0000
0301
0000
0000
1001
0000
0000
0010
0000
0000
0110
0000
0000
0000
0000
0000
0010
0000
0100
0010
0000
0010
,
0000
0000
0000
0100
0000
0100
0000
0000
0001
1000
0001
1000
0010
0000
0000
0100
0000
0000
0100
0000
0000
0001
0000
0000
,
2002
0000
0000
0000
0000
0000
3113
0000
0000
0000
0000
0000
1001
0000
0000
0000
0000
0000
1000
0000
0100
0010
0000
0010
,
0000
0000
0000
0001
0000
0001
0000
0000
0010
0100
0010
0100
1000
0000
0000
0001
0000
0000
0001
0000
0000
0100
0000
0000
,
0010
0000
0000
1000
0000
0001
1001
0000
0000
0000
0000
0000
0110
0000
0000
0000
0000
0000
1000
0000
1000
0010
0000
0010
,
0000
0000
0000
0100
0000
0100
0000
0000
0001
0100
0001
0100
0010
0000
0000
1000
0000
0000
1000
0000
0000
0001
0000
0000
,
0020
0000
0000
0000
0000
0000
1031
0000
0000
0000
0000
0000
0110
0000
0000
0000
0000
0000
1000
0000
0001
0100
0000
0100
,
0000
0000
0000
0010
0000
0010
0000
0000
0100
0001
0100
0001
0100
0000
0000
0010
0000
0000
0020
0000
0000
0000
0000
0000
,
2030
3220
0000
0000
,
0000
0330
0000
0000
,
0000
0000
1000
0000
0100
0000
0010
0002
,
0000
2003
3000
0200
,
0300
0020
0000
0000
0031
0010
0100
2000
,
0000
3020
0000
1030
0010
0000
0200
0000
,
0301
2000
0000
0000
3002
0000
0000
2003
,
0000
3020
0000
0230
0000
0301
0100
0000
,
0020
0000
0030
0000
1000
0000
0100
0020
,
0000
0032
0000
2003
0000
3010
0200
0000
,
0310
0100
0110
0000
0001
0100
0010
1000
,
0100
0010
0001
1000
0001
0000
1000
0100
,
1000
0100
0010
0001
0010
0000
0001
1000
,
0010
0100
0001
1000
0100
0000
0100
0010
,
0001
1000
0001
1000
0010
0000
0100
0002
,
0000
0000
1003
0100
0010
0010
0001
0010
,
0100
2000
0000
0000
3000
0000
0001
1000
,
0010
0200
0000
0000
0301
1000
0010
0000
,
0010
0200
0000
0000
0310
1000
0010
0100
,
0001
0000
1000
0000
0100
0000
0000
0110
0000
0000
0001
0000
1000
0000
0000
0220
,
0000
0000
0330
0000
0010
1000
0002
0000
,
0013
0000
0100
0000
1000
0000
0000
1001
0000
0000
0100
0000
0010
0000
0000
1001
,
0000
0000
1000
0000
1000
0000
0000
0100
0000
0000
0001
0000
0001
0000
0000
0010
,
0000
0000
0001
0000
0001
0000
0000
0100
0000
0000
1000
0000
1000
0000
0000
0002
,
0000
0000
0003
0000
0010
0001
1000
0010
,
0010
0000
0100
0000
0001
0000
0000
0110
0000
0000
0001
0000
1000
0000
0000
0110
,
0000
1000
2002
0000
0000
0000
0000
0000
,
0000
3003
0000
0000
,
0000
0000
0000
0000
0000
0000
1000
0000
0000
0100
0000
0000
1000
0000
0000
0001
0000
0000
0010
0000
0001
0020
0000
0000
,
0000
0000
0000
0031
0000
1000
0001
0000
0000
0100
0000
0000
0001
0000
0000
0100
0000
0000
0010
0000
1000
0010
0000
0000
,
2000
0000
0000
0000
0000
0000
3001
0000
0000
0010
0000
0000
0001
0000
0000
1000
0000
0000
0100
0000
1000
0200
0000
0000
,
0000
0000
0000
1300
0000
0001
1000
0000
0000
0010
0000
0000
1000
0000
0000
0001
0000
0000
0001
0000
0000
0100
0000
0000
,
0001
0000
0000
1000
0000
0010
1000
0000
0000
0100
0000
0000
1000
0000
0000
0001
0000
0000
0010
0000
0001
0020
0000
0000
,
0000
0000
0000
0031
0000
0100
0001
0000
0000
0100
0000
0000
0010
0000
0000
1000
0000
0000
0010
0000
1000
0010
0000
0000
,
0200
0000
0000
0000
0301
0000
0010
0000
0001
0000
1000
0000
0100
1000
0200
0000
,
0000
0000
1300
0010
2000
0000
3002
0000
2003
0000
3020
0000
0230
0000
0302
0000
,
2003
0000
3020
0000
0131
0000
0001
0000
0100
0000
0010
0000
1000
0010
2000
0000
,
0000
0000
0000
3010
0000
0100
0001
0000
0000
0010
0000
0000
0001
0000
0000
1000
0000
0000
0100
0000
1000
0001
0000
0000
,
2002
0000
3003
0000
1010
0000
1000
0000
0010
0000
0100
0000
0001
0100
0002
0000
,
0000
0000
0000
0103
0000
0010
1000
0000
0000
0100
0000
0000
1000
0000
0000
0001
0000
0000
0001
0000
0000
1000
0000
0000
,
0010
0000
0000
0100
0000
0001
0101
0000
0000
0001
0000
0000
0110
0000
0000
0010
0000
0000
1000
0000
0010
2000
0000
0000
,
3002
0000
0000
0013
0000
0100
1000
0000
0000
0010
0000
0000
0100
0000
0000
0001
0000
0000
0100
0000
0010
1000
0000
0000
,
2002
0000
3003
0000
1010
0000
1000
0000
0010
0000
0100
0000
0001
0100
0020
0000
,
0230
0000
0000
0301
0000
1000
0020
0000
0000
1000
0000
0000
0230
0000
0000
0001
0000
0000
0320
0000
0000
1030
0000
0000
,
0110
0000
0000
1001
0000
0000
1000
0000
0100
0010
0100
0010
0001
0000
0000
0000
0000
0001
0100
0000
0100
0010
0000
1000
,
0000
0000
0000
1000
0000
1000
0001
0000
0010
0100
0010
0100
1000
0000
0001
1000
0001
1000
0010
0000
0010
0100
0000
0100
,
0001
0000
0001
1000
0001
1000
0010
0000
0100
0010
0100
0010
1000
0000
0000
0000
0000
1000
0100
0000
0100
0010
0000
0010
,
0000
0000
0000
0001
0000
0001
0100
0000
0100
0010
0100
0010
1000
0000
0001
1000
0001
1000
0020
0000
0000
1000
0000
0000
,
0230
0000
0000
0001
0000
0000
0310
0000
1000
0001
1000
0001
0100
0000
0000
0000
0000
0100
0010
0000
0010
1000
0000
0001
,
0000
0000
0000
1000
0000
1000
0100
0000
0100
0010
0001
0010
0001
0000
1000
0001
1000
0001
0100
0000
0100
0010
0000
0100
,
0001
0000
0100
0010
1000
0010
1000
0000
0001
1000
0001
1000
0010
0000
0000
0000
0000
0010
0100
0000
0100
0001
0000
0001
,
0000
0000
0000
1000
0000
0010
1000
0000
1000
0001
0100
0001
0100
0000
0001
0010
0001
0010
0200
0000
0000
1000
0000
0000
,
0320
0001
1130
0000
0000
0000
0000
0000
;

//---------------dance-single - ----------------
#NOTEDATA:;
#CHARTNAME:;
#STEPSTYPE:dance-single;
#DESCRIPTION:;
#CHARTSTYLE:;
#DIFFICULTY:Medium;
#METER:7;
#RADARVALUES:0.322859,0.384838,0.061525,0.114846,0.049220,551.000000,536.000000,15.000000,28.000000,0.000000,0.000000,0.000000,0.000000,0.000000,0.322859,0.384838,0.061525,0.114846,0.049220,551.000000,536.000000,15.000000,28.000000,0.000000,0.000000,0.000000,0.000000,0.000000;
#CREDIT:;
#NOTES:
// measure 0
0000
0000
0000
0000
,  // measure 1
0000
0000
0000
0000
,  // measure 2
0000
0000
0000
0000
,  // measure 3
0000
0000
0000
0000
,  // measure 4
0000
0000
0000
0000
,  // measure 5
0000
0000
0000
0000
,  // measure 6
0000
1000
0001
0100
,  // measure 7
0100
0001
1000
0100
,  // measure 8
0100
0010
0010
0001
,  // measure 9
1000
0100
0100
1000
,  // measure 10
0001
0000
1000
0000
0010
0100
0000
0001
,  // measure 11
0000
0100
0000
0002
0000
0003
1000
0000
,  // measure 12
0100
1000
0000
0002
0000
0003
0100
0010
,  // measure 13
0000
2000
0000
3010
1000
0000
0001
0000
,  // measure 14
1000
0100
0000
0020
0000
0030
0001
1000
,  // measure 15
0000
0001
0100
0010
,  // measure 16
1000
0010
0000
0000
0000
0000
1000
0001
,  // measure 17
0010
0100
0000
0000
0100
0000
1000
0000
,  // measure 18
0001
0100
0010
0000
1000
0010
1000
0000
,  // measure 19
0001
0000
0100
0000
0001
0000
0000
0001
0000
0000
1000
0000
0010
0000
0000
0010
,  // measure 20
0000
0000
0100
0000
0001
0100
0010
0000
,  // measure 21
1000
0000
0001
0000
0010
0000
0000
0010
0000
0000
0100
0000
1000
0000
0000
1000
,  // measure 22
0000
0000
0001
0000
0100
0000
0000
0100
0000
0000
0010
0000
1000
0000
0000
1000
,  // measure 23
0000
0000
0001
0000
0100
0000
0000
0100
0000
0000
0001
0000
0010
0000
0000
0010
,  // measure 24
0000
0000
0001
0000
0100
0010
1000
0010
,  // measure 25
0100
0000
0001
0000
0100
0000
0000
0100
0000
0000
0010
0000
1000
0000
0000
1000
,  // measure 26
0000
0000
0001
0100
0001
0000
1000
0100
,  // measure 27
1000
0000
0001
0010
0001
0010
0100
1000
,  // measure 28
0100
0000
0000
0000
1000
0000
0100
0000
1000
0000
0000
0000
0001
0000
0000
0001
,  // measure 29
0000
0000
0100
0000
0010
0000
0000
0010
0000
0000
1000
0000
0100
0000
0010
0000
,  // measure 30
0001
0000
0001
0010
0100
0000
1000
0100
,  // measure 31
0010
0000
0001
0100
0010
0000
1000
0010
,  // measure 32
0100
0000
0000
0000
1000
0000
0100
0000
0010
0000
0001
0000
0010
0000
0000
0010
,  // measure 33
0000
0000
0100
0000
1000
0000
0000
1000
0000
0000
0001
0000
1000
0000
0001
0000
,  // measure 34
1000
0010
0020
0000
0000
0000
0230
0000
,  // measure 35
0000
0302
0000
2003
,  // measure 36
0001
0000
3001
0000
0010
0000
0001
0010
,  // measure 37
0001
0000
1000
0000
0100
0000
1000
0100
,  // measure 38
1000
0000
0010
0000
1000
0000
0010
1000
,  // measure 39
0010
0000
0100
0001
0100
0001
0100
0001
,  // measure 40
0100
0000
0001
0010
0001
0000
1000
0100
,  // measure 41
1000
0000
0001
0010
0001
0010
0100
1000
,  // measure 42
0100
0000
1000
0010
1000
0000
0001
0100
,  // measure 43
0001
0000
2000
0000
3000
0001
0001
0000
,  // measure 44
1000
0000
0010
0100
0001
0000
0001
0100
,  // measure 45
0010
0000
0010
0100
0001
0100
0010
0100
,  // measure 46
0001
0000
1000
0100
0010
0000
0010
0100
,  // measure 47
1000
0000
1000
0100
0010
0100
1000
0100
,  // measure 48
0010
0000
0001
0001
0010
0000
1000
1000
,  // measure 49
0010
0000
0001
0010
1000
0010
0001
0010
,  // measure 50
1000
0000
0001
0100
0001
0000
1000
0100
,  // measure 51
1000
0220
0000
0000
,  // measure 52
0330
0200
0000
0300
,  // measure 53
0000
0000
0000
0000
,  // measure 54
0000
1000
0100
0010
,  // measure 55
0010
0001
1000
0100
,  // measure 56
0100
0000
1000
0001
0100
0000
0010
0000
,  // measure 57
0010
0000
0001
1000
0010
0000
0100
0000
,  // measure 58
0100
0000
0001
0010
0100
0000
1000
0000
,  // measure 59
1000
0000
0001
0100
0010
0000
0100
0000
,  // measure 60
0100
0000
0001
1000
0100
0000
0010
0000
,  // measure 61
0010
0000
0001
1000
0001
0000
1000
0000
,  // measure 62
1000
0000
0001
0100
0001
0000
0100
0000
,  // measure 63
0101
0000
0010
1000
0010
0000
1000
0000
,  // measure 64
1010
0000
0001
0010
0001
0000
0010
0000
,  // measure 65
0011
0000
1000
0100
1000
0000
0100
0000
,  // measure 66
1000
0100
0010
0000
0010
0000
0001
0100
,  // measure 67
0010
0000
0010
0100
0001
0000
1000
0010
,  // measure 68
1000
0000
0010
0100
0001
0000
0001
0100
,  // measure 69
0010
0000
1000
0001
0100
0010
1000
0001
,  // measure 70
0100
0000
1001
0000
0010
1000
0010
0000
,  // measure 71
0100
0000
0001
0000
0100
0000
0000
0100
0000
0000
0010
0000
1000
0000
0000
1000
,  // measure 72
0000
0000
0000
0000
0010
0100
0001
0000
,  // measure 73
0001
0000
0010
0000
0100
0000
0000
0100
0000
0000
1000
0000
0001
0000
0000
0001
,  // measure 74
0000
0000
0100
0000
0010
0000
0000
0010
0000
0000
1000
0000
0100
0000
0000
0100
,  // measure 75
0000
0000
0010
0000
0001
0000
0000
0001
0000
0000
1000
0000
0010
0000
0000
0010
,  // measure 76
0000
0000
0000
0000
0010
0100
0001
0000
,  // measure 77
1000
0000
0010
0000
1000
0000
0000
1000
0000
0000
0100
0000
0010
0000
0000
0010
,  // measure 78
0000
2002
0000
0000
,  // measure 79
0000
3003
0000
0000
,  // measure 80
0000
0000
1000
0100
1000
0001
0010
0002
,  // measure 81
0000
1003
0100
1000
0001
0100
0010
1000
,  // measure 82
0002
0000
1003
0010
0100
0001
0100
0002
,  // measure 83
0000
1003
0010
1000
0001
0100
0010
1000
,  // measure 84
1001
0000
1000
0100
1000
0001
0010
0002
,  // measure 85
0000
0103
0001
0100
0010
1000
0010
0100
,  // measure 86
0002
0000
1003
0100
1000
0001
0010
0002
,  // measure 87
0000
1003
0010
0000
0010
0000
0010
0000
,  // measure 88
0010
0000
0001
0100
0010
1000
0100
0020
,  // measure 89
0000
0031
0010
0100
1000
0010
0100
0001
,  // measure 90
1001
0000
0100
0010
1000
0100
0010
0002
,  // measure 91
0000
0013
0100
1000
0010
0100
0001
0010
,  // measure 92
0110
0000
0100
0010
0001
1000
0010
0200
,  // measure 93
0000
0310
0100
0010
1000
0001
0010
0100
,  // measure 94
1001
0000
1000
0100
0001
0100
1000
0002
,  // measure 95
0000
1003
0001
0010
1000
0010
0001
1000
,  // measure 96
1001
0000
1000
0100
0020
0000
0130
0010
,  // measure 97
0001
1000
0001
0010
0100
1000
0100
0010
,  // measure 98
0002
0000
0013
0100
1001
0000
1000
0001
,  // measure 99
0100
0010
0100
0001
1000
0010
0200
0000
,  // measure 100
0302
0000
1003
0100
0010
0000
0010
0100
,  // measure 101
1000
0001
1000
0100
0010
0001
0010
0100
,  // measure 102
1000
0001
0100
0010
0110
0000
0001
1000
,  // measure 103
0010
0100
0010
1000
0001
0100
0110
0000
,  // measure 104
1001
0100
0000
0000
;
