#VERSION:0.83;
#TITLE:Poseidon;
#SUBTITLE:;
#ARTIST:Pascu y Rodri;
#TITLETRANSLIT:;
#SUBTITLETRANSLIT:;
#ARTISTTRANSLIT:;
#GENRE:;
#ORIGIN:;
#CREDIT:;
#BANNER:Poseidon-bn.jpg;
#BACKGROUND:Poseidon-bg.jpeg;
#PREVIEWVID:;
#JACKET:Poseidon-jacket.jpg;
#CDIMAGE:;
#DISCIMAGE:;
#LYRICSPATH:;
#CDTITLE:cdtitle_ukiarrow.png;
#MUSIC:Poseidon.mp3;
#OFFSET:0.100000;
#SAMPLESTART:42.067905;
#SAMPLELENGTH:12.999999;
#SELECTABLE:YES;
#BPMS:0.000=138.000;
#STOPS:;
#DELAYS:;
#WARPS:;
#TIMESIGNATURES:0.000=4=4;
#TICKCOUNTS:0.000=4;
#COMBOS:0.000=1;
#SPEEDS:0.000=1.000=0.000=0;
#SCROLLS:0.000=1.000,
121.000=1.500,
129.000=1.000,
161.000=0.500,
165.000=1.000,
253.000=1.500,
261.000=0.800,
293.000=1.000,
349.000=1.500;
#FAKES:;
#LABELS:0.000=Song Start;
#BGCHANGES:0.250=Poseidon.mp4=1.000=0=0=1=====,
379.000=Poseidon-bg.jpeg=1.000=0=0=1=====,
99999=-nosongbg-=1.000=0=0=0 // don't automatically add -songbackground-
;
#KEYSOUNDS:;
#ATTACKS:
;

//---------------dance-single - ----------------
#NOTEDATA:;
#CHARTNAME:;
#STEPSTYPE:dance-single;
#DESCRIPTION:;
#CHARTSTYLE:;
#DIFFICULTY:Hard;
#METER:13;
#RADARVALUES:0.519281,0.599770,0.337325,0.564147,0.148307,625.000000,567.000000,58.000000,97.000000,0.000000,0.000000,0.000000,0.000000,0.000000,0.519281,0.599770,0.337325,0.564147,0.148307,625.000000,567.000000,58.000000,97.000000,0.000000,0.000000,0.000000,0.000000,0.000000;
#CREDIT:;
#NOTES:
0000
0000
0000
0000
,
0000
0000
0000
0000
,
0000
0000
0000
0000
,
0000
0000
0000
0000
,
0000
0002
0103
0200
,
0310
0000
0020
0000
1030
0000
1000
0100
,
1000
2000
3100
0200
,
0310
0000
0020
0000
0031
0000
1000
0100
,
1000
0100
1100
0000
0010
0001
2000
0000
,
3002
0000
0000
0000
1003
0000
0000
0010
0000
0000
0100
0000
0202
0000
0000
0000
,
0303
0000
0001
0010
0100
1000
0002
0000
,
2003
0000
3010
0000
0100
0010
0000
0010
,
1000
0000
2000
0000
3100
1000
0002
0000
,
0023
0000
0000
0000
0031
0000
0000
0100
0000
0000
0010
0000
2020
0000
0000
0000
,
3030
0000
2000
0000
3001
1000
0020
0000
,
0230
0000
0301
0000
0011
0022
0000
0033
,
0000
0000
0001
0100
0010
1000
0100
0010
,
0001
1000
0010
0100
0001
0010
0100
1000
,
0001
0000
1000
0100
0010
0001
0100
0010
,
1000
0000
0001
0000
0010
0000
0000
0100
0000
0000
1000
0000
0010
0000
0100
0000
,
0001
1000
0100
0010
0001
0100
0010
0100
,
0001
0010
0100
1000
0001
0100
0010
1000
,
0010
0000
0001
0100
0001
0100
0001
0100
,
0001
0001
1010
1000
1001
0001
0101
0010
,
1000
0000
0100
0000
0010
0001
0000
0001
0010
0000
0100
0000
1000
0000
0001
0000
,
0100
0000
0100
0000
0001
0010
0000
0010
0001
0000
1000
0000
0010
0100
0001
0000
,
0100
0000
0000
0000
0010
1000
0000
1000
0100
0000
0010
0000
0001
0000
1000
0000
,
0010
0010
0100
0000
0101
0001
1001
1000
,
1010
0000
0000
0000
1000
0001
0000
0001
0010
0000
0100
0000
1000
0000
0001
0000
,
0010
0000
0010
0000
0001
0100
0000
0100
0001
0000
1000
0000
0010
0100
0001
0000
,
0100
1200
1000
0001
,
0302
0020
0000
0000
,
0033
0000
1000
1100
0001
0101
1000
1000
,
0001
0000
0001
0011
1000
1010
0001
0001
,
1000
0000
0001
0011
0100
1100
1000
0010
,
0100
0010
1000
1010
0100
0101
0002
0000
,
2003
0000
3100
0010
0001
0001
0011
0100
,
1100
0000
0010
0100
1000
1000
1010
0100
,
0101
0000
0001
0010
1000
0010
0110
1000
,
1001
0000
1000
0100
0001
0100
0110
0000
,
2002
0000
3003
0000
0000
0000
0001
0010
,
0001
0010
0011
0000
0010
0001
2000
0000
,
3002
0000
0000
0000
1003
0000
0000
0010
0000
0000
0100
0000
0220
0000
0000
0000
,
0330
0000
0001
0010
0100
1000
0020
0000
,
0230
0000
0301
0000
0100
0010
0000
0010
,
1000
0000
0002
0000
0013
0001
2000
0000
,
3020
0000
0000
0000
0130
0000
0000
0001
0000
0000
1000
0000
2020
0000
0000
0000
,
3030
0000
2000
0000
3001
1000
0020
0000
,
0230
0000
0301
0000
0011
2200
0000
0000
,
3300
0000
0001
0100
0010
1000
0100
0010
,
0001
1000
0010
0100
0001
0010
0100
1000
,
0001
0000
1000
0100
0010
0001
0100
0010
,
1000
0000
0001
0000
0010
0000
0000
0100
0000
0000
0100
0000
1000
0000
0010
0000
,
0100
0001
1000
0100
0010
0001
0100
0010
,
0100
0001
0010
0100
1000
0001
0100
0010
,
1000
0000
0001
0100
0010
1000
0001
0100
,
0010
1000
1010
1000
1001
0001
0101
0100
,
0110
0000
0010
0000
0100
1000
0000
1000
0100
0000
0001
0000
0010
0000
0100
0000
,
1000
0000
0001
0000
0010
0100
0000
0100
1000
0000
0010
0000
0100
0001
1000
0000
,
0010
0000
0000
0000
1000
0100
0000
0100
0010
0000
0001
0000
1000
0000
0010
0000
,
0100
0001
1000
0000
0101
0001
1001
1000
,
1010
0000
0000
0000
1000
0001
0000
0001
0010
0000
0100
0000
1000
0000
0001
0000
,
0010
0000
0010
0000
0001
0100
0000
0100
0001
0000
1000
0000
0010
0100
0001
0000
,
0100
1200
1000
0001
,
0302
0020
0000
0000
,
0033
0000
0020
0130
0020
0130
2000
3001
,
1000
0000
0002
0103
2000
3100
0002
0013
,
2002
3003
2000
3010
2000
3010
0020
1030
,
0102
1003
0002
1003
0200
0310
2200
3300
,
0022
0033
0002
1003
2000
3001
0002
1003
,
2020
3030
0200
0301
0200
0301
0020
1030
,
0202
0303
0002
0103
2000
3100
2000
3001
,
2002
3003
0020
0130
0200
0310
0220
0330
,
2002
0000
3003
0000
0001
0010
0000
0010
0100
0000
1000
0000
0010
0000
0100
0000
,
0001
0000
1000
0000
0100
0010
0000
0010
0001
0000
0100
0000
0010
0000
1000
0000
,
0001
0000
0000
0000
1000
0100
0000
0100
1000
0000
0001
0000
0100
0000
0010
0000
,
0100
0000
0001
0000
0010
0000
0000
0001
0000
0000
1000
0000
0010
0000
1000
0000
,
0100
0000
0001
0000
1000
0010
0000
0010
0100
0000
0010
0000
0001
0000
1000
0000
,
0010
0000
0100
0000
0001
0010
0000
0010
0100
0000
1000
0000
0001
0000
0100
0000
,
0010
0000
1000
0100
1000
0100
0010
0010
,
0001
0001
0011
0001
1001
1000
1010
0010
,
0110
0000
0100
0000
0001
0100
0000
0100
0001
0000
0010
0000
0100
0000
1000
0000
,
0001
0000
0100
0000
0010
1000
0000
1000
0001
0000
0100
0000
0001
1000
0010
0000
,
0100
0000
0000
0000
0010
0100
0000
0100
0001
0000
0010
0000
0100
0000
1000
0000
,
0001
0100
0010
0000
0101
0010
1010
0100
,
1100
0000
0000
0000
0010
0001
0000
0001
0100
0000
0010
0000
1000
0000
0100
0000
,
0001
0000
0100
0000
1000
0000
0000
0010
0000
0000
0001
0000
0001
0000
0010
0000
,
1000
0021
0001
1000
,
2030
0200
0000
0000
,
3300
0020
0000
0032
,
0000
2003
0000
3200
,
0000
2300
0000
3020
,
0000
0230
0000
0000
,
0000
0000
0000
0300
;

//---------------dance-single - ----------------
#NOTEDATA:;
#CHARTNAME:;
#STEPSTYPE:dance-single;
#DESCRIPTION:;
#CHARTSTYLE:;
#DIFFICULTY:Medium;
#METER:10;
#RADARVALUES:0.415425,0.463458,0.197742,0.430380,0.037804,500.000000,466.000000,34.000000,74.000000,0.000000,0.000000,0.000000,0.000000,0.000000,0.415425,0.463458,0.197742,0.430380,0.037804,500.000000,466.000000,34.000000,74.000000,0.000000,0.000000,0.000000,0.000000,0.000000;
#CREDIT:;
#NOTES:
0000
0000
0000
0000
,
0000
0000
0000
0000
,
0000
0000
0000
0000
,
0000
0000
0000
0000
,
0000
0000
0000
0000
,
0000
0000
0000
0000
,
0000
0000
0000
0000
,
0000
0000
0000
0000
0000
0000
1000
0100
,
0010
0001
2000
0000
3100
1000
0001
0000
,
0101
0000
0000
0000
0001
0000
0000
0010
0000
0000
0100
0000
2000
0000
0000
0000
,
3100
0000
0001
0010
0100
1000
0002
0000
,
0103
0000
0001
0000
1000
0010
0000
0010
,
0100
0000
0002
0000
0103
0010
1000
0000
,
0001
0000
0000
0000
1000
0000
0000
0100
0000
0000
0010
0000
0002
0000
0000
0000
,
1003
0000
2200
0000
0300
3100
0010
0000
,
0001
0000
0002
0000
1003
0010
0000
0010
,
0100
0000
0001
0010
0001
0100
0010
1000
,
0001
0000
1000
0100
1000
0010
0200
0000
,
0301
0000
0010
0001
0100
0010
1000
0100
,
0010
0000
0000
0000
0100
0000
0000
1000
0000
0000
0001
0000
1000
0000
0100
0000
,
0010
0001
1000
0010
0100
0001
0020
0000
,
0130
0000
0010
0001
0100
0010
2000
0000
,
3001
0000
1000
0100
0010
0010
0001
0100
,
0010
0000
2000
3001
0002
1003
0020
0130
,
0200
0310
0110
0000
1001
0000
1000
0100
,
1000
0000
0000
0000
0100
0000
0000
0010
0000
0000
0001
0000
1000
0000
0100
0000
,
1000
1100
0011
0002
,
1003
0020
0000
0000
0031
0010
1000
0010
,
0100
0000
0110
0000
1001
0000
1000
0100
,
1000
0000
0000
0000
0100
0000
0000
0010
0000
0000
0001
0000
0100
0000
0010
0000
,
1000
2020
3030
0202
,
0303
2002
0000
0000
,
3003
0000
0001
0100
0002
0000
0103
1000
,
0100
0000
1000
0020
0000
1030
0010
0001
,
0010
0000
0001
0010
0100
1000
0001
0010
,
0200
0000
1300
0100
0010
0001
0011
0000
,
0011
0000
0001
1000
0010
0100
0001
1000
,
0020
0000
0130
1000
0001
0010
1000
0001
,
0020
0000
0031
0010
0001
0010
0100
1000
,
0010
0000
1000
0010
0100
0001
0101
0000
,
0202
0000
0303
0000
0000
0000
0001
0010
,
0001
0000
2000
0000
3100
1000
0002
0000
,
1003
0000
0000
0000
0001
0000
0000
0010
0000
0000
0100
0000
2000
0000
0000
0000
,
3100
0000
0001
0100
0010
1000
0002
0000
,
0103
0000
0010
0000
1000
0100
0000
0100
,
0010
0000
0002
0000
0103
0010
1000
0000
,
0001
0000
0000
0000
1000
0000
0000
0100
0000
0000
0010
0000
0002
0000
0000
0000
,
1003
0000
0200
0000
1300
0100
0010
0000
,
0001
0000
0002
0000
1003
0010
0000
0010
,
0100
0000
0010
0100
0010
1000
0001
0010
,
0100
0000
1000
0001
1000
0100
0010
0001
,
0100
0000
0010
1000
0001
0100
0010
0100
,
0001
0000
0000
0000
0100
0000
0000
0001
0000
0000
1000
0000
0001
0000
0010
0000
,
0100
1000
0010
0100
0001
0010
0200
0000
,
0310
0000
0001
0100
0010
1000
0002
0000
,
1003
0000
0100
0010
0001
0001
0100
0010
,
1000
0000
0002
0013
0020
0130
0200
1300
,
2000
3010
0110
0000
1001
0000
1000
0100
,
1000
0000
0000
0000
0100
0000
0000
0010
0000
0000
0001
0000
1000
0000
0100
0000
,
1000
1100
0011
0002
,
1003
0020
0000
0000
0031
0010
1000
0010
,
0100
0000
0110
0000
1001
0000
1000
0100
,
1000
0000
0000
0000
0100
0000
0000
0010
0000
0000
0001
0000
0100
0000
0010
0000
,
1000
2020
3030
0202
,
0303
2002
0000
0000
,
3003
0000
0001
0010
0100
0000
0100
1000
,
0001
0000
1000
0010
0100
0001
1000
1000
,
0001
0000
0100
0010
1000
0000
0100
0010
,
0001
0000
0100
0001
1000
1000
0020
0000
,
0230
0000
0301
1000
0010
0000
1000
0001
,
0010
0000
0001
0100
1000
1000
0100
0001
,
1000
0000
0001
0010
0100
0000
0100
0010
,
0001
0000
1000
0010
0100
0010
1000
0000
,
1001
0000
0001
0010
0100
1000
0010
0100
,
0001
0000
1000
0010
0100
0001
0020
0000
,
0130
0000
1000
0100
0010
0001
0100
0010
,
1000
0000
0000
0000
0001
0000
0000
0010
0000
0000
0001
0000
1000
0000
0010
0000
,
0200
0000
0301
0100
0010
0100
0001
0100
,
0010
0000
1000
0100
0010
0100
1000
0010
,
0100
0000
0010
1000
0001
1000
0010
1000
,
0001
0000
0200
0301
0002
0103
0020
1030
,
2000
3010
1010
0000
0101
0000
0100
0001
,
1000
0000
0000
0000
1000
0000
0000
0001
0000
0000
0010
0000
0100
0000
1000
0000
,
0001
0011
1100
0100
,
1000
0002
0000
0000
0103
0001
0010
0001
,
0100
0000
0110
0000
1001
0000
1000
0100
,
1000
0000
0000
0000
0001
0000
0000
0010
0000
0000
0100
0000
0010
0000
0001
0000
,
1000
2200
3300
0022
,
0033
2002
0000
0000
,
3003
0020
0000
0032
,
0000
2003
0000
3200
,
0000
2300
0000
3020
,
0000
0032
0000
0000
,
0000
0000
0000
0003
;

//---------------dance-single - ----------------
#NOTEDATA:;
#CHARTNAME:;
#STEPSTYPE:dance-single;
#DESCRIPTION:;
#CHARTSTYLE:;
#DIFFICULTY:Easy;
#METER:5;
#RADARVALUES:0.294952,0.354409,0.174478,0.488540,0.000000,355.000000,325.000000,30.000000,84.000000,0.000000,0.000000,0.000000,0.000000,0.000000,0.294952,0.354409,0.174478,0.488540,0.000000,355.000000,325.000000,30.000000,84.000000,0.000000,0.000000,0.000000,0.000000,0.000000;
#CREDIT:;
#NOTES:
0000
0000
0000
0000
,
0000
0000
0000
0000
,
0000
0000
0000
0000
,
0000
0000
0000
0000
,
0000
1000
0000
0010
,
0000
0100
0000
0001
,
0000
2000
0000
3002
,
0000
0203
0000
0300
,
0000
0001
0010
0100
,
1000
0010
0010
0220
,
0330
0100
0010
1000
,
0010
0100
0100
0220
,
0330
0100
0001
1000
,
0001
1000
0010
1001
,
0000
0010
1000
0001
,
1000
0001
0100
1001
,
0000
0002
0010
0010
,
0013
0200
1000
1000
,
1300
0020
1000
1000
,
1030
0002
0100
0100
,
0103
0020
1000
1000
,
1030
0200
0010
0010
,
0310
0002
1003
2000
,
3001
0000
1000
0001
1000
0000
0001
1000
,
0001
0110
1001
2000
,
3100
0000
0020
0000
0031
0000
1000
0001
,
1000
0110
1001
1000
,
0001
0200
0000
0000
,
0300
0110
1001
0002
,
0013
0000
0200
0000
1300
0000
0010
0100
,
0010
0020
0000
2030
,
0000
3002
0000
0000
,
0003
1000
0100
0001
,
0100
0000
1000
0001
1000
0000
0001
1000
,
0001
1000
0010
0001
,
0010
2000
3001
1001
,
1001
0001
0100
1000
,
0100
0000
0001
1000
0001
0000
1000
0001
,
1000
0001
0010
1000
,
0010
0000
0001
1000
0001
0000
1001
0000
,
2002
3003
0000
0000
,
0000
0001
0010
0100
,
1000
0010
0100
0220
,
0330
0100
0010
1000
,
0001
1000
0100
0220
,
0330
0010
0001
0100
,
0100
0010
1000
1001
,
0000
0010
1000
0100
,
0100
0010
0001
1001
,
0000
0002
0010
1000
,
0013
0200
1000
0010
,
1300
0020
1000
0100
,
1030
0002
0100
1000
,
0103
0020
0100
1000
,
0130
0200
0010
0001
,
0310
0002
1003
2000
,
3001
0000
1000
0001
1000
0000
0001
1000
,
0001
0110
1001
2000
,
3010
0000
0200
0000
0301
0000
1000
0001
,
1000
0110
1001
1000
,
0001
0200
0000
0000
,
0300
0110
1001
0002
,
0013
0000
0200
0000
1300
0000
0010
0100
,
0010
0200
0000
0302
,
0000
2003
0000
0000
,
3000
0002
0103
0002
,
0103
0000
0020
0000
1030
0000
0010
1000
,
0010
2000
3100
2000
,
3100
0000
0010
0001
0010
0000
0002
0000
,
0023
0000
0031
0100
0001
0000
0100
0001
,
0100
0000
0020
0000
1030
0000
1000
0010
,
1000
0002
1003
2000
,
3001
0000
0010
0100
0010
0000
0200
0000
,
0310
0002
0010
1000
,
1003
2000
0100
0001
,
3001
0020
1000
0100
,
0130
0200
0001
0010
,
0310
0020
0100
1000
,
1030
0200
0010
0001
,
0301
0002
0023
0230
,
2300
0000
3001
1000
0001
0000
1000
0001
,
1000
0110
1001
2000
,
3100
0000
2000
0000
3010
0000
1000
0001
,
1000
0110
1001
0001
,
1000
0200
0000
0000
,
0300
0110
1001
2000
,
3020
0000
0230
0000
0302
0000
1003
0001
,
1000
0020
0000
2030
,
0000
3002
0000
0000
,
0003
0020
0000
0032
,
0000
2003
0000
3200
,
0000
2300
0000
3020
,
0000
2030
0000
0000
,
0000
0000
0000
3000
;

//---------------dance-single - ----------------
#NOTEDATA:;
#CHARTNAME:;
#STEPSTYPE:dance-single;
#DESCRIPTION:;
#CHARTSTYLE:;
#DIFFICULTY:Challenge;
#METER:16;
#RADARVALUES:0.664680,0.931279,0.325693,0.383853,0.631030,800.000000,744.000000,56.000000,66.000000,0.000000,1.000000,0.000000,0.000000,0.000000,0.664680,0.931279,0.325693,0.383853,0.631030,800.000000,744.000000,56.000000,66.000000,0.000000,1.000000,0.000000,0.000000,0.000000;
#CREDIT:;
#OFFSET:0.100000;
#BPMS:0.000000=138.000000
;
#STOPS:93.000000=0.108696
,93.250000=0.108696
,93.500000=0.108696
,93.750000=0.108696
,94.000000=0.108696
,94.250000=0.108696
,94.500000=0.108696
,94.750000=0.108696
,108.000000=0.108696
,108.250000=0.108696
,108.500000=0.108696
,108.750000=0.108696
,222.000000=0.108696
,222.250000=0.108696
,222.500000=0.108696
,222.750000=0.108696
,223.000000=0.108696
,223.250000=0.108696
,223.500000=0.108696
,223.750000=0.108696
,237.000000=0.108696
,237.250000=0.108696
,237.500000=0.108696
,237.750000=0.108696
,315.000000=0.108688
,315.250000=0.108704
,315.500000=0.108704
,315.750000=0.108704
,316.000000=0.108704
,316.250000=0.108704
,316.500000=0.108704
,316.750000=0.108704
,330.000000=0.108704
,330.250000=0.108704
,330.500000=0.108704
,330.750000=0.108704
;
#DELAYS:;
#WARPS:;
#TIMESIGNATURES:0.000000=4=4
;
#TICKCOUNTS:0.000000=4
;
#COMBOS:0.000000=1
;
#SPEEDS:0.000000=1.000000=0.000000=0
;
#SCROLLS:0.000000=1.000000
,93.000000=2.000000
,94.750000=1.000000
,108.000000=2.000000
,109.000000=1.000000
,118.000000=1.500000
,126.000000=1.000000
,158.000000=0.500000
,162.000000=1.000000
,222.000000=2.000000
,224.000000=1.000000
,237.000000=2.000000
,238.000000=1.000000
,247.000000=1.500000
,255.000000=0.800000
,287.000000=1.000000
,315.000000=2.000000
,317.000000=1.000000
,330.000000=2.000000
,331.000000=1.000000
,340.000000=1.500000
;
#FAKES:;
#LABELS:0.000000=Song Start
;
#NOTES:
0000
0000
0000
0000
,
0000
0000
0000
0000
,
0000
0000
0000
0000
,
0000
0000
0000
0000
,
0000
0002
0103
2000
,
3100
0000
0010
0000
0010
0001
0010
1000
,
0010
0002
0103
2000
,
3100
0000
0010
0000
0010
0000
0100
1000
,
0100
0001
1001
0000
0010
0001
2000
0000
,
3002
0000
0000
0000
1003
0000
0000
0010
0000
0000
0100
0000
0102
0000
0000
0000
,
1003
0000
0001
0010
0100
1000
0002
0000
,
2003
0000
3010
0000
0100
0120
0000
1030
,
0001
0000
2000
0000
3100
1000
0002
0000
,
0023
0000
0000
0000
0031
0000
0000
0100
0000
0000
0010
0000
2010
0000
0000
0000
,
3001
0000
2000
0000
3001
1000
0020
0000
,
0230
0000
0301
0000
0010
0100
0000
1000
,
1001
0000
0000
0000
0001
0100
0001
0100
0010
1000
0010
1000
0001
0000
0010
0000
,
0100
0000
1000
0000
0010
1000
0010
1000
0001
0100
0001
0100
0010
0000
1000
0000
,
0001
0000
0000
0000
1000
0100
1000
0100
0010
0001
0010
0001
1000
0000
0010
0000
,
0100
0000
0001
0000
0010
0001
0010
0001
1000
0100
1000
0100
0010
0000
0100
0000
,
1000
0000
0001
0000
0100
0010
0100
0010
1000
0001
1000
0001
0010
0000
0100
0000
,
1000
0000
0001
0000
1000
0001
1000
0001
0100
0010
0100
0010
1000
0000
0001
0000
,
0010
0000
0100
0000
1000
0100
1000
0100
0010
0001
0010
0001
1000
0100
1000
0100
,
0010
0001
0010
0001
0010
0011
0001
1001
1000
1010
0010
0110
0010
1000
0010
1000
,
0000
1000
0100
0000
0010
0001
0010
0001
0000
0001
0100
0000
0001
0100
0001
0100
,
0000
0100
0010
0000
1000
0100
1000
0100
0000
0100
0010
0000
0100
1000
0100
1000
,
0000
1000
0010
0000
0100
0001
0100
0001
0000
0001
0010
0000
0100
0000
0000
0000
,
1100
0100
0110
0010
1001
0000
0000
0000
1000
0100
1000
0100
0000
0010
0001
0000
,
0001
0100
0001
0100
0000
0010
1000
0000
0001
0010
0001
0010
0000
0100
1000
0000
,
1000
0010
1000
0010
0000
0100
0001
0000
1200
0000
0000
1000
0000
0000
1000
0000
,
0001
0000
0000
0001
0000
0000
0001
0000
1000
0000
0000
1000
0000
0000
1000
0000
,
0010
0000
0000
0010
0000
0000
0310
0000
1000
0000
0100
0000
0001
0000
0100
0000
,
1100
0101
1001
0000
0001
0001
1000
1000
,
1010
0011
1001
0000
0002
0013
0200
1300
,
1010
0000
0100
0000
0101
0000
0001
0000
1000
0000
0010
0000
0100
0000
0001
1000
,
0200
0000
0320
0000
0031
0001
1000
1000
,
1001
0100
1001
0000
0001
0010
0100
0010
,
0011
0001
0100
0000
0001
0100
0010
0100
,
0110
1000
1001
0000
1000
0001
0100
0001
,
0110
2002
3003
0000
,
0001
1000
0100
1000
0001
0000
0010
0001
,
2000
0000
0000
0000
3002
0000
0000
0000
1003
0000
0000
0010
0000
0000
0100
0000
,
0210
0000
0301
0000
0001
0010
0100
1000
,
0020
0000
0230
0000
0301
0000
0100
0010
,
0000
1000
1010
0000
0002
0000
0013
0001
,
2000
0000
0000
0000
3020
0000
0000
0000
0130
0000
0000
0001
0000
0000
1000
0000
,
2010
0000
3100
0000
1000
0001
1000
0010
,
0100
0001
0200
0000
0310
0000
1000
0100
,
0000
0000
0010
0000
0011
0000
0000
0000
0001
0100
0001
0100
0010
1000
0001
0100
,
0010
0000
1000
0000
0001
0000
0100
0000
0010
0100
0001
1000
0001
0100
0001
0100
,
0010
0000
1000
0000
0001
0000
0100
0000
0001
1000
0001
1000
0100
0010
0001
1000
,
0100
0000
1000
0000
0001
0000
0010
0000
0100
1000
0001
0010
0001
1000
0001
1000
,
0010
0000
0010
0000
0100
0000
0100
0000
0001
0010
0100
1000
0100
0010
0001
1000
,
0100
0000
0100
0000
0010
0000
0010
0000
0001
0100
0010
1000
0001
1000
0010
0100
,
0001
0000
0001
0000
1000
0000
1000
0000
0001
0100
0001
0100
0010
0100
0010
0100
,
1000
0100
1000
0100
0010
0100
0010
0100
0010
1010
1000
1001
0001
0101
0100
0110
,
0100
0001
0100
0001
0000
1000
0010
0000
1000
0100
1000
0100
0000
0010
0001
0000
,
1000
0010
1000
0010
0000
0100
0001
0000
0100
0001
1000
0000
0010
1000
0001
0000
,
1000
0100
0010
0001
0000
0010
0001
0000
0010
0100
1000
0001
0000
1000
0001
0000
,
1000
0000
0000
0000
1100
1000
1001
0001
0011
0000
0000
0000
1000
0100
1000
0100
,
0000
0100
0010
0000
0001
0100
0001
0100
0000
0100
0010
0000
1000
0010
1000
0010
,
0000
0010
0100
0000
0001
0010
0001
0000
1000
0100
1000
0000
1200
0000
0000
1000
,
0000
0000
1000
0000
0001
0000
0000
0001
0000
0000
0001
0000
1000
0000
0000
1000
,
0000
0000
1000
0000
0010
0000
0000
0010
0000
0000
0310
0000
2000
0000
0100
0000
,
3200
0000
0010
0010
0310
0000
0002
0100
,
0100
2003
0100
3001
2002
3003
2000
0010
,
3020
0000
0100
0100
0130
0001
0100
0001
,
0100
0010
2020
3030
0202
0303
0002
1000
,
2003
0010
0010
0001
3001
0000
0100
0001
,
0100
0010
1000
0001
2002
3003
0001
0200
,
0010
0310
0020
1000
0130
0000
0200
0001
,
0302
0000
0010
0000
0023
0000
0000
0000
0230
0000
0000
0000
1300
0100
1000
0100
,
0010
0001
0010
0001
1000
0000
0100
0000
0010
0000
0001
0000
0010
0100
0010
0100
,
1000
0001
1000
0001
0010
0000
0100
0000
1000
0000
0001
0000
1000
0010
1000
0010
,
0100
0001
0100
0001
1000
0000
0010
0000
0100
0000
0001
0000
0100
0010
0100
0010
,
1000
0001
1000
0001
1000
0100
0010
0001
1000
0000
0001
0000
1000
0001
1000
0001
,
0010
0100
0010
0100
1000
0000
0001
0000
0010
0000
0100
0000
1000
0100
0010
0001
,
1000
0100
0010
0001
0010
0000
0001
0000
0100
0000
1000
0000
1000
0100
1000
0100
,
0001
0100
0001
0100
0010
0100
0010
0100
0010
1000
0010
1000
0001
0101
0100
0110
,
0010
1010
1000
1001
0001
0100
0001
0100
0000
0001
0010
0000
0100
1000
0100
1000
,
0000
0010
0100
0000
0010
1000
0010
1000
0000
0001
0010
0000
0100
1000
0010
0000
,
0100
0001
0010
0000
0100
1000
0001
0010
0000
0001
1000
0000
0100
1000
0001
0100
,
0000
0001
1000
0000
0010
0000
0000
0000
0101
0100
0110
0010
1010
0000
0000
0000
,
0010
0100
0001
1000
0000
0001
0100
0000
0010
1000
0100
0010
0000
0100
1000
0000
,
0010
0100
0001
1000
0000
0100
0001
0000
0101
0000
0110
0000
1100
0000
0000
0000
,
0021
0000
0000
0001
0000
0000
0001
0000
1000
0000
0000
1000
0000
0000
1000
0000
,
0001
0000
0000
0001
0000
0000
0001
0000
0100
0000
0000
0100
0000
0000
0130
0000
,
0020
0000
0032
0000
,
2003
0000
3200
0000
,
2300
0000
3020
0000
,
2032
0000
0000
0000
,
0000
0000
3003
0000
;

//---------------dance-single - ----------------
#NOTEDATA:;
#CHARTNAME:;
#STEPSTYPE:dance-single;
#DESCRIPTION:;
#CHARTSTYLE:;
#DIFFICULTY:Beginner;
#METER:4;
#RADARVALUES:0.213528,0.218098,0.000000,0.116319,0.000000,257.000000,257.000000,0.000000,20.000000,0.000000,0.000000,0.000000,0.000000,0.000000,0.213528,0.218098,0.000000,0.116319,0.000000,257.000000,257.000000,0.000000,20.000000,0.000000,0.000000,0.000000,0.000000,0.000000;
#CREDIT:;
#NOTES:
// measure 0
0000
0000
0000
0000
,  // measure 1
0000
0000
0000
0000
,  // measure 2
0000
0000
0000
0000
,  // measure 3
0000
0000
0000
0000
,  // measure 4
0000
1000
0000
1000
,  // measure 5
0000
0001
0000
0001
,  // measure 6
0000
1000
0000
0001
,  // measure 7
0000
2000
0000
3000
,  // measure 8
0000
0001
0010
0001
,  // measure 9
0000
1000
1000
0010
,  // measure 10
0000
1000
0010
1000
,  // measure 11
0000
0001
0001
0100
,  // measure 12
0000
0001
0010
0100
,  // measure 13
0000
0100
1000
0001
,  // measure 14
0000
1000
0010
0100
,  // measure 15
0000
0100
0001
1000
,  // measure 16
0000
0010
0010
0010
,  // measure 17
0010
0100
0100
0100
,  // measure 18
0000
0001
0001
0001
,  // measure 19
0001
1000
1000
1000
,  // measure 20
0000
0010
0010
1000
,  // measure 21
1000
0010
0010
1000
,  // measure 22
0000
0001
0001
0100
,  // measure 23
0100
0020
0030
0200
,  // measure 24
0300
0001
0001
1000
,  // measure 25
1000
0001
1000
0001
,  // measure 26
0000
1000
0001
1000
,  // measure 27
0001
2000
0000
3000
,  // measure 28
0000
0001
0001
1000
,  // measure 29
1000
0001
1000
0001
,  // measure 30
0000
0010
0000
0100
,  // measure 31
0000
2000
0000
0000
,  // measure 32
3000
1000
1000
1000
,  // measure 33
0000
0001
0001
0001
,  // measure 34
0001
0010
0010
0010
,  // measure 35
0000
0100
0100
0100
,  // measure 36
0100
1000
1000
1000
,  // measure 37
0000
0010
0010
0010
,  // measure 38
0010
0100
0100
0100
,  // measure 39
0000
0001
1000
0001
,  // measure 40
1000
0000
0000
0000
,  // measure 41
0000
0001
0010
0001
,  // measure 42
0000
1000
1000
0010
,  // measure 43
0000
1000
0010
1000
,  // measure 44
0000
0001
0001
0100
,  // measure 45
0000
0001
0010
0100
,  // measure 46
0000
0100
1000
0001
,  // measure 47
0000
1000
0010
0100
,  // measure 48
0000
0100
0001
1000
,  // measure 49
0000
0010
0010
0010
,  // measure 50
0010
0100
0100
0100
,  // measure 51
0000
0001
0001
0001
,  // measure 52
0001
1000
1000
1000
,  // measure 53
0000
0010
0010
1000
,  // measure 54
1000
0010
0010
1000
,  // measure 55
0000
0001
0001
0100
,  // measure 56
0100
0020
0030
0200
,  // measure 57
0300
0001
0001
1000
,  // measure 58
1000
0001
1000
0001
,  // measure 59
0000
1000
0001
1000
,  // measure 60
0001
2000
0000
3000
,  // measure 61
0000
0001
0001
1000
,  // measure 62
1000
0001
1000
0001
,  // measure 63
0000
0010
0000
0100
,  // measure 64
0000
2000
0000
0000
,  // measure 65
3000
1000
0000
1000
,  // measure 66
0000
0001
0001
0001
,  // measure 67
0000
0010
0000
0010
,  // measure 68
0000
0001
0001
0001
,  // measure 69
0000
0100
0000
0100
,  // measure 70
0000
0001
0001
0001
,  // measure 71
0000
1000
0000
1000
,  // measure 72
0000
0001
0001
0001
,  // measure 73
0000
0010
0010
0100
,  // measure 74
0100
1000
0001
1000
,  // measure 75
0000
0010
0010
0100
,  // measure 76
0100
0001
1000
0001
,  // measure 77
0000
0010
0010
0100
,  // measure 78
0100
1000
1000
0001
,  // measure 79
0000
0100
0001
0100
,  // measure 80
0100
0020
0030
2000
,  // measure 81
3000
0001
0001
1000
,  // measure 82
1000
0010
0100
0010
,  // measure 83
0000
1000
0001
1000
,  // measure 84
0001
2000
0000
3000
,  // measure 85
0000
0001
0001
1000
,  // measure 86
1000
0100
0010
0100
,  // measure 87
0000
0010
0000
0001
,  // measure 88
0000
2000
0000
0000
,  // measure 89
3000
0020
0030
0002
,  // measure 90
0003
2000
3000
0200
,  // measure 91
0300
2000
3000
0020
,  // measure 92
0030
0020
0000
0000
,  // measure 93
0000
0000
0000
0030
;
