#VERSION:0.83;
#TITLE:Midnight Dancer;
#SUBTITLE:;
#ARTIST:Toshiki Masuda;
#TITLETRANSLIT:;
#SUBTITLETRANSLIT:;
#ARTISTTRANSLIT:;
#GENRE:;
#ORIGIN:;
#CREDIT:;
#BANNER:Midnight Dancer-bn.jpg;
#BACKGROUND:Midnight Dancer-bg.png;
#PREVIEWVID:;
#JACKET:Midnight Dancer-jacket.jpg;
#CDIMAGE:;
#DISCIMAGE:;
#LYRICSPATH:;
#CDTITLE:cdtitle_ukiarrow.png;
#MUSIC:Midnight Dancer.mp3;
#OFFSET:1.600000;
#SAMPLESTART:49.587982;
#SAMPLELENGTH:12.000000;
#SELECTABLE:YES;
#BPMS:0.000=137.000;
#STOPS:;
#DELAYS:;
#WARPS:;
#TIMESIGNATURES:0.000=4=4;
#TICKCOUNTS:0.000=4;
#COMBOS:0.000=1;
#SPEEDS:0.000=1.000=0.000=0;
#SCROLLS:0.000=1.000;
#FAKES:;
#LABELS:0.000=Song Start;
#BGCHANGES:3.750=Midnight Dancer.mp4=1.000=0=0=1=====,
99999=-nosongbg-=1.000=0=0=0 // don't automatically add -songbackground-
;
#KEYSOUNDS:;
#ATTACKS:
;

//---------------dance-single - ----------------
#NOTEDATA:;
#CHARTNAME:;
#STEPSTYPE:dance-single;
#DESCRIPTION:;
#CHARTSTYLE:;
#DIFFICULTY:Hard;
#METER:15;
#RADARVALUES:0.646632,0.689643,0.399684,0.139889,0.844333,453.000000,413.000000,40.000000,14.000000,0.000000,0.000000,0.000000,0.000000,0.000000,0.646632,0.689643,0.399684,0.139889,0.844333,453.000000,413.000000,40.000000,14.000000,0.000000,0.000000,0.000000,0.000000,0.000000;
#CREDIT:;
#NOTES:
0000
0000
0000
0000
,
0000
0000
0000
0000
,
0000
0000
0000
0000
,
0000
0000
0000
0000
,
0000
0000
0000
0000
,
0000
0000
1000
0100
1000
0001
0100
0010
,
1000
0000
0100
0000
0010
0000
0000
0000
0001
0000
1000
0010
0000
1000
0000
0001
,
1000
0000
0001
0100
0001
0000
0000
0011
0000
0000
1001
0000
1000
0000
0000
1100
,
0000
0000
1001
0000
0001
0000
0000
0100
0010
1000
0010
0000
1010
0000
0101
0000
,
0000
0000
0000
0000
0001
0000
0100
0000
0010
0000
1000
0010
0000
1000
0000
0000
,
0001
0000
1010
0000
0000
0000
0010
0000
0100
0000
0001
0100
0000
0100
0001
0000
,
0010
0000
0011
0000
0000
0000
0001
0100
0001
0000
0101
0000
0000
0000
0010
0100
,
0010
0000
0110
0000
0000
1000
0001
0000
0010
0000
0100
1000
0000
0001
0000
0100
,
0001
0100
0001
0000
0010
0000
0100
0000
1000
0000
0100
0010
0000
0001
0010
0000
,
0100
1000
0001
1000
0001
0000
1000
0000
0010
0000
1000
0001
0000
1000
0100
0000
,
0010
0001
0000
1000
0000
0010
0100
0000
0001
0100
0001
0100
0000
0010
1000
0000
,
0001
0010
0000
1001
0000
0100
1000
0000
1000
0010
0000
1001
0000
0100
0001
0000
,
0010
0000
0100
0000
2000
0000
0000
0010
0000
0010
0000
0010
3000
1000
0001
1000
,
0000
1000
0001
0000
0002
0000
0000
0010
0000
0010
0000
0013
0000
0001
1000
0001
,
0000
0100
0001
0000
1000
0100
0010
0000
0100
0010
0001
1000
0001
1000
0001
0010
,
0100
0010
0100
1000
0010
0000
0110
0000
0000
1010
0000
0000
2002
0000
0000
0000
,
3003
0000
0000
0000
1000
0000
0100
0010
0100
0010
0000
0000
0001
0100
0001
0100
,
0000
0010
1000
0000
0001
0000
0010
0100
0000
0100
1000
0000
0001
0000
0100
0010
,
0000
0010
1000
0001
0100
0000
0001
0000
1000
0000
0010
1000
0010
0000
0100
0001
,
0000
0001
1000
0000
0001
0000
1000
0100
1000
0000
0010
0000
0100
0000
0001
0100
,
0001
0100
0001
0000
0110
0000
0000
1010
0000
0000
1001
0000
1000
0100
1000
0100
,
0010
0100
0010
0000
0011
0000
0000
0110
0000
0000
1100
0000
0100
0010
0100
0010
,
0001
0012
0000
1000
1003
0100
0010
0100
,
1000
0000
0001
0000
0010
0001
1000
0000
0100
0010
0000
0001
2000
0000
0000
0000
,
3000
0000
0000
0000
0001
0100
0001
1000
0010
0000
0010
1000
0000
1000
0001
0000
,
0100
0001
0100
0000
0010
0000
1000
0000
0100
0010
0000
0001
0000
0100
0000
0010
,
0000
0010
1000
0001
2000
0000
0000
0000
3100
0010
0001
1000
0000
0001
0100
0000
,
0001
0010
0100
0000
2000
0000
0000
0000
3010
0000
0100
0001
0100
0001
0000
0010
,
0000
0001
1000
0100
0010
0001
0010
0001
0010
0000
0100
1000
0000
1000
0010
0000
,
0100
0001
0100
0000
0010
0000
1000
0001
0000
0001
0010
0000
0001
0000
0010
0001
,
0000
0000
0000
0001
0000
0000
1000
0000
0000
0000
0000
0000
0020
0000
0000
0000
0000
0000
0000
0000
0000
0000
0000
0000
1030
0000
0000
0000
0100
0000
0000
0000
0010
0000
0000
0000
0001
0000
0000
0000
0000
0000
0000
0000
0000
0000
0000
0000
,
0001
0100
1000
0100
0010
0001
0010
1000
0100
0010
0000
0000
,
0100
0010
0100
0000
1000
0000
0010
0000
1010
0000
0001
0000
0100
0000
0100
0001
,
0000
0010
0001
0000
0011
0000
0001
1000
0000
0010
0000
0100
0000
0001
1000
0010
,
0000
1000
0100
0000
0020
0000
0000
0000
0001
0000
0000
0000
0230
0000
0000
0000
,
1000
0000
0000
0000
0310
0000
0110
0000
0000
1100
0000
0000
2002
0000
0000
0000
,
3003
0000
0000
0000
0001
0100
0001
1000
0000
0010
1000
0010
0000
0100
0001
1000
,
0000
1100
0000
0011
0000
0010
0100
1000
0000
0001
0000
1000
0000
0010
0100
0001
,
0000
0001
0100
0000
1010
0000
1000
0100
0000
0010
0000
0001
0000
1000
0001
0100
,
0000
0010
1000
0001
0010
0000
0000
0110
0000
0000
1001
0000
0100
0000
0000
0110
,
0000
0000
1000
0100
1000
0001
0100
0010
,
1000
0000
0100
0000
0010
0000
0000
0000
0001
0000
1000
0010
0000
1000
0000
0001
,
1000
0000
0001
0100
0001
0000
0010
0001
0000
0001
1000
0000
1001
0000
1000
0100
,
0000
0000
1000
0001
0100
0000
0010
1000
0000
1000
0010
0000
0101
0000
0010
1000
,
0000
0000
0001
0010
0100
0000
1000
0100
0000
0100
0010
0000
0011
0000
0000
0000
,
1100
0000
0000
0000
2001
0000
0000
0000
0000
0000
0000
0000
3100
0000
0000
0011
,
0000
1001
0000
0000
0000
0000
0000
0000
;

//---------------dance-single - ----------------
#NOTEDATA:;
#CHARTNAME:;
#STEPSTYPE:dance-single;
#DESCRIPTION:;
#CHARTSTYLE:;
#DIFFICULTY:Medium;
#METER:13;
#RADARVALUES:0.521017,0.561931,0.469629,0.279779,0.439653,365.000000,318.000000,47.000000,28.000000,0.000000,0.000000,0.000000,0.000000,0.000000,0.521017,0.561931,0.469629,0.279779,0.439653,365.000000,318.000000,47.000000,28.000000,0.000000,0.000000,0.000000,0.000000,0.000000;
#CREDIT:;
#NOTES:
0000
0000
0000
0000
,
0000
0000
0000
0000
,
0000
0000
0000
0000
,
0000
0000
0000
0000
,
0000
0000
0000
0000
,
0000
0000
1000
0001
0100
0010
0100
0001
,
0010
0100
1000
0001
0010
0100
0010
0001
,
1000
0000
0000
0000
0001
0000
0000
0011
0000
0000
1001
0000
1000
0000
0000
1100
,
0000
1001
0002
0000
0000
0000
1003
2002
,
0000
0000
3003
0000
0010
0000
0000
1000
0010
0000
0000
0100
0001
0000
0000
1000
,
0100
0000
0110
0000
0000
0000
0000
0010
0001
0000
0000
0001
1000
0000
0000
1000
,
0010
0000
0110
0000
0000
0000
0000
0100
0001
0000
1001
0000
0000
0000
0000
0001
,
0010
0200
0000
1300
0100
0010
0001
1000
,
0001
0000
1000
0010
0100
0001
0010
0001
,
0100
0110
0000
0010
1000
0100
1000
0010
,
0000
0110
0000
0101
0000
0000
0001
0000
1000
0000
0010
0000
1000
0000
0001
0000
,
0100
0000
0000
0101
0000
0000
0001
0000
1000
0000
0000
1100
0000
0000
1000
0000
,
0001
0000
0100
0000
0020
0000
0000
1000
0000
0000
0000
0100
0000
0000
0000
1000
,
0030
0000
1010
0000
0201
0000
0000
0010
0000
0000
0000
0001
0000
0000
0000
0010
,
0300
0110
1001
1000
0100
0001
0100
1000
,
0010
0100
0010
0100
0000
0000
0110
0000
0000
1001
0000
0000
0220
0000
0000
0000
,
0330
0000
0000
0000
1000
0000
0100
0000
1000
0000
0001
0100
0000
0100
0010
0000
,
1000
0000
0000
0000
0001
0000
0010
0000
0100
0000
1000
0100
0000
0100
0010
0000
,
0001
0000
0000
0000
1000
0000
0100
0000
0010
0000
0001
0100
0000
0010
1000
0000
,
0001
0000
0000
0000
0001
0000
0010
0000
0100
0000
1000
0010
0000
0100
0001
0000
,
0010
0001
0010
0000
0011
0000
0000
0011
0000
0000
0011
0000
2000
0000
0000
0000
,
3100
0000
0000
0000
1010
0000
0000
1010
0000
0000
1010
0000
0001
0100
0001
0100
,
0001
0102
0000
1003
0001
0100
0001
1000
,
0100
0000
0010
0000
0001
1000
0100
0000
1000
0100
0000
1000
0200
0000
0000
0000
,
0300
0000
0000
0000
0010
0000
0001
0000
0010
0000
0100
1000
0000
1000
0100
0000
,
0010
0000
0001
0000
1000
0000
0000
0010
0000
0000
0100
0000
0002
0000
0000
0000
,
0103
0000
0010
0100
0020
0000
0000
0000
1030
0000
0001
1000
0000
1000
0001
0000
,
0010
0100
1000
0100
0010
0001
0100
0000
,
0101
0000
0000
0000
0010
0000
1000
0000
0001
0000
0010
0100
0000
0100
1000
0000
,
0001
0000
0100
0000
0020
0000
0000
2030
0000
0000
3002
0000
0203
0000
0000
2300
,
0000
0000
0000
3002
0000
0000
0013
0000
0000
0000
0000
0000
0100
0000
0010
0000
1000
0000
0001
0000
0000
0000
0000
0000
,
0010
0100
1000
0001
0100
0010
1000
0100
0010
0001
0000
0000
,
0001
1000
0000
0000
0001
0000
0100
0000
0001
0000
0001
0000
1000
0000
0000
0010
,
0000
0000
0100
0000
0010
0000
1000
0001
0000
1000
0000
0010
0000
1000
0000
0001
,
0000
0100
0010
1000
0100
0010
0001
0100
,
0010
0000
1000
0000
0000
0000
1001
0000
0000
1001
0000
0000
2002
0000
0000
0000
,
3003
0000
0000
0000
0001
0000
0010
0100
0000
1000
0000
0001
0000
0010
0000
0200
,
0000
0000
0000
0000
1300
0000
0100
0010
0000
0001
0000
1000
0000
0010
0000
0200
,
0000
0000
0310
0000
0110
0000
0100
0001
0000
1000
0000
0010
0000
1000
0000
0002
,
0000
0000
0000
0003
1001
0000
0000
0101
0000
0000
0110
0000
0020
0000
0000
0200
,
0000
0000
0000
0330
0010
0000
1000
0000
0100
0000
1000
0000
0010
0000
0100
0000
,
0001
0001
0010
0001
0100
0001
0010
0100
,
1000
0000
0000
0000
0001
0000
0000
0101
0000
0000
1001
0000
1000
0000
0000
1010
,
0000
0000
1001
0000
0001
0000
0000
0011
0000
0000
1001
0000
1000
0000
0000
1100
,
0000
0000
1001
0000
0001
0000
0000
0101
0000
0000
0110
0000
0020
0000
0000
0000
,
0230
0000
0000
0000
0310
0000
1000
0000
0001
0000
0100
0000
0010
0000
0000
0110
,
0000
1001
0000
0000
0000
0000
0000
0000
;

//---------------dance-single - ----------------
#NOTEDATA:;
#CHARTNAME:;
#STEPSTYPE:dance-single;
#DESCRIPTION:;
#CHARTSTYLE:;
#DIFFICULTY:Easy;
#METER:8;
#RADARVALUES:0.372563,0.408677,0.319747,0.289771,0.089929,261.000000,229.000000,32.000000,29.000000,0.000000,0.000000,0.000000,0.000000,0.000000,0.372563,0.408677,0.319747,0.289771,0.089929,261.000000,229.000000,32.000000,29.000000,0.000000,0.000000,0.000000,0.000000,0.000000;
#CREDIT:;
#NOTES:
// measure 0
0000
0000
0000
0000
,  // measure 1
0000
0000
0000
0000
,  // measure 2
0000
0000
0000
0000
,  // measure 3
0000
0000
0000
0000
,  // measure 4
0000
0000
0000
0000
,  // measure 5
0000
0000
1000
0100
1000
0000
1000
0100
,  // measure 6
0100
0000
0010
0001
0010
0000
0010
0001
,  // measure 7
0001
0000
0000
0000
0001
0000
0000
0011
0000
0000
0000
0000
1000
0000
0000
1100
,  // measure 8
0000
0000
0002
0000
0000
0000
1000
1003
,  // measure 9
0000
0010
1000
0100
,  // measure 10
0001
0001
0100
1000
,  // measure 11
0010
0100
0001
0010
,  // measure 12
0010
0100
0000
1000
0100
0000
2000
0000
,  // measure 13
3001
0000
1000
0010
0100
0000
0010
0100
,  // measure 14
0001
0000
1000
0100
0010
0000
0100
0010
,  // measure 15
0001
0000
1000
0001
0100
0000
0010
1000
,  // measure 16
0001
0000
0000
1001
0000
0000
0001
0000
0001
0000
0000
1001
0000
0000
1000
0000
,  // measure 17
1000
0020
1000
1000
,  // measure 18
1030
0200
0001
0001
,  // measure 19
0301
0000
0001
0010
0100
1000
0010
0100
,  // measure 20
0001
0000
1000
0000
0000
0000
1001
0000
0000
1001
0000
0000
0220
0000
0000
0000
,  // measure 21
0330
0000
1000
0010
1000
0000
0001
0100
,  // measure 22
0010
0000
1000
0100
1000
0000
0001
0010
,  // measure 23
0100
0000
1000
0001
0100
0000
0010
1000
,  // measure 24
0001
0000
1000
0100
0010
0000
0001
0100
,  // measure 25
0010
0000
0000
0000
0110
0000
0000
0110
0000
0000
0220
0000
0330
0000
0000
0000
,  // measure 26
0000
0000
0000
0000
1001
0000
0000
1001
0000
0000
2002
0000
3003
0000
0000
0000
,  // measure 27
0000
2000
0000
3001
0010
0100
1000
0100
,  // measure 28
0010
0000
0001
0000
0000
0000
0011
0000
0000
0011
0000
0000
0022
0000
0000
0000
,  // measure 29
0033
0000
0010
0001
0010
0100
1000
0100
,  // measure 30
0010
0000
0001
0000
1000
0000
0000
0010
0000
0000
0100
0000
0002
0000
0000
0000
,  // measure 31
0103
0000
0100
0010
1000
0010
0100
0001
,  // measure 32
0100
0010
2000
0000
3100
0000
2002
0000
,  // measure 33
3003
0000
0010
1000
0001
0010
0100
1000
,  // measure 34
0001
0100
0010
0000
1000
0000
0001
0000
,  // measure 35
0100
0110
0000
1001
,  // measure 36
0000
1001
0110
1001
,  // measure 37
0000
0000
0001
0100
0001
0000
1000
0100
,  // measure 38
1000
0002
0013
0200
,  // measure 39
1300
0000
1000
0010
0100
0001
1000
0010
,  // measure 40
0100
0000
0001
0000
0000
0000
1001
0000
0000
1001
0000
0000
2002
0000
0000
0000
,  // measure 41
3003
0002
0013
0200
,  // measure 42
0310
0002
1003
0020
,  // measure 43
0130
0020
1030
0200
,  // measure 44
1300
0000
0000
0000
1001
0000
0000
1001
0000
0000
0000
0000
0110
0000
0000
0110
,  // measure 45
0000
0000
0010
1000
0100
0000
1000
0100
,  // measure 46
0010
0000
0010
0001
0100
0000
0001
0100
,  // measure 47
0010
0000
0000
0000
1000
0000
0000
1000
0000
0000
1000
0000
0100
0000
0000
0100
,  // measure 48
0000
0000
0000
0000
0010
0000
0000
0010
0000
0000
0010
0000
0001
0000
0000
0001
,  // measure 49
0000
0000
0000
0000
0001
0000
0000
0100
0000
0000
0010
0000
1000
0000
0000
0000
,  // measure 50
0001
0000
0000
0000
0220
0000
0000
0000
0330
0000
0000
0000
0100
0000
0000
1001
,  // measure 51
0000
1001
0000
0000
0000
0000
0000
0000
;
