#TITLE:Loki;
#SUBTITLE:;
#ARTIST:Pascu y Rodri;
#TITLETRANSLIT:;
#SUBTITLETRANSLIT:;
#ARTISTTRANSLIT:;
#GENRE:;
#CREDIT:;
#BANNER:Loki-bn.jpg;
#BACKGROUND:Loki-bg.jpg;
#LYRICSPATH:;
#CDTITLE:cdtitle_ukiarrow.png;
#MUSIC:Loki.mp3;
#OFFSET:0.000000;
#SAMPLESTART:101.307999;
#SAMPLELENGTH:12.000000;
#SELECTABLE:YES;
#BPMS:0.000000=190.000000
;
#STOPS:
;
#BGCHANGES:0.000=Loki.mp4=1.000=0=0=1=====,
524.000=Loki-bg.jpg=1.000=0=0=1=====,
99999=-nosongbg-=1.000=0=0=0 // don't automatically add -songbackground-
;
#KEYSOUNDS:;
#ATTACKS:;

//---------------dance-single - ----------------
#NOTES:
     dance-single:
     :
     Hard:
     15:
     0.666340,0.773877,0.386184,0.651686,0.024137,773.000000,709.000000,64.000000,108.000000,0.000000,0.000000,0.666340,0.773877,0.386184,0.651686,0.024137,773.000000,709.000000,64.000000,108.000000,0.000000,0.000000:
// measure 0
0000
0000
0000
0000
,  // measure 1
0000
0000
0000
0000
,  // measure 2
0000
0000
0000
0000
,  // measure 3
0000
0000
0000
0000
,  // measure 4
0000
0000
1000
0100
1000
0100
0010
0100
,  // measure 5
0010
0100
0010
0001
0010
0001
0100
0001
,  // measure 6
0200
0000
0301
0010
0001
0010
0100
0010
,  // measure 7
0100
0010
0220
0000
0330
2002
0000
3003
,  // measure 8
0220
0330
1000
0000
0001
1000
0100
0000
,  // measure 9
1000
0001
0000
0100
0000
0010
1000
0001
,  // measure 10
0010
0000
0100
0000
1000
0100
1000
0001
,  // measure 11
0100
0020
0000
2030
0000
3002
0000
0023
,  // measure 12
0000
0130
0220
0330
0001
1000
0010
0000
,  // measure 13
0100
0002
0000
2003
0000
3200
0000
0310
,  // measure 14
0100
1000
0001
0100
0001
0100
0000
0202
,  // measure 15
0303
0010
1000
0100
1000
0100
0000
2200
,  // measure 16
0000
3300
0001
0000
1000
0001
0100
0000
,  // measure 17
0001
2000
0000
3200
0000
0310
0001
0001
,  // measure 18
1000
0000
0010
0000
0100
0010
1000
0002
,  // measure 19
0000
0023
0000
0230
0000
0302
0000
0203
,  // measure 20
0000
1300
2200
3300
1000
0001
0100
0000
,  // measure 21
0100
0020
0000
2030
0000
3200
0000
0310
,  // measure 22
0001
0010
0100
1000
0010
0100
0000
0110
,  // measure 23
0000
0010
0100
0001
0010
0100
0000
0220
,  // measure 24
0000
0330
1000
1000
2000
0000
3000
0000
,  // measure 25
0001
0001
0100
0100
0020
0000
1000
0000
,  // measure 26
1030
0001
0100
0001
,  // measure 27
0010
0001
0000
1000
0100
0000
0010
0000
,  // measure 28
0100
0000
1000
1000
2000
0000
3010
0000
,  // measure 29
0001
0001
0100
0100
0020
0000
2030
0000
,  // measure 30
3001
0000
2001
0000
0000
3200
0000
0000
,  // measure 31
0320
0000
0000
0031
1000
0000
0010
0100
,  // measure 32
0001
0000
1000
0100
1000
0100
0010
0001
,  // measure 33
1000
0001
0010
0100
1000
0000
0110
0000
,  // measure 34
1001
0000
0001
0010
0001
0010
0100
1000
,  // measure 35
0001
1000
0100
0010
0001
0000
0110
0000
,  // measure 36
1001
0000
1000
0010
1000
0010
0100
1000
,  // measure 37
0100
0001
0010
0100
0001
0000
0110
0000
,  // measure 38
1001
0000
0001
0100
0001
0000
1000
0010
,  // measure 39
1010
0000
0010
0100
0001
0000
0101
0000
,  // measure 40
1000
0010
1000
0000
0001
0000
0100
0000
0001
0000
0100
0000
0010
0000
1000
0000
,  // measure 41
0001
1000
0010
0100
0001
0000
0110
0000
,  // measure 42
1001
0000
1000
0100
1000
0100
0010
0001
,  // measure 43
1000
0001
0010
0100
0001
0000
0110
0000
,  // measure 44
1001
0000
1000
0010
1000
0010
0001
0010
,  // measure 45
0100
0001
0010
0100
1000
0000
0110
0000
,  // measure 46
1001
1100
1100
0010
,  // measure 47
0010
0011
1001
1000
,  // measure 48
0001
0000
1000
0100
0010
0001
0100
0010
,  // measure 49
0100
0010
1000
0001
0100
0001
1000
0001
,  // measure 50
0100
0001
0010
0010
0100
1000
0010
0010
,  // measure 51
0100
0001
0022
0000
0033
0220
0000
0330
,  // measure 52
1100
0000
1000
0100
1000
0100
0010
0001
,  // measure 53
1000
0100
1000
0001
0010
0001
1000
0001
,  // measure 54
0010
0001
1000
0010
1000
0010
1000
0001
,  // measure 55
0100
0010
0100
0010
0200
0000
0000
0000
0300
0000
0220
0000
0000
0000
0330
0000
,  // measure 56
1001
0000
1000
0000
0001
1000
0100
0000
,  // measure 57
1000
0001
0000
0100
0000
0010
1000
0001
,  // measure 58
0010
0000
0100
0000
1000
0100
1000
0002
,  // measure 59
0000
0023
0000
0230
0000
2300
0000
3020
,  // measure 60
0000
0130
0220
0330
0001
1000
0010
0000
,  // measure 61
0100
2000
0000
3002
0000
0023
0000
0130
,  // measure 62
0001
1000
0010
1000
0001
0010
0000
0100
,  // measure 63
1000
0010
0100
0002
0000
0023
0000
0130
,  // measure 64
0110
0000
0001
0000
1000
0001
0100
0000
,  // measure 65
0001
2000
0000
3200
0000
0310
0001
0001
,  // measure 66
1000
0000
0010
0100
0010
1000
0001
0002
,  // measure 67
0000
0023
0000
0230
0000
2300
0000
3020
,  // measure 68
0000
0130
0202
0303
1000
0001
0100
0000
,  // measure 69
0100
0020
0000
2030
0000
3200
0000
0310
,  // measure 70
0001
0010
0100
1000
0010
0100
0000
0010
,  // measure 71
0100
0001
0010
0100
1000
0001
0000
0010
,  // measure 72
0100
0000
1000
1000
2000
0000
3000
0000
,  // measure 73
0001
0001
0100
0100
0020
0000
1000
0000
,  // measure 74
1030
0001
0100
0010
,  // measure 75
1000
0100
0000
0010
0001
0000
0100
0000
,  // measure 76
0010
0000
1000
1000
2000
0000
3010
0000
,  // measure 77
0100
0100
0001
0001
0020
0000
0230
0000
,  // measure 78
1300
0000
2001
0000
0000
3200
0000
0000
,  // measure 79
0320
0000
0000
0000
,  // measure 80
0030
0000
0001
0010
0001
0010
0100
1000
,  // measure 81
0001
1000
0100
0010
1000
0000
0110
0000
,  // measure 82
1001
0000
0001
0010
0001
0010
0100
1000
,  // measure 83
0001
1000
0100
0010
1000
0000
0110
0000
,  // measure 84
1001
0000
0001
0100
0001
0100
0010
1000
,  // measure 85
0010
0001
0010
0100
0001
0000
0110
0000
,  // measure 86
1001
0000
0001
1000
0100
0000
0010
0100
,  // measure 87
0101
0000
0010
0001
0010
0000
0100
1000
,  // measure 88
1100
0000
0001
0100
0010
1000
0010
0100
,  // measure 89
1000
0100
0001
1000
0001
0000
0110
0000
,  // measure 90
1001
0000
1000
0100
0010
0001
0010
1000
,  // measure 91
0010
0100
1000
0001
0100
0000
0110
0000
,  // measure 92
1001
0000
1000
0010
0001
0010
0100
0001
,  // measure 93
0100
1000
0100
0010
1000
0000
0110
0000
,  // measure 94
1001
1100
0011
1000
,  // measure 95
0001
1100
0011
0001
,  // measure 96
1000
0002
0000
0203
,  // measure 97
0000
0000
0310
0000
1000
0000
0001
0100
,  // measure 98
0001
0020
0100
0230
,  // measure 99
0000
0000
1300
0000
0001
0000
0100
0010
,  // measure 100
0100
0002
0010
0023
,  // measure 101
0000
0000
0130
1000
0100
0000
0010
0000
,  // measure 102
0001
2020
0000
0000
,  // measure 103
0000
0000
0000
3030
,  // measure 104
0000
0000
1000
1000
1000
0000
0010
0000
,  // measure 105
0100
0100
0001
0001
0010
0000
0100
1000
,  // measure 106
0100
1000
0002
0000
0103
0000
0020
0000
,  // measure 107
1030
0100
0000
0100
1000
0000
1010
0000
,  // measure 108
1010
0000
0001
0001
0200
0000
0300
0000
,  // measure 109
0001
0001
0100
0100
0010
0000
1010
0000
,  // measure 110
0101
0000
2000
0000
0000
3200
0000
0000
,  // measure 111
0320
0000
0000
0000
0031
1000
0001
1000
0001
0000
0100
0001
0100
0001
0100
0000
,  // measure 112
0020
0000
1030
0100
1000
0100
0010
0001
,  // measure 113
0010
0100
1000
0001
1000
0010
0200
0000
,  // measure 114
0302
0000
1003
0001
0100
0001
1000
0100
,  // measure 115
0010
0001
0100
0010
1000
0001
0200
0000
,  // measure 116
0320
0000
1030
0100
0001
0100
0010
0100
,  // measure 117
1000
0001
0100
0010
1000
0010
0002
0000
,  // measure 118
0023
0000
0130
0001
1000
0100
0010
0001
,  // measure 119
1000
1000
0001
0010
0100
1000
0010
0100
,  // measure 120
0001
1000
0001
0000
1000
0000
0100
0000
1000
0000
0100
0000
0010
0000
0001
0000
,  // measure 121
0010
0100
1000
0001
0100
0010
2000
0000
,  // measure 122
3200
0000
0310
0001
0010
0001
0100
0010
,  // measure 123
1000
0100
1000
0010
0100
0001
2000
0000
,  // measure 124
3002
0000
0013
0100
1000
0100
0001
0100
,  // measure 125
1000
0010
0100
0001
0010
0100
0020
0000
,  // measure 126
0230
0000
1300
0100
0001
0000
0101
0000
,  // measure 127
1100
0000
0001
0010
1000
0000
1010
0000
,  // measure 128
0011
0100
0000
0000
;

//---------------dance-single - ----------------
#NOTES:
     dance-single:
     :
     Medium:
     13:
     0.523245,0.541714,0.307741,0.808573,0.000000,607.000000,556.000000,51.000000,134.000000,0.000000,0.000000,0.523245,0.541714,0.307741,0.808573,0.000000,607.000000,556.000000,51.000000,134.000000,0.000000,0.000000:
// measure 0
0000
0000
0000
0000
,  // measure 1
0000
0000
0000
0000
,  // measure 2
0000
0000
0000
0000
,  // measure 3
0000
0000
0000
0000
,  // measure 4
0000
0000
1000
0100
1000
0000
1000
0010
,  // measure 5
1000
0000
0001
0100
0001
0000
0001
0010
,  // measure 6
0001
0000
1000
0100
0010
0000
0001
0010
,  // measure 7
0001
0000
0021
0000
0000
0230
0000
0000
,  // measure 8
2000
3300
1000
0000
0100
0010
0001
0000
,  // measure 9
0001
0100
0000
0010
0000
2000
0000
0000
,  // measure 10
3001
0000
0100
0000
0001
0010
0001
0020
,  // measure 11
0000
0230
0000
2300
0000
3200
0000
0320
,  // measure 12
0000
0032
0000
0000
1003
0001
1000
0000
,  // measure 13
0001
0020
0000
0032
0000
2003
0000
3100
,  // measure 14
0010
0100
1000
0000
0001
0100
0000
0202
,  // measure 15
0303
0010
1000
0000
1000
0100
0000
2200
,  // measure 16
0000
3300
1000
0000
0001
0100
0001
0000
,  // measure 17
0010
0200
0000
2300
0000
3002
0000
0000
,  // measure 18
1003
0000
0010
0000
0100
0010
0100
0020
,  // measure 19
0000
2030
0000
3200
0000
2300
0000
3020
,  // measure 20
0000
0230
0000
0000
0301
0100
0001
0000
,  // measure 21
0100
0020
0000
2030
0000
3002
0000
0013
,  // measure 22
0001
0010
0100
0000
1000
0001
0000
1000
,  // measure 23
0000
0010
0100
0000
0100
0010
0000
1000
,  // measure 24
0001
0000
1000
0001
1000
0000
0100
0000
,  // measure 25
0100
0000
0010
0001
0010
0000
0100
0000
,  // measure 26
1000
0001
0001
0100
,  // measure 27
0010
2000
0000
0000
3100
0000
0010
0000
,  // measure 28
0001
0000
1000
0001
1000
0000
0010
0000
,  // measure 29
0100
0000
0001
0100
0020
0000
2030
0000
,  // measure 30
3001
0000
2001
0000
0000
3200
0000
0000
,  // measure 31
0320
0000
0000
0000
,  // measure 32
0030
0000
0010
0100
0010
0100
1000
0001
,  // measure 33
1000
0000
0010
0100
0001
0000
1000
0000
,  // measure 34
1000
0000
0001
0010
0001
0010
0100
1000
,  // measure 35
0100
0000
0010
0001
0010
0000
0100
0000
,  // measure 36
0100
0000
1000
0010
1000
0010
0100
0001
,  // measure 37
0100
0000
0001
0100
0001
0000
0010
0000
,  // measure 38
0010
0000
0001
1000
0100
0000
1000
0001
,  // measure 39
0100
0000
0001
1000
0010
0000
1000
0001
,  // measure 40
0010
0000
0001
0100
0001
0100
0010
1000
,  // measure 41
0010
0000
0100
0001
0100
0000
0001
0000
,  // measure 42
0001
0000
1000
0100
1000
0100
0010
0001
,  // measure 43
0010
0000
0100
1000
0100
0000
0010
0000
,  // measure 44
0010
0000
0001
0010
0001
0010
0100
0010
,  // measure 45
0100
0000
1000
0100
1000
0000
0100
0000
,  // measure 46
0100
1001
2002
3003
,  // measure 47
0000
0110
0220
0330
,  // measure 48
0000
0000
1000
0100
1000
0000
1000
0001
,  // measure 49
1000
0000
1000
0010
1000
0000
1000
0001
,  // measure 50
1000
0000
0001
0100
0001
0000
0001
0010
,  // measure 51
0001
0000
0011
0000
0000
0110
0000
0000
,  // measure 52
1001
0000
0001
0100
0001
0000
0001
1000
,  // measure 53
0001
0000
0001
0010
0001
0000
0001
1000
,  // measure 54
0001
0000
1000
0100
1000
0000
1000
0010
,  // measure 55
1000
0000
1010
0000
0000
0110
0000
0000
,  // measure 56
1001
0000
1000
0000
0010
0100
0001
0000
,  // measure 57
0100
0010
0000
1000
0000
0002
0000
0000
,  // measure 58
1003
0000
0010
0000
1000
0100
1000
0200
,  // measure 59
0000
0320
0000
0032
0000
0023
0000
0230
,  // measure 60
0000
2300
0000
0000
3010
1000
0010
0000
,  // measure 61
0100
0002
0000
0023
0000
0230
0000
1300
,  // measure 62
0001
1000
0010
0000
0100
0002
0000
0103
,  // measure 63
0010
1000
0010
2000
0000
3200
0000
0020
,  // measure 64
0000
0000
0330
0000
0001
0010
0001
0000
,  // measure 65
0010
0200
0000
2300
0000
3002
0000
0000
,  // measure 66
1003
0000
0100
0010
0001
0010
0100
0020
,  // measure 67
0000
0032
0000
0203
0000
0302
0000
0023
,  // measure 68
0000
0230
0000
0000
1300
0100
1000
0000
,  // measure 69
0100
0020
0000
0032
0000
2003
0000
3010
,  // measure 70
1000
0010
0100
0002
0000
2003
0000
3010
,  // measure 71
0100
0010
1000
0000
0001
0100
0000
0001
,  // measure 72
1000
0000
0001
1000
0002
0000
0003
0000
,  // measure 73
0100
0010
0100
0010
0100
0000
0001
0000
,  // measure 74
1000
0001
0001
0100
,  // measure 75
0010
2000
0000
0000
3100
0000
0010
0000
,  // measure 76
0001
0000
1000
0001
1000
0000
0010
0000
,  // measure 77
0100
0000
0001
0100
0020
0000
2030
0000
,  // measure 78
3001
0000
2001
0000
0000
3020
0000
0000
,  // measure 79
0230
0000
0000
0000
,  // measure 80
0300
0000
0020
0000
0130
0001
1000
0001
,  // measure 81
0010
0100
0000
0000
1000
0000
0001
0000
,  // measure 82
2002
0000
3003
0000
0010
0100
1000
0001
,  // measure 83
0100
0010
0000
0000
1000
0000
0001
0000
,  // measure 84
2002
0000
3003
0000
0001
0100
0010
1000
,  // measure 85
0010
0200
0000
0000
0301
0000
0010
0000
,  // measure 86
0011
0100
1100
1000
,  // measure 87
1010
0010
0110
0100
,  // measure 88
0202
0000
0303
0000
0001
0100
0010
1000
,  // measure 89
0010
0200
0000
0000
0301
0000
1000
0000
,  // measure 90
2002
0000
3003
0000
1000
0100
0010
0001
,  // measure 91
0010
0200
0000
0000
1300
0000
0010
0000
,  // measure 92
2020
0000
3030
0000
0001
0010
0100
0010
,  // measure 93
0100
2000
0000
0000
3010
0000
0100
0000
,  // measure 94
0220
0330
1000
1100
,  // measure 95
2002
3003
0010
0110
,  // measure 96
1001
0002
0000
0203
,  // measure 97
0000
0310
1000
0001
,  // measure 98
0100
0020
0000
0230
,  // measure 99
0000
0310
1000
0100
,  // measure 100
0010
0002
0000
0023
,  // measure 101
0000
0130
1000
0010
,  // measure 102
0100
2020
0000
0000
,  // measure 103
0000
0000
0000
3030
,  // measure 104
0000
0000
1000
0010
2000
0000
3000
0000
,  // measure 105
0001
0100
0010
0100
0001
0000
0100
0000
,  // measure 106
0010
2000
3100
0020
,  // measure 107
0031
0200
0000
0000
0310
0000
1010
0000
,  // measure 108
1010
0000
1000
0001
2000
0000
3000
0000
,  // measure 109
0001
0100
0010
0100
0001
0000
0010
0000
,  // measure 110
0100
0000
2000
0000
0000
3200
0000
0000
,  // measure 111
0320
0000
0000
0000
,  // measure 112
0030
0000
0002
0000
0103
0010
1000
0010
,  // measure 113
0100
0002
0000
0000
1003
0000
0100
0000
,  // measure 114
2002
0000
3003
0000
0100
0001
0100
0010
,  // measure 115
1000
0002
0000
0000
0013
0000
0100
0000
,  // measure 116
0220
0000
0330
0000
0100
1000
0100
1000
,  // measure 117
0001
2000
0000
0000
3010
0000
0100
0000
,  // measure 118
2020
3030
1100
0110
,  // measure 119
0022
0033
0101
0110
,  // measure 120
2020
0000
3030
0000
1000
0100
0010
0001
,  // measure 121
0010
0200
0000
0000
1300
0000
0001
0000
,  // measure 122
2002
0000
3003
0000
0001
1000
0010
1000
,  // measure 123
0001
0200
0000
0000
0310
0000
0110
0000
,  // measure 124
2002
0000
3003
0000
1000
0100
0010
0001
,  // measure 125
0010
0200
0000
0000
1300
0000
0010
0000
,  // measure 126
0202
0303
0101
0110
,  // measure 127
2020
3030
1100
0110
,  // measure 128
0011
0001
0000
0000
;

//---------------dance-single - ----------------
#NOTES:
     dance-single:
     :
     Easy:
     10:
     0.439629,0.464326,0.277570,0.862880,0.000000,510.000000,464.000000,46.000000,143.000000,0.000000,0.000000,0.439629,0.464326,0.277570,0.862880,0.000000,510.000000,464.000000,46.000000,143.000000,0.000000,0.000000:
// measure 0
0000
0000
0000
0000
,  // measure 1
0000
0000
0000
0000
,  // measure 2
0000
0000
0000
0000
,  // measure 3
0000
0000
0000
0000
,  // measure 4
0000
0000
1000
0000
0100
0000
0010
0001
,  // measure 5
0010
0000
0001
0000
0100
0000
0010
1000
,  // measure 6
0010
0000
1000
0000
0010
0000
0100
0010
,  // measure 7
0100
0000
0002
0000
0000
0023
0000
0000
,  // measure 8
0230
0000
1300
0000
0100
1000
0100
0000
,  // measure 9
0010
0001
1000
0200
,  // measure 10
0000
0000
0300
0000
1000
0100
1000
0000
,  // measure 11
0002
0023
0032
2003
,  // measure 12
3020
0000
0130
0000
0001
0100
0001
0000
,  // measure 13
1000
0010
1000
0002
,  // measure 14
0003
0000
1000
0010
1000
0000
0002
0000
,  // measure 15
0003
0000
0100
0001
0100
0000
0002
0000
,  // measure 16
0003
0000
0001
0000
0010
0001
0010
0000
,  // measure 17
0200
2300
3002
0203
,  // measure 18
0300
0000
0010
0000
1000
0010
1000
0000
,  // measure 19
0002
0203
0302
2003
,  // measure 20
3020
0000
0130
0000
0010
0100
0010
0000
,  // measure 21
2000
3002
0023
0230
,  // measure 22
1300
0100
1000
0000
0001
0000
0010
0000
,  // measure 23
0100
0000
0010
0000
0001
0010
0001
0000
,  // measure 24
1000
2002
3003
1000
,  // measure 25
1000
0000
0001
1000
0001
0000
1000
0000
,  // measure 26
0001
2000
0000
3100
,  // measure 27
0010
0002
0000
0103
,  // measure 28
0010
2002
3003
1000
,  // measure 29
0100
0000
0010
0100
0020
0000
0031
0000
,  // measure 30
1000
2002
0000
0000
,  // measure 31
0000
3003
0000
0000
,  // measure 32
0000
0000
0001
0000
0100
0001
0100
0000
,  // measure 33
0010
0000
1000
0000
0100
0000
1000
0001
,  // measure 34
1000
0000
0001
0000
0010
0001
0010
0000
,  // measure 35
0100
0000
1000
0000
0010
0000
0100
0010
,  // measure 36
0100
0000
0001
0000
0100
0010
0100
0000
,  // measure 37
0010
0000
0100
0000
0001
0000
1000
0001
,  // measure 38
1000
0001
0010
1001
,  // measure 39
2002
3003
0100
1001
,  // measure 40
2002
0000
3003
0000
0001
0100
0001
0000
,  // measure 41
1000
0000
0010
0000
0100
0000
0001
0100
,  // measure 42
0001
0000
1000
0000
0100
1000
0100
0000
,  // measure 43
0010
0001
1000
0010
,  // measure 44
2020
0000
3030
0000
0010
0100
0010
0000
,  // measure 45
0100
0001
1000
0100
,  // measure 46
2002
3003
1000
0001
,  // measure 47
2002
3003
0001
1000
,  // measure 48
1001
0010
1000
0010
,  // measure 49
0001
0000
0010
0000
1000
0000
0010
0100
,  // measure 50
0010
0001
0010
1000
,  // measure 51
0010
0000
0100
0000
0000
0110
0000
0000
,  // measure 52
1001
0100
0001
0100
,  // measure 53
1000
0000
0100
0000
0001
0000
0100
0010
,  // measure 54
0100
1000
0100
0001
,  // measure 55
0100
0000
0010
0000
0000
0110
0000
0000
,  // measure 56
1001
0000
1000
0000
0010
1000
0010
0000
,  // measure 57
0100
0001
1000
0002
,  // measure 58
0003
0000
0010
0000
0100
1000
0200
0000
,  // measure 59
2300
3020
0230
0302
,  // measure 60
0023
0000
0130
0000
0010
0100
0010
0000
,  // measure 61
0200
2300
3020
0230
,  // measure 62
0301
0100
0001
0000
0100
0000
0001
0000
,  // measure 63
1000
0010
2000
0000
3200
0000
0320
0000
,  // measure 64
0030
0000
0010
0000
0001
0010
0001
0000
,  // measure 65
0020
0230
2300
3002
,  // measure 66
1003
0000
0100
0000
0010
0100
0020
0000
,  // measure 67
0032
0203
0320
0230
,  // measure 68
0302
0000
1003
0000
0100
1000
0100
0000
,  // measure 69
0020
0032
0023
0230
,  // measure 70
1300
0001
2000
0000
3020
0000
0230
0000
,  // measure 71
0301
0100
0002
0000
0023
0000
0230
0000
,  // measure 72
0300
2002
3003
0100
,  // measure 73
0100
0000
0010
0100
0010
0000
0001
0000
,  // measure 74
1000
0002
0000
0103
,  // measure 75
0010
1000
0100
0010
,  // measure 76
0001
2002
3003
0010
,  // measure 77
0010
0002
0103
0200
,  // measure 78
0310
0220
0000
0000
,  // measure 79
0000
0330
0000
0000
,  // measure 80
0000
0000
0010
0000
0100
0001
0100
0000
,  // measure 81
0001
0010
0100
1000
,  // measure 82
2002
0000
3003
0000
1000
0100
1000
0000
,  // measure 83
0100
0010
0001
1000
,  // measure 84
2002
0000
3003
0000
0001
0100
0001
0000
,  // measure 85
1000
0010
0100
0001
,  // measure 86
0022
0033
1000
0001
,  // measure 87
2002
3003
0001
1000
,  // measure 88
2002
0000
3003
0000
0001
0100
0001
0000
,  // measure 89
1000
0010
0100
0001
,  // measure 90
2002
0000
3003
0000
1000
0100
1000
0000
,  // measure 91
0100
0010
0001
0010
,  // measure 92
0022
0000
0033
0000
0001
0100
0001
0000
,  // measure 93
0100
0010
1000
0100
,  // measure 94
2200
3300
0100
0110
,  // measure 95
0220
0330
0010
0110
,  // measure 96
0110
0002
0000
0203
,  // measure 97
0000
0320
0000
2030
,  // measure 98
0000
3020
0000
0230
,  // measure 99
0000
0302
0000
2003
,  // measure 100
0000
3002
0000
0023
,  // measure 101
0000
0230
0000
2300
,  // measure 102
0000
3020
0000
0000
,  // measure 103
0000
0000
0000
0030
,  // measure 104
0000
2020
3030
0001
,  // measure 105
0100
0000
0001
0100
0001
0000
0100
0000
,  // measure 106
0001
2000
0000
3010
,  // measure 107
0100
0010
1000
0010
,  // measure 108
0010
2002
3003
0001
,  // measure 109
1000
0000
0001
1000
0001
0000
0010
0000
,  // measure 110
0100
2200
0000
0000
,  // measure 111
0000
3300
0000
0000
,  // measure 112
0000
0000
1000
0000
0001
1000
0001
0000
,  // measure 113
1000
0010
0100
0001
,  // measure 114
2002
0000
3003
0000
1000
0001
1000
0000
,  // measure 115
0001
0010
0100
1000
,  // measure 116
2002
0000
3003
0000
1000
0001
1000
0000
,  // measure 117
0010
0100
0001
1000
,  // measure 118
2002
3003
1000
0100
,  // measure 119
2200
3300
0001
0010
,  // measure 120
0022
0000
0033
0000
1000
0100
1000
0000
,  // measure 121
0001
0010
0100
1000
,  // measure 122
2002
0000
3003
0000
0010
1000
0010
0000
,  // measure 123
1000
0010
0100
0001
,  // measure 124
2002
0000
3003
0000
0100
0001
0100
0000
,  // measure 125
0001
0010
0100
1000
,  // measure 126
2200
3300
0001
1001
,  // measure 127
2002
3003
0100
0110
,  // measure 128
0110
1001
0000
0000
;

//---------------dance-single - ----------------
#NOTES:
     dance-single:
     :
     Beginner:
     6:
     0.343083,0.386939,0.072410,0.356014,0.000000,398.000000,386.000000,12.000000,59.000000,0.000000,0.000000,0.343083,0.386939,0.072410,0.356014,0.000000,398.000000,386.000000,12.000000,59.000000,0.000000,0.000000:
// measure 0
0000
0000
0000
0000
,  // measure 1
0000
0000
0000
0000
,  // measure 2
0000
0000
0000
0000
,  // measure 3
0000
0000
0000
0000
,  // measure 4
0000
1000
0100
1000
,  // measure 5
0000
0001
0100
0001
,  // measure 6
0001
1000
0010
1000
,  // measure 7
0000
0000
0002
0000
0000
0003
0000
0000
,  // measure 8
0100
0001
1000
0010
,  // measure 9
0000
1000
0100
1000
,  // measure 10
0000
0001
1000
0010
,  // measure 11
0000
0100
0001
0100
,  // measure 12
0100
0001
0010
0001
,  // measure 13
0000
1000
0001
0100
,  // measure 14
0000
0010
1000
0010
,  // measure 15
0010
0100
0001
0100
,  // measure 16
0000
0001
0010
0001
,  // measure 17
0001
1000
0100
0010
,  // measure 18
0000
0001
0010
0001
,  // measure 19
0001
0100
0010
1000
,  // measure 20
0000
0100
1000
0100
,  // measure 21
0100
0010
0001
1000
,  // measure 22
0000
0100
0010
0100
,  // measure 23
0010
0001
1000
0001
,  // measure 24
0000
1001
0000
1000
,  // measure 25
1000
0001
0010
0100
,  // measure 26
1000
2000
0000
0100
,  // measure 27
0000
0001
0000
3010
,  // measure 28
0000
1001
0000
0001
,  // measure 29
0001
1000
0010
0100
,  // measure 30
0001
2002
0000
0000
,  // measure 31
0000
3003
0000
0000
,  // measure 32
0000
0001
0100
0001
,  // measure 33
0100
0010
1000
0200
,  // measure 34
0300
1000
0010
1000
,  // measure 35
0010
0100
0001
0020
,  // measure 36
0030
0001
0100
0001
,  // measure 37
0100
0010
1000
0002
,  // measure 38
0003
1000
1000
0010
,  // measure 39
0010
0100
0100
0001
,  // measure 40
0001
1000
0100
1000
,  // measure 41
0100
0010
0001
0200
,  // measure 42
0300
0001
0100
0001
,  // measure 43
0100
0010
1000
0200
,  // measure 44
0300
1000
0010
1000
,  // measure 45
0010
0100
0001
0020
,  // measure 46
0030
0001
0002
0003
,  // measure 47
0000
1000
2000
3000
,  // measure 48
0000
1000
0001
1000
,  // measure 49
0001
1000
0001
1000
,  // measure 50
0001
0010
0100
0010
,  // measure 51
0100
0020
0000
0000
,  // measure 52
0130
0010
0100
0010
,  // measure 53
0100
0010
0100
0010
,  // measure 54
0100
1000
0001
1000
,  // measure 55
0001
2000
0000
0000
,  // measure 56
3001
1000
0100
1000
,  // measure 57
1000
0001
0010
0001
,  // measure 58
0000
0100
0001
0100
,  // measure 59
0100
0010
1000
0010
,  // measure 60
0000
1000
0100
1000
,  // measure 61
1000
0001
1000
0010
,  // measure 62
0000
0100
0001
1000
,  // measure 63
1000
0001
0010
0001
,  // measure 64
0000
1000
0001
0100
,  // measure 65
0100
0010
1000
0010
,  // measure 66
0000
1000
0001
0100
,  // measure 67
0100
0001
1000
0001
,  // measure 68
0000
0010
0001
0010
,  // measure 69
0010
0100
1000
0001
,  // measure 70
0000
1000
0010
0100
,  // measure 71
0100
0001
0010
0100
,  // measure 72
0000
2002
3003
1000
,  // measure 73
1000
0001
0100
0010
,  // measure 74
1000
0002
0000
0010
,  // measure 75
0000
1000
0000
0103
,  // measure 76
0000
2002
3003
0001
,  // measure 77
0001
1000
0100
0010
,  // measure 78
0001
2002
0000
0000
,  // measure 79
0000
3003
0000
0000
,  // measure 80
0000
0001
0100
0001
,  // measure 81
0100
0010
1000
0200
,  // measure 82
0300
1000
0100
1000
,  // measure 83
0100
0010
0001
0200
,  // measure 84
0300
0001
1000
0001
,  // measure 85
1000
0010
0100
0002
,  // measure 86
0003
0100
0010
1000
,  // measure 87
1000
0100
0010
0001
,  // measure 88
0001
1000
0100
1000
,  // measure 89
0100
0010
0001
0200
,  // measure 90
0300
0100
0001
0100
,  // measure 91
0001
0010
0100
2000
,  // measure 92
3000
1000
0100
1000
,  // measure 93
0100
0010
0001
2000
,  // measure 94
3000
1000
2000
3000
,  // measure 95
0000
0001
0002
0003
,  // measure 96
0000
0002
0000
0203
,  // measure 97
0000
0320
0000
2030
,  // measure 98
0000
3002
0000
0023
,  // measure 99
0000
0230
0000
2300
,  // measure 100
0000
3002
0000
2003
,  // measure 101
0000
3020
0000
0230
,  // measure 102
0000
0302
0000
0000
,  // measure 103
0000
0000
0000
0003
,  // measure 104
0000
2002
3003
0001
,  // measure 105
0100
0000
0001
0100
0001
0000
0100
0000
,  // measure 106
0001
0200
0000
0001
,  // measure 107
0000
0010
0000
0301
,  // measure 108
0000
2002
3003
1000
,  // measure 109
1000
0001
0010
0100
,  // measure 110
1000
2002
0000
0000
,  // measure 111
0000
3003
0000
0000
,  // measure 112
0000
1000
0010
0100
,  // measure 113
0001
1000
0010
0200
,  // measure 114
0300
0001
0010
0100
,  // measure 115
1000
0001
0010
0200
,  // measure 116
0300
1000
0100
0010
,  // measure 117
0001
1000
0100
0020
,  // measure 118
0030
0001
0100
0010
,  // measure 119
0010
1000
0100
0010
,  // measure 120
0010
0001
1000
0010
,  // measure 121
0100
0001
1000
0020
,  // measure 122
0030
1000
0001
0010
,  // measure 123
0100
1000
0001
0020
,  // measure 124
0030
0001
1000
0100
,  // measure 125
0010
0001
1000
0200
,  // measure 126
0300
0010
0010
0220
,  // measure 127
0330
0100
0100
2002
,  // measure 128
3003
1001
0000
0000
;
