#TITLE:Hestia;
#SUBTITLE:;
#ARTIST:Pascu y Rodri;
#TITLETRANSLIT:;
#SUBTITLETRANSLIT:;
#ARTISTTRANSLIT:;
#GENRE:;
#CREDIT:;
#BANNER:Hestia-bn.jpg;
#BACKGROUND:Hestia-bg.jpg;
#LYRICSPATH:;
#CDTITLE:cdtitle_ukiarrow.png;
#MUSIC:Hestia.mp3;
#OFFSET:0.160000;
#SAMPLESTART:59.327908;
#SAMPLELENGTH:12.000000;
#SELECTABLE:YES;
#BPMS:0.000000=122.000000
;
#STOPS:
;
#BGCHANGES:0.250=Hestia.mp4=1.000=0=0=1=====,
99999=-nosongbg-=1.000=0=0=0 // don't automatically add -songbackground-
;
#KEYSOUNDS:;
#ATTACKS:;

//---------------dance-single - ----------------
#NOTES:
     dance-single:
     :
     Hard:
     12:
     0.434918,0.468644,0.286589,0.342968,0.115106,648.000000,587.000000,61.000000,73.000000,0.000000,0.000000,0.434918,0.468644,0.286589,0.342968,0.115106,648.000000,587.000000,61.000000,73.000000,0.000000,0.000000:
0000
0000
0000
0000
,
0000
0000
0000
0000
,
0000
0000
0000
0000
,
0000
0000
0000
0000
,
0000
0000
0100
0000
0010
0002
0000
1000
,
1003
0000
0000
0000
0100
0000
0000
1000
0000
0000
0002
0000
0000
0000
0010
0000
,
0013
0000
0200
0000
1300
0010
0000
0110
,
0000
0101
0000
1010
0000
1001
0000
0000
,
0001
0100
0001
0100
0020
0000
0000
0000
0130
0000
0001
0000
0000
0000
0010
0000
,
0100
0000
1000
0000
0001
0000
0000
1000
0000
0000
0010
0000
0100
0000
0000
0000
,
0001
0000
1000
0000
0001
0000
0000
0000
0010
0000
0001
0100
0000
0000
0001
0000
,
0100
0000
0010
0000
1000
0000
0000
0001
0000
0000
1000
0000
0000
0000
0100
0000
,
1100
0000
0200
0000
1300
0010
0000
0100
,
0010
0000
1000
0000
0001
0000
0000
0001
0000
0000
0100
0000
0000
0000
0010
0000
,
1000
0000
0001
0000
1000
0000
0000
0100
0000
0000
1000
0000
0000
0000
0010
0000
,
0100
0000
0001
0000
1000
0000
0000
0001
0000
0000
0010
0000
0000
0001
0000
0000
,
0011
0000
0100
0000
0010
0002
1000
1000
,
1003
0000
0100
0000
1000
0000
0000
0001
0000
0000
0010
0000
0002
0000
0000
0000
,
0010
0000
0013
0000
0200
0000
0000
0000
1300
0000
0010
1000
0000
0000
0010
0000
,
0100
0000
0001
0000
1000
0000
0000
0001
0000
0000
1000
0000
0000
0000
0010
0000
,
0100
0000
0001
0000
2000
0000
0000
0000
3001
0000
0100
0001
0000
0000
0010
0000
,
0100
0000
1000
0000
0001
0000
0000
1000
0000
0000
0020
0000
0000
0000
0130
0000
,
0001
0000
1000
0000
0001
0000
0000
0010
0000
0000
0001
0000
0000
0000
0100
0000
,
0010
0000
1000
0000
0001
0000
0000
0001
0000
0000
1000
0000
0000
0100
0000
0000
,
1100
0000
0020
0000
0100
0000
0031
1000
,
0001
0200
0000
1000
0000
0001
0300
0100
,
0010
0000
0020
0000
0100
0000
1030
0100
,
0000
0000
0010
0000
0001
0100
0000
0100
0001
0000
1000
0000
0010
0000
0001
0000
,
0000
0001
0020
0000
1000
1030
0000
1010
,
0000
0110
0000
0101
0000
2002
0000
0000
,
3003
0000
1000
0100
0001
0201
0000
0000
,
0310
0000
1000
0010
0001
0100
1000
0100
,
0001
0001
1000
0100
0001
0201
0000
0000
,
0310
0000
1000
0010
0001
0010
0100
1000
,
0001
0001
1000
0100
0001
0201
0000
0000
,
0310
0000
1000
0010
0001
0100
1000
0100
,
0001
0010
0200
0000
1300
1010
0000
0101
,
0000
0110
0000
1001
0000
2200
0000
3300
,
0010
0001
0010
0001
1000
0000
0100
0000
0001
0000
0201
0000
0000
0000
0000
0000
,
0310
0000
1000
0010
0100
1000
0001
0010
,
0100
0100
1000
0100
0001
0201
0000
0000
,
0310
0000
1000
0010
0001
0100
1000
0100
,
0010
0010
1000
0100
0001
0201
0000
0000
,
0310
0000
0001
0010
0100
1000
0100
0001
,
1000
0010
0002
0000
0103
0110
0000
1010
,
0000
1100
0000
0011
0000
2002
0000
0000
,
3003
0000
0020
0000
0230
0000
0301
0010
,
0100
0000
1000
0000
0001
0000
0000
1000
0000
0000
0010
0000
0000
0000
0100
0000
,
0001
0000
1000
0000
0001
0000
0000
0000
0010
0000
0001
0100
0000
0000
0001
0000
,
0100
0000
0010
0000
1000
0000
0000
0001
0000
0000
1000
0000
0000
0000
0100
0000
,
0100
0000
1000
0000
0200
0000
0000
0000
1300
0000
0010
0100
0000
0000
0010
0000
,
1000
0000
0001
0000
0100
0000
0000
0010
0000
0000
1000
0000
0000
0000
0010
0000
,
1000
0000
0001
0000
1000
0000
0000
0100
0000
0000
1000
0000
0000
0000
0010
0000
,
0100
0000
0001
0000
1000
0000
0000
0001
0000
0000
0010
0000
0000
0001
0000
0000
,
0011
0000
0100
0000
0020
0000
0031
1000
,
0100
0000
1000
0000
0001
0000
0000
0010
0000
0000
0002
0000
0010
0000
0000
0000
,
0013
0000
0100
0000
0200
0000
0000
0000
1300
0000
0010
1000
0000
0000
0010
0000
,
0100
0000
0001
0000
1000
0000
0000
0001
0000
0000
1000
0000
0000
0000
0010
0000
,
0100
0000
0001
0000
2000
0000
0000
0000
3001
0000
0100
0001
0000
0000
0010
0000
,
0100
0000
1000
0000
0001
0000
0000
1000
0000
0000
0020
0000
0000
0000
0130
0000
,
0001
0000
1000
0000
0001
0000
0000
0010
0000
0000
0001
0000
0000
0000
0100
0000
,
0010
0000
1000
0000
0001
0000
0000
0001
0000
0000
1000
0000
0000
0100
0000
0000
,
1100
0000
0020
0000
0100
0000
0031
1000
,
0001
0200
0000
1000
0000
0001
0300
0100
,
0010
0000
0020
0000
0100
0000
1030
0100
,
0000
0000
0010
0000
0001
0100
0000
0100
0001
0000
1000
0000
0010
0000
0001
0000
,
0000
0001
0020
0000
1000
1030
0000
1010
,
0000
0110
0000
0101
0000
2002
0000
0000
,
3003
0000
1000
0100
0001
0201
0000
0000
,
0310
0000
1000
0010
0001
0100
1000
0100
,
0001
0001
1000
0100
0001
0201
0000
0000
,
0310
0000
1000
0010
0001
0010
0100
1000
,
0001
0001
1000
0100
0001
0201
0000
0000
,
0310
0000
1000
0010
0001
0100
1000
0100
,
0001
0010
0200
0000
1300
1010
0000
0101
,
0000
0110
0000
1001
0000
2200
0000
3300
,
0010
0001
1000
0001
1000
0000
0100
0000
0001
0000
0201
0000
0000
0000
0000
0000
,
0310
0000
1000
0010
0100
1000
0001
0010
,
0100
0100
1000
0100
0001
0201
0000
0000
,
0310
0000
1000
0010
0001
0100
1000
0100
,
0001
0001
1000
0100
0001
0201
0000
0000
,
0310
0000
0001
0010
0100
0001
1000
0010
,
0001
0100
2000
0000
3100
0110
0000
1010
,
0000
0101
0000
0011
0000
2002
0000
0000
,
3003
2000
0010
0010
,
3010
0200
0000
0302
0000
0023
0000
0032
,
0000
0000
1003
0000
0100
0000
1000
0000
0100
0000
0000
0000
0010
0001
0000
0010
,
0000
0000
0001
0000
0100
0000
0001
0100
0000
0000
0010
0000
1000
0000
0010
1000
,
0000
0002
0100
0100
,
0103
0020
0000
2030
0000
3200
0000
2300
,
0000
0000
0000
0000
3001
0000
0010
0000
0001
0000
0000
0000
0100
0001
0000
0100
,
0000
0000
0000
0000
0010
0000
0000
0010
0000
0000
0010
0000
0100
0000
0000
0000
,
0110
0000
1000
0100
0001
0201
0000
0000
,
0310
0000
0001
0010
0100
0001
0100
1000
,
0001
0100
1000
0100
0001
0201
0000
0000
,
0310
0000
1000
0010
0001
0010
1000
0100
,
0001
0100
1000
0100
0001
0201
0000
0000
,
0310
0000
1000
0010
0100
1000
0001
0010
,
0100
0001
0200
0000
1300
1100
0000
1010
,
0000
0101
0000
0011
0000
0220
0000
0000
,
0330
0000
0001
0100
1000
1200
0000
0000
,
0310
0000
0100
0010
0100
0001
0010
0100
,
1000
1000
0001
0010
1000
1020
0000
0000
,
0130
0000
1000
0100
1000
0100
0010
0001
,
0100
0010
1000
0100
0001
0201
0000
0000
,
0310
0000
0000
0000
;

//---------------dance-single - ----------------
#NOTES:
     dance-single:
     :
     Easy:
     7:
     0.286589,0.298805,0.216117,0.436931,0.023491,427.000000,381.000000,46.000000,93.000000,0.000000,0.000000,0.286589,0.298805,0.216117,0.436931,0.023491,427.000000,381.000000,46.000000,93.000000,0.000000,0.000000:
0000
0000
0000
0000
,
0000
0000
0000
0000
,
0000
0000
0000
0000
,
0000
0000
0000
0000
,
0000
0000
1000
0000
0010
0010
0000
0000
,
1010
0000
0100
0000
0000
0001
0000
0000
,
0101
0000
1000
0000
0000
0100
0000
0100
,
0000
0100
0000
0010
0000
0001
0000
0000
,
2002
0000
3003
0000
0001
0000
1000
1000
,
0001
0000
2000
0000
0000
3001
0000
0000
,
1001
0000
0100
0000
0010
0010
0100
0000
,
0010
0000
0200
0000
0000
0310
0000
0000
,
0110
1000
0001
1000
,
0001
0000
0200
0000
0000
0310
0000
1000
,
1000
0000
0000
0000
0001
0000
0000
0001
0000
0000
0002
0000
0000
0000
0000
0000
,
1003
0000
0000
0000
0100
0000
0000
0100
0000
0000
0020
0000
0000
0000
0000
0000
,
0130
0000
1000
0000
0001
0000
1000
0001
,
0001
0000
2000
0000
0000
0001
3001
0000
,
1001
0000
0100
0000
0010
0100
0100
0000
,
0001
0000
2000
0000
0000
3001
0000
0000
,
1001
1000
0100
1000
,
0100
0000
0020
0000
0000
0031
0000
1000
,
1000
0000
0000
0000
1000
0000
0000
1000
0000
0000
2000
0000
0000
0000
0000
0000
,
3001
0000
0000
0000
0100
0000
0000
0100
0000
0000
0020
0000
0000
0000
0000
0000
,
0030
2000
0000
3010
,
0100
0100
0000
0001
0000
1000
0000
0000
,
0010
0000
0020
0000
0000
0000
1030
1000
,
0000
0002
0000
0000
0003
0000
0100
0100
,
0000
0000
0010
0000
1000
1000
0000
0010
,
0000
0100
0000
0001
0000
2002
0000
3003
,
0000
1100
2002
0000
,
3003
0000
0001
0010
0001
0000
0020
0000
,
0130
1001
0202
0000
,
0303
0000
0100
0010
0100
0000
0002
0000
,
1003
1001
2020
0000
,
3030
0000
2000
0000
3001
0000
0010
0100
,
0010
0000
0001
0000
1000
0001
0000
1000
,
0000
0010
0000
0100
0000
0010
0000
0000
,
0110
1001
0022
0000
,
0033
0000
0001
1000
0001
0000
2000
0000
,
3010
1001
0202
0000
,
0303
0000
1000
0100
1000
0000
0020
0000
,
0130
1001
0220
0000
,
0330
0000
1000
0010
1000
0000
0020
0000
,
0130
0000
0001
0000
1000
0001
0000
0010
,
0000
0100
0000
0010
0000
0220
0000
0000
,
0330
0000
0000
0000
0001
0000
1000
1000
,
0001
0000
0020
0000
0000
0130
0000
0000
,
1001
1000
0100
0010
,
0001
0000
2000
0000
0000
3100
0000
0000
,
0010
0000
0001
0000
0100
0010
0010
0000
,
1000
0000
0002
0000
0000
0013
0000
0100
,
1000
0000
0000
0000
0010
0000
0000
0010
0000
0000
0010
0000
0000
0000
1000
0000
,
0001
0000
0000
0000
0010
0000
0000
0010
0000
0000
0010
0000
0000
0000
0000
0000
,
1001
0000
0001
0000
0010
0000
0001
0001
,
1000
0000
0020
0000
0000
0100
0130
0000
,
0110
0000
0001
0000
1000
0000
0100
0010
,
0100
0000
2000
0000
0000
3001
0000
0000
,
0100
0000
0010
0000
1000
0010
1000
0000
,
0001
0000
0020
0000
0000
0130
0000
0100
,
0100
0000
0000
0000
0010
0000
0000
0010
0000
0000
0001
0000
0000
0000
1000
0000
,
0001
0000
0000
0000
0010
0000
0000
0001
0000
0000
0001
0000
0000
0000
0000
0000
,
1001
1000
0010
0100
,
0001
0001
0000
0010
0000
0200
0000
0000
,
1300
0000
0010
0000
0010
0000
0100
0100
,
0000
0000
0110
0000
1001
0000
0001
1000
,
0000
0000
0100
0000
0010
0010
0000
0001
,
0000
1000
0000
0100
0000
1000
0000
0000
,
0000
1001
2200
0000
,
3300
0000
0002
0000
0013
0000
0100
1000
,
0100
1001
0202
0000
,
0303
0000
1000
0010
1000
0000
0002
0000
,
0103
1001
0022
0000
,
0033
0000
0001
1000
0010
0000
0200
0000
,
0310
0000
2000
0000
3100
0010
0000
0001
,
0000
0100
0000
0010
0000
1000
0000
0000
,
0000
1001
2020
0000
,
3030
0000
1000
1000
0010
0000
0200
0000
,
0301
1001
0022
0000
,
0033
0000
0002
0000
0013
0000
0100
1000
,
0100
1001
2200
0000
,
3300
0000
2000
0000
3010
0000
0100
0001
,
0100
0000
0010
0000
1000
0100
0000
0010
,
0000
0001
0000
0100
0000
0010
0000
0000
,
0000
1000
1000
0010
,
0010
0200
0000
0302
0000
0023
0000
0230
,
0000
1300
0000
2000
0000
0000
3000
0000
,
0100
0000
0010
0000
0001
0000
0000
0001
0000
0000
0000
0000
1000
0000
0000
1000
,
0000
0001
0010
0100
,
1000
0020
0000
0230
0000
0302
0000
2003
,
0000
3001
1000
0010
,
0100
0020
0000
0130
,
0110
0000
1001
0000
0002
0200
0000
0000
,
0303
0000
2000
0000
3010
0000
0100
0010
,
1000
0000
1001
0000
0200
0002
0000
0000
,
0303
0000
0002
0000
0013
0000
0100
0010
,
0001
0000
1001
0000
0200
2000
0000
0000
,
3300
0000
1000
0100
0010
0000
0002
0000
,
1003
0000
0001
0000
0100
0010
0000
1000
,
0000
0100
0000
0010
0000
0001
0000
0000
,
0000
0000
0110
0000
2000
0002
0000
0000
,
3003
0000
0001
0000
0100
0100
0010
0000
,
1000
0000
0110
0000
0002
2000
0000
0000
,
3003
0002
0023
0230
,
2300
0000
3010
0000
0020
0200
0000
0000
,
0330
0200
0000
0000
,
0300
0000
0000
0000
;

//---------------dance-single - ----------------
#NOTES:
     dance-single:
     :
     Medium:
     10:
     0.357733,0.373506,0.103360,0.366459,0.054029,533.000000,511.000000,22.000000,78.000000,0.000000,0.000000,0.357733,0.373506,0.103360,0.366459,0.054029,533.000000,511.000000,22.000000,78.000000,0.000000,0.000000:
0000
0000
0000
0000
,
0000
0000
0000
0000
,
0000
0000
0000
0000
,
0000
0000
0000
0000
,
0000
0000
1000
0000
0010
0100
0000
0001
,
1000
0000
0000
0000
0100
0000
0000
1000
0000
0000
0001
0000
0000
0010
0000
0000
,
0100
0000
1000
0000
0002
0203
0000
0320
,
0000
2030
0000
3002
0000
2003
0000
3000
,
0101
0000
1000
0000
0001
0000
0000
1000
,
0001
0000
0000
0000
0010
0000
0000
0100
0000
0000
1000
0000
0000
0000
0000
0000
,
0001
1000
0100
0000
0010
0001
0000
0001
,
0100
0000
0000
0000
0010
0000
0000
1000
0000
0000
0001
0000
0000
0000
0100
0000
,
0010
1000
0010
0000
1000
0001
0000
0001
,
1000
0000
0001
0000
0100
0000
0000
0001
0000
0000
1000
0000
0000
0000
1000
0000
,
0100
0000
0010
0000
0100
0000
0000
0010
0000
0000
0001
0000
0000
0000
0010
0000
,
0100
0000
1000
0000
0001
0000
0000
0001
0000
0000
0022
0000
0000
0000
0000
0000
,
0033
0000
0100
0000
0010
0001
0000
1000
,
0100
0000
0000
0000
0010
0000
0000
0001
0000
0000
1000
0000
0001
0000
0000
0000
,
0010
0100
0010
0000
1000
0010
0000
0010
,
0100
0000
0000
0000
0001
0000
0000
0100
0000
0000
0010
0000
0000
0000
0010
0000
,
1000
0001
0100
0000
0010
0100
0000
0100
,
0001
0000
0010
0000
0001
0000
0000
1000
0000
0000
0010
0000
0000
0000
1000
0000
,
0100
0000
1000
0000
0010
0000
0000
0010
0000
0000
0010
0000
0000
0000
1000
0000
,
0100
0000
0010
0000
0001
0000
0000
0001
0000
0000
0022
0000
0000
0000
0000
0000
,
0033
0000
0002
0000
0013
0000
1000
0010
,
1000
0010
0000
1001
0000
2001
0000
0000
,
3010
0000
0020
0000
0130
0000
0010
1000
,
0000
1000
0001
0000
0100
0000
0001
1000
,
0000
0010
0100
0000
0100
0002
0000
0023
,
0000
0230
0000
2300
0000
0002
0000
0000
,
3003
0000
1001
0000
1000
0010
0000
0010
,
0001
0000
2000
0000
3100
0000
0001
0100
,
1000
0000
1001
0000
0001
0010
0000
0010
,
1000
0000
0002
0000
0103
0000
1000
0100
,
0001
0000
1001
0000
1000
0100
0000
0100
,
0001
0000
2000
0000
3100
0000
0001
0100
,
1000
0000
0002
0000
1003
0020
0000
0230
,
0000
0302
0000
0023
0000
0200
0000
0330
,
1001
0000
2000
0000
3001
0100
0000
0100
,
1000
0000
0002
0000
0103
0000
1000
0010
,
0001
0000
2000
0000
3001
0010
0000
0010
,
1000
0000
0002
0000
0013
0000
1000
0100
,
0001
0000
0002
0000
1003
0100
0000
0100
,
0001
0000
2000
0000
3010
0000
0001
0010
,
1000
0000
0002
0000
0013
0200
0000
2300
,
0000
3020
0000
0230
0000
0002
0000
0000
,
0303
0000
1000
0000
0001
0000
0010
0100
,
1000
0000
0000
0000
0010
0000
0000
1000
0000
0000
0010
0000
0000
0000
0100
0000
,
0001
0000
1000
0000
0100
0010
0000
0010
,
0001
0000
1000
0000
0001
0000
0000
0001
0000
0000
1000
0000
0000
0000
0000
0000
,
0100
0010
0001
0000
1000
0010
0000
0010
,
1000
0000
0001
0000
0100
0000
0000
0010
0000
0000
0010
0000
0000
0000
1000
0000
,
0100
0000
1000
0000
0010
0000
0000
0100
0000
0000
0001
0000
0000
0000
1000
0000
,
0001
0000
0010
0000
0100
0000
0000
0100
0000
0000
0100
0000
0000
0000
0000
0000
,
1001
0000
0001
0000
0010
0000
0100
1000
,
0100
0000
0010
0000
0001
0000
0000
1000
0000
0000
0010
0000
0100
0000
0000
0000
,
0110
0000
0001
0000
1000
0010
0100
0000
,
0001
0000
1000
0000
0001
0000
0000
0010
0000
0000
0001
0000
0000
0000
0000
0000
,
0100
0001
2000
0000
3100
0010
0001
0000
,
0001
0000
1000
0000
0100
0000
0000
0100
0000
0000
1000
0000
0000
0000
0001
0000
,
1000
0000
0010
0000
0100
0000
0000
0010
0000
0000
1000
0000
0000
0000
1000
0000
,
0001
0000
0100
0000
0010
0000
0000
0100
0000
0000
0001
0000
0000
1000
0000
0000
,
1001
0000
2000
0000
3010
0000
0100
0001
,
0100
0001
0000
1010
0000
2010
0000
0000
,
3001
0000
0020
0000
0130
0000
1000
0010
,
0000
1000
0001
0000
0100
0000
0001
1000
,
0000
0010
0100
0000
0100
0002
0000
0023
,
0000
0230
0000
2300
0000
0002
0000
0000
,
3003
0000
1001
0000
1000
0100
0000
0100
,
0010
0000
0001
0010
1000
0000
1000
0010
,
0001
0001
1001
0000
0001
0100
0000
0100
,
0010
0000
1000
0010
0001
0000
0001
0010
,
1000
0001
1001
0000
1000
0100
0000
0100
,
0010
0000
0001
0100
1000
0000
1000
0100
,
0001
1000
0001
0000
0010
0200
0000
2300
,
0000
3020
0000
0230
0000
0002
0000
0000
,
0303
0000
1001
0000
0001
0100
0000
0100
,
0010
0000
0001
0010
1000
0000
1000
0100
,
0001
0100
0110
0000
0001
0100
0000
0100
,
0010
0000
0001
0010
1000
0000
1000
0100
,
0010
0000
0110
0000
0001
0100
0000
0100
,
0010
0000
1000
0010
0001
0000
0001
0010
,
1000
0001
1000
0000
0100
0020
0000
0032
,
0000
2003
0000
3200
0000
2000
0000
0000
,
3300
1000
1000
0010
,
0010
0200
0000
0302
0000
0023
0000
0230
,
0000
1300
0100
0000
1000
0000
0100
1000
,
0100
0000
0010
0001
1000
0000
0010
1000
,
0001
0100
0100
0001
,
0001
0020
0000
0230
0000
2300
0000
3002
,
0000
0000
1003
0100
1000
0000
0001
0100
,
0001
0020
0000
0130
,
1001
0000
2000
0000
3001
0100
0000
0100
,
0010
0000
1000
0010
0001
0000
0001
0010
,
1000
0001
1001
0000
1000
0100
0000
0100
,
0010
0000
0001
0010
1000
0000
1000
0010
,
0001
0000
0002
0000
1003
0010
0000
0010
,
0100
0000
1000
0100
0001
0000
1000
0100
,
0001
1000
0001
0000
0100
0020
0000
2030
,
0000
3200
0000
0320
0000
0002
0000
0000
,
0033
0000
0001
0010
0100
0020
0000
0000
,
0031
0000
0001
0100
0010
0100
0001
0010
,
0100
0000
1000
0010
0100
0020
0000
0000
,
1030
0000
0001
0010
0100
1000
0001
0010
,
0100
0000
1000
0100
0010
0002
0000
0000
,
0103
0020
0000
0000
,
0030
0000
0000
0000
;

//---------------dance-single - ----------------
#NOTES:
     dance-single:
     :
     Beginner:
     3:
     0.204707,0.249004,0.131549,0.277193,0.000000,305.000000,277.000000,28.000000,59.000000,0.000000,0.000000,0.204707,0.249004,0.131549,0.277193,0.000000,305.000000,277.000000,28.000000,59.000000,0.000000,0.000000:
// measure 0
0000
0000
0000
0000
,  // measure 1
0000
0000
0000
0000
,  // measure 2
0000
0000
0000
0000
,  // measure 3
0000
0000
0000
0000
,  // measure 4
0000
1000
2000
0000
,  // measure 5
3000
0001
0001
0001
,  // measure 6
0000
0000
0010
0000
0000
0100
0000
0100
,  // measure 7
0000
0100
0000
0100
0000
0200
0000
0000
,  // measure 8
0300
1000
0000
0100
,  // measure 9
0000
0010
0010
0010
,  // measure 10
0000
0001
0000
0100
,  // measure 11
0000
0010
0010
0010
,  // measure 12
0000
1000
0000
0001
,  // measure 13
0000
0100
0100
0100
,  // measure 14
0000
0010
0010
0010
,  // measure 15
0000
1000
1000
1000
,  // measure 16
0000
0001
0000
0010
,  // measure 17
0000
0001
0001
0001
,  // measure 18
0000
1000
0000
0100
,  // measure 19
0000
1000
1000
1000
,  // measure 20
0000
0001
0000
0100
,  // measure 21
0000
0010
0010
0010
,  // measure 22
0000
0100
0100
0100
,  // measure 23
0000
0001
0001
0001
,  // measure 24
0000
2000
0000
0010
,  // measure 25
0000
0100
0000
0001
,  // measure 26
3000
0002
0000
0010
,  // measure 27
0000
0100
0000
1000
,  // measure 28
0003
0000
0001
0000
0000
1000
0000
1000
,  // measure 29
0000
0001
0000
1000
0000
2002
0000
3003
,  // measure 30
0000
1000
2002
0000
,  // measure 31
3003
0001
0001
1000
,  // measure 32
1000
0001
2002
0000
,  // measure 33
3003
1000
1000
0001
,  // measure 34
0001
1000
2002
0000
,  // measure 35
3003
1000
1000
0001
,  // measure 36
0001
0000
1000
0000
0000
0001
0000
0001
,  // measure 37
0000
1000
0000
0001
0000
2002
0000
0000
,  // measure 38
3003
0001
2002
0000
,  // measure 39
3003
1000
1000
0001
,  // measure 40
0001
1000
2002
0000
,  // measure 41
3003
0001
0001
1000
,  // measure 42
1000
0001
2002
0000
,  // measure 43
3003
1000
1000
0001
,  // measure 44
0001
0000
1000
0000
0000
0100
0000
0100
,  // measure 45
0000
0010
0000
0100
0000
0220
0000
0000
,  // measure 46
0330
0010
0000
0100
,  // measure 47
0000
0010
0010
0010
,  // measure 48
0000
0100
0000
0010
,  // measure 49
0000
0100
0100
0100
,  // measure 50
0000
1000
0000
0001
,  // measure 51
0000
1000
1000
1000
,  // measure 52
0000
0010
0010
0010
,  // measure 53
0000
0100
0100
0100
,  // measure 54
0000
0001
0000
0010
,  // measure 55
0000
0100
0100
0100
,  // measure 56
0000
1000
0000
0010
,  // measure 57
0000
0100
0100
0100
,  // measure 58
0000
0010
0000
0100
,  // measure 59
0000
0001
0001
0001
,  // measure 60
0000
1000
1000
1000
,  // measure 61
0000
0100
0100
0100
,  // measure 62
0000
0010
0000
0100
,  // measure 63
0000
1000
2000
0000
,  // measure 64
3000
0010
0000
0100
,  // measure 65
0000
0001
0001
0001
,  // measure 66
0000
0000
0010
0000
0000
0100
0000
0100
,  // measure 67
0000
0010
0000
0100
0000
0110
0000
0000
,  // measure 68
0000
1000
2002
0000
,  // measure 69
3003
0001
0001
0001
,  // measure 70
0001
1000
2002
0000
,  // measure 71
3003
1000
1000
1000
,  // measure 72
0001
1000
2002
0000
,  // measure 73
3003
0001
0001
1000
,  // measure 74
1000
0000
0001
0000
0000
0100
0000
0100
,  // measure 75
0000
0010
0000
0100
0000
0220
0000
0000
,  // measure 76
0330
0001
2002
0000
,  // measure 77
3003
0001
1000
1000
,  // measure 78
0001
1000
2002
0000
,  // measure 79
3003
1000
0001
0001
,  // measure 80
1000
0001
2002
0000
,  // measure 81
3003
1000
1000
0001
,  // measure 82
0001
0000
1000
0000
0000
0010
0000
0100
,  // measure 83
0000
0010
0000
0010
0000
0220
0000
0000
,  // measure 84
0330
2000
0000
3000
,  // measure 85
0000
0100
0000
0010
,  // measure 86
0000
0001
0001
0002
,  // measure 87
0003
0001
0001
1000
,  // measure 88
1000
0002
0000
0003
,  // measure 89
0000
0010
0000
0100
,  // measure 90
0000
1000
1000
2000
,  // measure 91
3000
2000
0000
3001
,  // measure 92
0000
0100
0220
0000
,  // measure 93
0330
0010
0010
0100
,  // measure 94
0100
0010
0220
0000
,  // measure 95
0330
0010
0100
0010
,  // measure 96
0100
0010
0220
0000
,  // measure 97
0330
0010
0010
0100
,  // measure 98
0100
0000
0010
0000
0000
0100
0000
0100
,  // measure 99
0000
0010
0000
0010
0000
0220
0000
0000
,  // measure 100
0330
1001
2002
0000
,  // measure 101
3003
0001
1000
0001
,  // measure 102
1000
1001
2002
0000
,  // measure 103
3003
0010
0100
0010
,  // measure 104
0100
0110
0220
0000
,  // measure 105
0330
0200
0000
0000
,  // measure 106
0300
0000
0000
0000
;
