#VERSION:0.83;
#TITLE:Hermes;
#SUBTITLE:;
#ARTIST:Pascu y Rodri;
#TITLETRANSLIT:;
#SUBTITLETRANSLIT:;
#ARTISTTRANSLIT:;
#GENRE:;
#ORIGIN:;
#CREDIT:;
#BANNER:Hermes-bn.jpg;
#BACKGROUND:Hermes-bg.jpg;
#PREVIEWVID:;
#JACKET:Hermes-jacket.jpg;
#CDIMAGE:;
#DISCIMAGE:;
#LYRICSPATH:;
#CDTITLE:cdtitle_ukiarrow.png;
#MUSIC:Hermes.mp3;
#OFFSET:1.420001;
#SAMPLESTART:81.007790;
#SAMPLELENGTH:12.000000;
#SELECTABLE:YES;
#BPMS:0.000=155.000;
#STOPS:115.750=0.387,
276.000=0.194,
276.500=0.194,
277.000=0.387,
305.000=0.194;
#DELAYS:;
#WARPS:;
#TIMESIGNATURES:0.000=4=4;
#TICKCOUNTS:0.000=4;
#COMBOS:0.000=1;
#SPEEDS:0.000=1.000=0.000=0;
#SCROLLS:0.000=1.000,
281.000=0.700,
282.000=1.000;
#FAKES:;
#LABELS:0.000=Song Start;
#BGCHANGES:3.750=Hermes.mp4=1.000=0=0=1=====,
99999=-nosongbg-=1.000=0=0=0 // don't automatically add -songbackground-
;
#KEYSOUNDS:;
#ATTACKS:
;

//---------------dance-single - ----------------
#NOTEDATA:;
#CHARTNAME:;
#STEPSTYPE:dance-single;
#DESCRIPTION:;
#CHARTSTYLE:;
#DIFFICULTY:Hard;
#METER:16;
#RADARVALUES:0.722255,0.818531,0.321121,0.328589,0.321121,677.000000,634.000000,43.000000,44.000000,0.000000,0.000000,0.000000,0.000000,0.000000,0.722255,0.818531,0.321121,0.328589,0.321121,677.000000,634.000000,43.000000,44.000000,0.000000,0.000000,0.000000,0.000000,0.000000;
#CREDIT:;
#NOTES:
0000
0000
0000
0000
,
0000
0000
0000
0000
,
0000
0000
0000
0000
,
0000
0000
0000
0000
,
0000
0000
0000
0000
,
0000
0000
1000
0100
1000
0100
0000
0001
,
0100
0010
0000
0001
0100
0010
0000
1000
,
0100
0000
0010
0001
0010
0001
0000
0010
,
1000
0010
0000
0100
1000
0010
1000
0000
,
0110
0000
0100
0001
0100
0001
0000
0100
,
1000
0100
0000
0010
1000
0100
0000
0001
,
0100
0000
0001
0100
0010
1000
0000
0010
,
0100
0010
0000
0001
0100
0010
2000
0000
,
3001
0010
0120
0000
0130
1000
1002
0000
,
1003
0001
1000
0010
0100
0001
0000
0010
,
0100
0001
0200
0000
1300
0020
0000
1030
,
0100
0010
0001
0200
0000
0320
0000
1030
,
0100
1000
1020
0000
1030
0001
0201
0000
,
0310
1000
0001
0100
0010
2000
0000
3200
,
0000
0310
1000
0010
0001
0200
0000
0310
,
0001
0010
1000
0001
0010
0100
1000
1000
,
0001
1000
0001
1000
0100
0000
0010
0000
0011
0000
0000
0000
0102
0000
0000
0000
,
0103
0000
0001
0000
1000
0000
0010
0000
1000
0000
0001
0010
0100
1000
0100
0010
,
0002
0000
0000
0000
1003
0100
0010
0001
1000
0000
0100
0000
0010
0000
0001
0000
,
1000
1000
0020
0100
0100
0130
0001
0010
,
0100
1000
1100
0000
0011
0000
1001
0000
,
0001
0000
0100
0000
0001
0000
0010
0000
1000
0000
1000
0000
0010
0100
0010
0100
,
1000
0001
1000
0001
1000
0100
0010
0001
1000
0000
0100
0000
0010
0000
0001
0000
,
1000
1000
0000
1010
1000
0002
0010
0013
,
1000
0000
0100
0000
0010
0001
0010
0001
0010
0000
0100
0010
0100
0000
1000
0000
,
0001
0000
0100
0001
0100
0010
0100
0010
1000
0010
1000
0000
0001
0000
1000
0100
,
1000
0000
0100
0000
0010
0100
0010
0100
0010
0000
0001
0010
0000
0010
0100
0000
,
1000
0000
0001
0000
0101
0000
0000
0000
1010
0000
0000
0000
1000
0100
0010
0001
,
1000
0000
0100
0010
0001
0010
0001
0010
0001
0000
1000
0001
0100
0000
0100
0000
,
0010
0000
1000
0010
1000
0000
1000
0000
0001
0000
0001
0100
0010
0000
0010
0000
,
1010
0000
0101
0000
0100
0010
1000
0002
,
0000
0000
0013
0100
0010
0000
0001
0000
0000
0000
0100
0000
1000
0000
0100
0001
,
1000
0100
1000
0100
0001
0100
0010
0001
,
0100
1000
0100
1000
0100
0010
1000
0000
,
0100
0010
0001
0010
0001
0010
1000
0010
,
0100
1000
0010
1000
0001
0000
0110
0000
,
0100
0001
0100
0001
0100
1000
0100
0010
,
1000
0100
1000
0100
0001
0100
0010
0000
,
0001
0100
0001
0100
0010
0001
0010
1000
,
0001
0010
0100
1000
0001
0000
1000
0010
,
0120
0000
0130
0001
2001
0000
3001
1000
,
0010
0100
0001
0010
0000
0010
0100
1000
,
0200
0000
1300
0020
0000
1030
0100
0001
,
0100
2000
0000
3002
0000
1003
0010
0100
,
1020
0000
0130
0010
0201
0000
0310
1000
,
0001
0100
0010
2000
0000
3200
0000
0310
,
1000
0010
0001
0200
0000
0310
0001
0010
,
1000
0000
0001
0000
0010
0000
0100
0000
1000
0000
1000
0000
0001
1000
0001
1000
,
0100
0010
0011
0000
0102
0000
0103
0001
,
1000
0000
0010
0000
1000
0000
0001
0010
0100
1000
0100
0010
0002
0000
0000
0000
,
1003
0100
0010
0001
1000
0000
0100
0000
0010
0000
0001
0000
1000
0000
1000
0000
,
0200
0010
0010
0310
0001
0010
0100
1000
,
0011
0000
1100
0000
0110
0000
0001
0100
,
0001
0000
0010
0000
1000
0000
0010
0000
0100
1000
0100
1000
0001
0010
0100
1000
,
0001
0100
0010
0100
0001
0000
0100
0000
0010
0000
1000
0000
0001
0000
0001
0000
,
0000
1010
1000
0002
0000
1003
0100
1000
,
1002
0000
0103
0010
0210
0000
0301
0010
,
1000
0010
0001
0200
0000
0320
0000
1030
,
0001
0100
0010
0100
0000
0010
1000
0001
,
0010
0200
0000
2300
0000
3001
0100
0010
,
0120
0000
1030
0001
1002
0000
1003
0100
,
0010
0100
0001
0100
1000
0001
0000
0100
,
0010
1000
0001
0010
0100
1000
0002
0000
,
0013
0001
0010
0001
0010
0100
0010
0100
1000
0100
1000
0001
1000
0001
0100
0001
,
1000
1000
1001
0101
0000
0100
0010
1000
,
0001
0100
0010
1000
0020
0000
0000
0000
1030
0100
0010
0001
1000
0000
0100
0000
,
0010
0001
1000
0001
0100
1000
0100
0001
,
1000
1000
0001
0001
0101
0000
1010
0000
,
1001
0001
0010
0001
0100
0010
1000
0100
,
0010
0001
0010
0001
1000
0010
1000
0010
0100
0001
1000
0100
0010
0000
0001
0000
,
1000
0100
0010
0010
0200
1000
1000
1300
,
0010
0000
1000
0000
1002
0000
1000
0000
1003
0000
0001
0010
0100
1000
0001
0000
,
0100
0010
0100
0000
1000
0000
0100
0000
0010
0000
0100
0001
0100
0001
1000
0010
,
0100
0000
0001
0000
1000
0001
1000
0000
0001
0000
0010
0001
0010
0100
1000
0000
,
1000
0100
1000
0000
0100
0000
0100
0000
0010
0000
0011
0000
0000
0000
1100
0000
,
0000
0000
0001
0100
0001
0100
0010
0000
1000
0010
0100
0001
0100
0010
1000
0000
,
0001
0010
0100
0000
0100
0000
1000
0000
0001
0000
1000
0010
1000
0000
0001
0000
,
0100
0010
0100
0000
1000
0000
1100
0000
0000
0000
0101
0000
0000
0000
1001
0000
,
0001
0000
0010
0000
1000
0000
0010
0000
0001
0100
0001
0000
0100
0000
0010
0000
,
1010
0000
0110
0000
1000
0001
0000
0000
0000
0000
0000
0000
0000
0000
0000
0000
;

//---------------dance-single - ----------------
#NOTEDATA:;
#CHARTNAME:;
#STEPSTYPE:dance-single;
#DESCRIPTION:;
#CHARTSTYLE:;
#DIFFICULTY:Medium;
#METER:13;
#RADARVALUES:0.613437,0.661121,0.313653,0.186698,0.041074,575.000000,533.000000,42.000000,25.000000,0.000000,0.000000,0.000000,0.000000,0.000000,0.613437,0.661121,0.313653,0.186698,0.041074,575.000000,533.000000,42.000000,25.000000,0.000000,0.000000,0.000000,0.000000,0.000000;
#CREDIT:;
#NOTES:
0000
0000
0000
0000
,
0000
0000
0000
0000
,
0000
0000
0000
0000
,
0000
0000
0000
0000
,
0000
0000
0000
0000
,
0000
0000
1000
0100
1000
0100
0000
0010
,
0100
1000
0000
0100
1000
0010
0000
1000
,
0100
0000
0010
0001
0010
0001
0000
0010
,
0001
0100
0000
0001
0010
0001
0200
0000
,
0301
0000
1000
0010
0100
0010
0000
1000
,
0100
0010
0000
0100
1000
0010
0000
0100
,
0010
0000
0100
0001
0010
0100
0000
0010
,
0001
0100
0000
0010
0100
0001
0200
0000
,
0310
0000
0110
0000
1000
0001
1001
0000
,
1000
0001
1000
0010
0100
0001
0000
0010
,
0000
0100
2000
0000
3010
0200
0000
0301
,
0100
0010
1000
0001
0000
1001
0000
1000
,
0100
0010
0110
0000
0001
1000
1001
0000
,
0001
0100
0010
1000
0100
1000
0000
0001
,
0000
0010
0001
0000
0001
1000
0000
1000
,
0100
0000
0010
0001
0010
0100
1000
0100
,
0010
0001
0011
0000
0110
0000
1100
0000
,
0100
0000
1000
0000
0001
0000
1000
0000
0010
0000
0100
0000
0001
0000
1000
0001
,
2000
0000
3001
0010
0100
0010
0001
1000
,
0010
0100
1000
0100
0001
0100
0010
1000
,
0001
0010
0011
0000
0110
0000
1100
0000
,
1000
0100
0010
1000
0020
0000
0031
0010
,
0100
0000
1000
0000
0001
0000
1000
0001
1000
0000
0100
0000
0010
0000
0010
0000
,
0001
0000
0200
0000
0000
0000
0310
0000
1000
0000
0001
0000
1000
0000
2000
3000
,
0100
0010
0001
0010
0100
1000
0001
1000
,
0100
0010
0001
1000
0001
0100
0000
0100
,
0001
1000
0001
0010
0100
0010
0100
1000
,
0001
0101
1010
0110
,
1000
0100
0001
0001
0001
0100
1000
1000
,
0010
0100
0010
0010
1000
0001
0100
0100
,
1010
0000
0101
0000
1001
0000
0001
0010
,
1000
0010
0001
1000
0010
0100
0001
0000
,
1000
0100
1000
0100
0001
0100
0010
0001
,
0000
0100
1000
0100
0010
1000
0100
0000
,
0100
0010
0001
0010
0001
0010
1000
0010
,
0000
0100
1000
0010
1000
0000
0110
0000
,
0100
0001
0100
0001
0100
1000
0100
0010
,
0000
1000
0100
0001
0100
0010
0001
0000
,
0001
0100
0001
0100
0010
0001
0010
1000
,
0000
0001
0010
0100
1000
0000
0010
0000
,
0120
0000
1030
0001
2001
0000
3001
1000
,
0010
0100
0001
0020
0000
0230
0000
1300
,
0001
0000
0001
0100
0000
0100
0010
1000
,
0100
2000
0000
3002
0000
1003
0010
0100
,
0101
0000
0100
0010
1010
0000
0010
0100
,
0001
1000
0010
2000
0000
3002
0000
0103
,
0010
0000
0010
1000
0000
1000
0001
0000
,
1000
0000
0001
0000
0010
0000
0100
0000
0010
0000
0010
0000
0001
1000
0001
0000
,
1001
0000
0110
0000
1001
0000
0010
0001
,
1000
0000
0001
0000
0200
0000
0000
0000
0301
0100
0001
0000
1000
0000
0000
0000
,
0001
0000
1000
0001
1000
0000
0100
0000
0010
0000
0001
0000
1000
0000
1000
0000
,
0000
0010
0100
0100
0001
0010
0100
1000
,
1100
0000
0110
0000
0011
0000
0001
0100
,
0001
0010
0100
1000
0010
0010
0100
0100
,
0001
0000
0001
1000
0001
0000
0100
0000
0010
0000
1000
0000
0100
0000
0100
0000
,
0000
0010
0001
1000
0010
0000
0100
0001
,
1001
0000
1000
0010
0110
0000
0100
0001
,
0010
0001
0100
0020
0000
2030
0000
3001
,
0010
0000
0010
0100
0000
0100
0010
0001
,
1000
0001
0000
0010
0000
0100
1000
0001
,
1001
0000
0100
0010
0110
0000
0100
0001
,
1000
0001
0100
0010
1000
0001
0000
0100
,
0010
1000
0001
0010
0100
1000
0002
0000
,
0013
0000
0001
0000
0010
0000
1000
0000
0010
0000
0100
0000
1000
0001
1000
0000
,
1001
0110
1001
0001
0000
0100
1000
0100
,
0010
1000
0001
0000
2000
0000
0000
0000
3100
0000
0010
0001
0010
0000
0100
0000
,
1000
0001
1000
0100
0000
0010
0001
1000
,
0010
0001
0010
1000
1010
0000
0110
0000
,
0101
0000
0001
0100
0001
0010
0100
1000
,
0010
0000
0010
0000
0100
0000
0100
0000
0001
0000
1000
0100
0010
0000
0001
0000
,
1000
0001
0100
0020
0000
1030
0100
1000
,
0001
0001
0010
0100
0100
1000
0010
0100
,
0100
0001
0010
0001
0100
0010
1000
0100
,
1000
0000
1000
0001
0010
1000
0010
0001
,
0100
0010
0010
1000
0100
0002
0000
0203
,
0000
2300
0000
3010
1000
0001
0010
0100
,
1000
0010
0010
0100
0001
1000
0100
0010
,
0001
0100
0100
0110
0000
0101
0000
1010
,
0000
1000
0010
0001
0010
0010
1000
0100
,
1000
0000
1001
0000
0001
0100
0000
0000
0000
0000
0000
0000
0000
0000
0000
0000
;

//---------------dance-single - ----------------
#NOTEDATA:;
#CHARTNAME:;
#STEPSTYPE:dance-single;
#DESCRIPTION:;
#CHARTSTYLE:;
#DIFFICULTY:Easy;
#METER:8;
#RADARVALUES:0.440608,0.471880,0.373396,0.365928,0.000000,413.000000,363.000000,50.000000,49.000000,0.000000,0.000000,0.000000,0.000000,0.000000,0.440608,0.471880,0.373396,0.365928,0.000000,413.000000,363.000000,50.000000,49.000000,0.000000,0.000000,0.000000,0.000000,0.000000;
#CREDIT:;
#NOTES:
// measure 0
0000
0000
0000
0000
,  // measure 1
0000
0000
0000
0000
,  // measure 2
0000
0000
0000
0000
,  // measure 3
0000
0000
0000
0000
,  // measure 4
0000
0000
0000
0000
,  // measure 5
0000
0000
1000
0000
0100
1000
0000
0100
,  // measure 6
0000
1000
0000
1100
0000
1100
0000
0200
,  // measure 7
0000
0300
0010
0000
0001
0010
0000
0001
,  // measure 8
0000
0010
0000
0010
0001
0010
0001
0000
,  // measure 9
0011
0000
2000
0000
3100
1000
0000
0100
,  // measure 10
0000
1000
0000
1100
0000
1100
0000
0200
,  // measure 11
0000
0000
0320
0000
0031
0010
0000
0011
,  // measure 12
0000
0011
0000
0010
0001
0010
0002
0000
,  // measure 13
0013
0220
0330
2002
,  // measure 14
3003
0000
1000
0010
0000
0100
0000
0001
,  // measure 15
0000
0001
1000
0000
1000
0010
0000
0010
,  // measure 16
0100
0000
0001
1000
0000
0001
0000
1000
,  // measure 17
1000
0220
0330
2002
,  // measure 18
3003
0000
0001
0100
0000
0100
0000
0010
,  // measure 19
0000
0010
1000
0000
1000
0001
0000
0001
,  // measure 20
0100
0020
0100
0100
,  // measure 21
0130
0110
0110
0220
,  // measure 22
0330
1000
0000
1000
0001
0000
0100
0000
,  // measure 23
1001
0000
1000
0000
0010
0000
0100
0010
,  // measure 24
0100
0000
0001
0000
0010
0000
0100
0010
,  // measure 25
0100
0110
0110
0220
,  // measure 26
0330
0010
0000
0001
1000
0000
0001
0000
,  // measure 27
0001
0000
1000
0100
1000
0000
0100
0000
,  // measure 28
0010
0000
0000
0000
0001
0000
1000
0000
0001
0000
0000
0000
0200
0000
0000
0300
,  // measure 29
0100
0000
0010
0000
1000
0001
1000
0000
,  // measure 30
0100
0000
0010
0000
0001
1000
0001
0000
,  // measure 31
1000
0000
0100
0000
1000
0100
1000
0000
,  // measure 32
0001
0000
0010
0000
0001
0010
0001
0000
,  // measure 33
1000
0000
0001
0000
0100
0010
0100
0000
,  // measure 34
0001
0000
1000
0000
0100
0010
0100
0000
,  // measure 35
0110
0000
0110
0000
0220
0000
0330
0010
,  // measure 36
0000
0001
1000
0000
0001
0000
0001
0000
,  // measure 37
1000
0000
0100
1000
0000
0100
0000
1100
,  // measure 38
0000
1100
0000
1000
0000
0200
0000
0000
,  // measure 39
0310
0000
0001
0010
0000
0001
0000
0010
,  // measure 40
0000
0010
0001
0010
0001
0000
0011
0000
,  // measure 41
1000
0000
0100
1000
0000
0100
0000
1000
,  // measure 42
0000
1100
0000
1100
0000
0200
0000
0000
,  // measure 43
0310
0000
0001
0010
0000
0011
0000
0011
,  // measure 44
0000
0001
0010
0001
0020
0000
0031
0000
,  // measure 45
2002
3003
0220
0330
,  // measure 46
1000
0001
0000
0001
0000
0100
0000
0010
,  // measure 47
1000
0000
1000
0100
0000
0100
0010
0000
,  // measure 48
0001
0001
0000
2000
0000
0000
3001
0000
,  // measure 49
2002
0000
3003
0000
0220
0000
0330
0100
,  // measure 50
0001
0000
0001
1000
0000
1000
0000
0010
,  // measure 51
0100
0000
0100
0010
0000
0010
0100
0000
,  // measure 52
0020
0100
0100
0130
,  // measure 53
0110
0000
0110
0000
0110
0000
0010
1000
,  // measure 54
0000
1000
0001
0000
0100
0000
1001
0000
,  // measure 55
0001
1000
0001
0000
0100
0000
0010
0000
,  // measure 56
1000
0001
1000
0000
0100
0000
0010
0000
,  // measure 57
0110
0000
0110
0000
0220
0000
0330
0100
,  // measure 58
0000
0010
0001
0000
1000
0000
1000
0000
,  // measure 59
0001
0100
0001
0000
1000
0000
0010
0000
,  // measure 60
1000
0100
1000
0000
0001
0000
0010
0000
,  // measure 61
2002
3003
0220
0330
,  // measure 62
0001
0100
0000
0010
0000
1000
0000
1000
,  // measure 63
0001
0000
0001
1000
0000
1000
0001
0000
,  // measure 64
0100
0100
0000
0010
0000
0100
0001
0000
,  // measure 65
2002
3003
0220
0330
,  // measure 66
0001
1000
0000
0100
0000
0010
0000
0010
,  // measure 67
0001
0000
0010
0001
0000
0010
0002
0000
,  // measure 68
1003
0001
1000
0001
1000
0001
1000
0000
,  // measure 69
0001
0001
0001
1000
0000
1000
0001
0000
,  // measure 70
2000
0000
0000
0000
3001
0010
0001
0000
,  // measure 71
1000
0000
1000
0000
0001
0100
0001
0000
,  // measure 72
1000
0010
0110
0110
,  // measure 73
0110
0000
0100
0001
0000
0100
0001
0000
,  // measure 74
1000
0010
1000
0000
0001
1000
0001
0000
,  // measure 75
0010
0000
0100
0000
1000
0001
1000
0000
,  // measure 76
0010
0000
0200
0301
0000
1000
0000
0001
,  // measure 77
1000
0001
0000
0010
0000
0100
0000
0010
,  // measure 78
0100
0010
0000
0001
0000
0100
0000
0010
,  // measure 79
1000
0010
0000
1000
0000
0100
0000
0010
,  // measure 80
0001
0010
0000
0100
1000
0100
0000
0010
,  // measure 81
0001
0010
0000
1000
0010
1000
0000
0001
,  // measure 82
0100
0001
0000
0110
0000
0110
0000
2002
,  // measure 83
0000
3003
0010
0000
1000
0010
0100
0000
,  // measure 84
0001
1000
1001
0000
0000
0000
0000
0000
;

//---------------dance-single - ----------------
#NOTEDATA:;
#CHARTNAME:;
#STEPSTYPE:dance-single;
#DESCRIPTION:;
#CHARTSTYLE:;
#DIFFICULTY:Beginner;
#METER:5;
#RADARVALUES:0.330722,0.377504,0.261377,0.410736,0.000000,310.000000,275.000000,35.000000,55.000000,0.000000,0.000000,0.000000,0.000000,0.000000,0.330722,0.377504,0.261377,0.410736,0.000000,310.000000,275.000000,35.000000,55.000000,0.000000,0.000000,0.000000,0.000000,0.000000;
#CREDIT:;
#NOTES:
0000
0000
0000
0000
,
0000
0000
0000
0000
,
0000
0000
0000
0000
,
0000
0000
0000
0000
,
0000
0000
0000
0000
,
0000
1000
1000
0100
,
0100
1000
1000
0200
,
0300
0010
0010
0001
,
0001
0010
0001
0020
,
0030
0100
0100
1000
,
1000
0100
0100
2000
,
3000
0001
0010
0010
,
0001
0010
0010
0002
,
0003
2002
3003
2002
,
3003
1000
0010
0200
,
0300
0001
1000
0001
,
0010
0100
1000
0002
,
0003
2002
3003
2002
,
3003
0001
1000
0001
,
0100
0010
1000
0001
,
0100
0020
0000
0000
,
0030
0110
0110
0220
,
0330
0010
1000
0001
,
1001
1000
0010
1000
,
1000
0001
0100
0001
,
0001
1001
1001
2002
,
3003
0001
1000
0100
,
0010
0001
0001
0001
,
0001
1000
0010
0100
,
0000
0010
1000
1000
,
0100
0010
0001
0001
,
1000
0010
0100
0100
,
0001
0010
0100
0100
,
1000
0001
0010
0010
,
0001
1000
0010
0010
,
1000
1000
0001
0001
,
0010
0100
0020
0030
,
0001
0010
0001
0010
,
0001
0001
0010
0010
,
0100
1000
0100
0100
,
1000
0100
2000
3000
,
0001
0010
0010
0001
,
0010
0010
0002
0003
,
1000
0100
0100
1000
,
0100
0100
2000
3000
,
2002
3003
2002
3003
,
1000
0001
0100
0100
,
0001
0010
0100
1000
,
0001
1000
0020
0030
,
2002
3003
2002
3003
,
0001
1000
0100
0100
,
1000
0001
1000
0001
,
0020
0000
0000
0030
,
0110
0110
0220
0330
,
0001
1000
0001
1001
,
0001
1000
0100
0100
,
1000
0001
0100
0100
,
0110
0110
0220
0330
,
1000
0001
0100
1001
,
1000
0010
1000
1000
,
0001
0100
0020
0030
,
2002
3003
2002
3003
,
0001
0010
0200
0300
,
1000
0100
1000
0100
,
0010
0001
2000
3000
,
2002
3003
2002
3003
,
1000
0010
0200
0300
,
0001
1000
0001
1000
,
0010
0010
0020
0030
,
1000
1000
1000
0000
0001
0000
0001
0000
,
1001
0000
0001
0001
,
1000
1000
0010
0010
,
0100
0100
0110
0110
,
0220
0330
0001
1000
,
0100
1001
0001
0010
,
0100
1000
1000
0010
,
0100
0000
0002
0003
0000
1000
0000
0010
,
0000
1000
0000
0001
0000
0010
0000
0100
,
0000
0000
0000
1000
0000
1000
0000
1000
,
0000
0001
0000
0100
0000
0010
0000
0100
,
0000
0100
0000
0001
0000
0001
0000
0010
,
0000
0100
0000
1000
0000
1000
0000
0010
,
0000
0100
0000
0110
0000
0110
0000
0220
,
0000
0330
0000
0010
0000
1000
0000
0001
,
0000
0100
0100
0000
0000
0000
0000
0000
;
