#TITLE:Hades;
#SUBTITLE:;
#ARTIST:Pascu y Rodri;
#TITLETRANSLIT:;
#SUBTITLETRANSLIT:;
#ARTISTTRANSLIT:;
#GENRE:;
#CREDIT:;
#BANNER:Hades-bn.jpg;
#BACKGROUND:Hades-bg.png;
#LYRICSPATH:;
#CDTITLE:cdtitle_ukiarrow.png;
#MUSIC:Hades.mp3;
#OFFSET:0.120000;
#SAMPLESTART:74.107910;
#SAMPLELENGTH:12.000000;
#SELECTABLE:YES;
#BPMS:0.000000=143.000000
;
#STOPS:
;
#BGCHANGES:0.250=Hades.mp4=1.000=0=0=1=====,
308.000=Hades-bg.png=1.000=0=0=1=====,
99999=-nosongbg-=1.000=0=0=0 // don't automatically add -songbackground-
;
#KEYSOUNDS:;
#ATTACKS:;

//---------------dance-single - ----------------
#NOTES:
     dance-single:
     :
     Hard:
     12:
     0.490717,0.589910,0.348144,0.533820,0.646000,444.000000,399.000000,45.000000,69.000000,0.000000,13.000000,0.490717,0.589910,0.348144,0.533820,0.646000,444.000000,399.000000,45.000000,69.000000,0.000000,13.000000:
// measure 0
0000
0000
0000
0000
,  // measure 1
0000
0000
0000
0000
,  // measure 2
0000
0000
0000
0000
,  // measure 3
0000
0000
0000
0000
,  // measure 4
0000
0000
0000
2000
0000
0000
3100
0000
0000
0100
0000
0100
,  // measure 5
1000
0000
1000
0200
0000
0000
0310
0000
0000
0020
0000
0000
,  // measure 6
0031
0000
0000
0002
0000
0000
0103
0000
0000
0100
0000
0100
,  // measure 7
0001
0000
0001
0200
0000
0000
0310
0000
0000
0020
0000
0000
,  // measure 8
1030
0000
0000
0010
0000
0100
0010
0000
0100
0020
0000
0000
,  // measure 9
0130
0000
0000
1000
0000
0001
1000
0000
0001
2000
0000
0000
,  // measure 10
3001
0000
0000
1000
0000
1000
0100
0000
0100
0010
0000
0010
,  // measure 11
0001
0000
0001
0010
0000
0010
0100
0000
0000
0110
0000
0000
,  // measure 12
1001
0220
0000
1331
,  // measure 13
0000
0000
0100
0001
0000
0001
0100
0000
0100
0010
0000
1000
,  // measure 14
0000
0000
0001
0100
0000
0100
0010
1000
0010
1000
0000
0001
,  // measure 15
0000
1000
0100
1000
0010
1000
0010
0000
0100
0001
0000
0010
,  // measure 16
0000
0010
0000
2002
0000
0000
0000
0000
0000
3113
0000
0000
,  // measure 17
0000
0000
1000
0100
0000
0100
1000
0000
1000
0001
0000
0010
,  // measure 18
0000
0000
0100
1000
0000
1000
0001
0010
0001
0010
0000
0100
,  // measure 19
0000
0010
0001
0010
0000
0001
1000
0000
0010
0100
0000
0010
,  // measure 20
0000
0220
0000
1331
,  // measure 21
0000
0000
0000
1100
0000
1000
0100
0000
0100
0002
0000
0000
,  // measure 22
0103
0000
0000
1000
0000
1000
0010
0000
0010
0002
0000
0000
,  // measure 23
0013
0000
0000
1000
0000
0100
0010
0000
0001
2000
0000
0000
,  // measure 24
3001
0220
0000
1331
,  // measure 25
0000
0000
0000
0101
0000
0100
0010
0000
0010
2000
0000
0000
,  // measure 26
3001
0000
0000
1010
0000
0010
0100
0000
0100
0002
0000
0000
,  // measure 27
1003
0000
0000
0001
0000
0010
1000
0000
0100
0002
0000
0000
,  // measure 28
1003
0000
0000
0001
0000
0000
0010
0000
0000
0100
0000
0100
,  // measure 29
1000
0000
1000
0200
0000
0000
1300
0000
0000
0001
0000
0000
,  // measure 30
0001
0000
0000
1000
0000
0000
0100
0000
0000
0010
0000
0010
,  // measure 31
0001
0000
0001
0020
0000
0000
0031
0000
0000
0100
0000
0000
,  // measure 32
0100
0000
0000
0001
0000
0001
0100
0000
0100
0020
0000
0000
,  // measure 33
0130
0000
0000
0010
0000
0010
1000
0000
1000
0200
0000
0000
,  // measure 34
0310
0000
0000
0100
0000
0010
0100
0000
0100
1000
0000
1000
,  // measure 35
0001
0000
0001
2000
0000
0000
3010
0000
0000
0100
0000
0000
,  // measure 36
0100
2002
0000
3113
,  // measure 37
0000
0000
0100
0001
0000
1000
0100
0000
0010
1000
0000
0010
,  // measure 38
0000
0000
0010
0001
0000
0001
0100
0001
0100
0010
0000
0010
,  // measure 39
0000
1000
0100
1000
0000
1000
0010
0000
0010
0100
0000
0001
,  // measure 40
0000
0001
0000
2002
0000
0000
0000
0000
0000
3113
0000
0000
,  // measure 41
0000
0000
1000
0100
0000
0100
0010
0000
0010
0001
0000
1000
,  // measure 42
0000
0001
0100
0001
0000
1000
0000
0001
0010
0001
0000
1000
,  // measure 43
0000
0010
0100
0110
0000
0010
1010
0000
0100
0101
0000
0001
,  // measure 44
0000
0220
0000
1331
,  // measure 45
0000
0000
0000
1100
0000
1000
0100
0000
0100
0020
0000
0000
,  // measure 46
0031
0000
0000
0011
0000
0001
0100
0000
0100
0020
0000
0000
,  // measure 47
1030
0000
0000
0001
0000
0100
1000
0000
0100
0002
0000
0000
,  // measure 48
1003
2002
0000
3113
,  // measure 49
0000
0000
0000
0011
0000
0001
0010
0000
0010
0200
0000
0000
,  // measure 50
1300
0000
0000
0010
0000
1000
0010
0000
0010
0200
0000
0000
,  // measure 51
0301
0000
0000
1000
0000
0100
0001
0000
0100
2000
0000
0000
,  // measure 52
3001
2000
0000
3000
,  // measure 53
0010
0100
0010
0200
0000
0000
0000
0000
0001
0000
0000
0001
,  // measure 54
0000
0000
0301
0200
0000
0000
0300
0000
0000
2002
0000
0000
,  // measure 55
3003
0000
1000
0200
0000
0000
0300
0000
0010
0001
0000
0001
,  // measure 56
1000
0001
1000
0020
0000
0000
0000
0000
0000
0030
0000
0000
,  // measure 57
0100
0010
0100
0020
0000
0000
0000
0000
0100
0000
0000
0100
,  // measure 58
0000
0000
0130
0020
0000
0000
1030
0000
0000
2000
0000
0001
,  // measure 59
3000
0100
0001
0100
0000
0000
0010
0100
0010
0200
0000
0000
,  // measure 60
0320
2032
0000
3113
,  // measure 61
0000
0000
1000
0100
0000
0010
0100
0000
1000
0100
0000
0001
,  // measure 62
0000
0000
1000
0010
0000
0100
0000
0010
1000
0010
0000
0001
,  // measure 63
0000
0100
0001
0100
0010
0100
0010
0000
0010
1000
0000
0001
,  // measure 64
0000
0001
0000
2002
0000
0000
0000
0000
0000
3113
0000
0000
,  // measure 65
0000
0000
0010
1000
0000
0100
0001
0000
0010
1000
0000
0001
,  // measure 66
0000
0000
1000
0200
0000
0000
0310
0000
0001
0020
0000
0000
,  // measure 67
0130
0000
1000
1100
0000
0100
0110
0000
0010
0011
0000
0001
,  // measure 68
0000
0220
0000
1331
,  // measure 69
0000
0000
0000
0101
0000
0010
1000
0000
1000
0020
0000
0000
,  // measure 70
0130
0000
0000
0110
0000
1000
0001
0000
0001
2000
0000
0000
,  // measure 71
3010
0000
0000
1100
0000
0100
0010
0000
0010
0002
0000
0000
,  // measure 72
0103
0220
0000
1331
,  // measure 73
0000
0000
0000
1010
0000
0010
0100
0000
0100
0002
0000
0000
,  // measure 74
0013
0000
0000
0011
0000
0001
0100
0000
0100
2000
0000
0000
,  // measure 75
3100
0000
0000
0110
0000
0010
1000
0000
1000
0020
0000
0000
,  // measure 76
0001
1030
0000
0000
;

//---------------dance-single - ----------------
#NOTES:
     dance-single:
     :
     Medium:
     8:
     0.415562,0.471928,0.309461,0.642132,0.379090,376.000000,336.000000,40.000000,83.000000,0.000000,10.000000,0.415562,0.471928,0.309461,0.642132,0.379090,376.000000,336.000000,40.000000,83.000000,0.000000,10.000000:
0000
0000
0000
0000
,
0000
0000
0000
0000
,
0000
0000
0000
0000
,
0000
0000
0000
0000
,
0000
0000
0000
2000
0000
0000
3001
0000
0000
0010
0000
0010
,
0100
0000
0010
0200
0000
0000
0310
0000
0000
0002
0000
0000
,
1003
0000
0000
0020
0000
0000
0130
0000
0000
0001
0000
0001
,
1000
0000
0001
2000
0000
0000
3001
0000
0000
0200
0000
0000
,
0310
0000
0000
0010
0000
1000
0010
0000
1000
0020
0000
0000
,
1030
0000
0000
0001
0000
0100
0001
0000
0100
0002
0000
0000
,
0103
0000
0000
0010
0000
0010
1000
0000
0010
1000
0000
0100
,
1000
0000
0100
2000
0000
0000
3100
0000
0000
0010
0000
0000
,
0001
0200
0000
0310
,
0000
0000
0000
1000
0000
1000
0010
0000
1000
0010
0000
1000
,
0000
0000
0000
0001
0000
0100
0001
0000
0100
0002
0000
0000
,
0103
0000
0000
1000
0000
0100
1000
0000
0100
2000
0000
0000
,
3000
0020
0000
0130
,
0000
0000
0001
0100
0000
0001
0100
0000
0010
0100
0000
0010
,
0000
0000
0100
0001
0000
0100
0001
0000
1000
0002
0000
1003
,
0000
1010
0101
2002
,
3003
0020
0000
1031
,
0000
0000
0000
1100
0000
0000
0100
0000
0100
0020
0000
0000
,
0031
0000
0000
0101
0000
0000
0100
0000
0010
2000
0000
0000
,
3001
0000
0000
1000
0000
0100
0010
0000
0001
0020
0000
0000
,
0130
2000
0000
3110
,
0000
0000
0000
1001
0000
0000
1000
0000
0001
0200
0000
0000
,
0310
0000
0000
1010
0000
0000
1000
0000
0001
0200
0000
0000
,
0310
0000
0000
1000
0000
0010
1000
0000
0010
0200
0000
0000
,
0301
0000
0000
1000
0000
0000
0100
0000
0000
0010
0000
0001
,
0010
0000
0001
0020
0000
0000
0130
0000
0000
0200
0000
0000
,
0310
0000
0000
0002
0000
0000
0103
0000
0000
0010
0000
1000
,
0010
0000
1000
0020
0000
0000
0130
0000
0000
0002
0000
0000
,
1003
0000
0000
0001
0000
0100
0010
0000
0100
0020
0000
0000
,
1030
0000
0000
1000
0000
0100
0010
0000
0100
0020
0000
0000
,
0031
0000
0000
0100
0000
0010
0100
0000
0010
1000
0000
1000
,
0001
0000
0100
0002
0000
0000
1003
0000
0000
2000
0000
0000
,
3100
0002
0000
0113
,
0000
0000
0000
0100
0000
0100
1000
0000
0100
2000
0000
3001
,
0000
0000
0000
0001
0000
0100
0001
0000
0100
0002
0000
0013
,
0000
0110
1100
0022
,
0033
0200
0000
1301
,
0000
0000
0000
1000
0000
0100
0010
0000
0001
2000
0000
3001
,
0000
0000
0000
0001
0000
0100
0010
0000
1000
0001
0000
1000
,
0000
1010
0101
0022
,
0033
0200
0000
1301
,
0000
0000
0000
0011
0000
0010
0100
0000
0010
0200
0000
0000
,
1300
0000
0000
1100
0000
1000
0001
0000
1000
0002
0000
0000
,
0103
0000
0000
0001
0000
0100
0010
0000
0100
0002
0000
0000
,
1003
2000
0000
3110
,
0000
0000
0000
1000
0000
0010
1000
0000
0010
0200
0000
0000
,
0301
0000
0000
0100
0000
0010
0100
0000
0001
0200
0000
0000
,
0301
0000
0000
0001
0000
0010
0100
0000
1000
0002
0000
0000
,
1003
0020
0000
0030
,
0010
0100
0010
0200
0000
0000
0000
0000
0000
0302
0000
0000
,
0000
2003
3000
2002
,
3003
0000
1000
0200
0000
0000
0000
0000
0310
0001
0000
0000
,
0110
2002
0000
3003
,
1000
0001
1000
0002
0000
0000
0000
0000
0000
0203
0000
0000
,
0000
0320
1030
2000
,
3001
0002
0103
0110
,
0010
2002
0000
3103
,
0000
0000
0000
1000
0000
0100
0010
0000
0001
1000
0000
1000
,
0000
0000
0000
0010
0000
0010
0100
0000
0010
1000
0000
1000
,
0000
0101
0110
2020
,
3030
2002
0000
3013
,
0000
0000
0000
1000
0000
0001
1000
0000
0010
1000
0000
1000
,
0000
2000
3100
0020
,
0031
1100
0110
0022
,
0033
0200
0000
1301
,
0000
0000
0000
0101
0000
0001
1000
0000
0001
2000
0000
0000
,
3010
0000
0000
0101
0000
0010
1000
0000
0010
2000
0000
0000
,
3001
0000
0000
1001
0000
1000
0001
0000
0001
2000
0000
0000
,
3100
0020
0000
1031
,
0000
0000
0000
0011
0000
0010
0100
0000
0010
0200
0000
0000
,
1300
0000
0000
1100
0000
1000
0100
0000
1000
0200
0000
0000
,
0310
0000
0000
0001
0000
0010
0100
0000
0010
0002
0000
0000
,
0203
0310
0000
0000
;

//---------------dance-single - ----------------
#NOTES:
     dance-single:
     :
     Easy:
     4:
     0.288462,0.353946,0.293988,0.587976,0.000000,261.000000,223.000000,38.000000,76.000000,0.000000,0.000000,0.288462,0.353946,0.293988,0.587976,0.000000,261.000000,223.000000,38.000000,76.000000,0.000000,0.000000:
0000
0000
0000
0000
,
0000
0000
0000
0000
,
0000
0000
0000
0000
,
0000
0000
0000
0000
,
0000
1000
0001
0010
,
0100
0110
1000
2002
,
3003
0010
0100
0001
,
1000
1001
0100
0220
,
0330
0010
1000
0001
,
0001
0100
0001
1000
,
1000
0010
1010
0100
,
0101
1000
0001
2002
,
3003
0200
0000
0310
,
0000
1000
0100
1100
,
0000
0010
0001
0100
,
0001
1000
0010
2020
,
3030
2000
0000
3001
,
0000
0100
0001
0202
,
0303
0001
0010
0100
,
0010
0001
1000
2002
,
3003
0020
0000
0130
,
0000
0010
1000
2002
,
3003
0001
0100
1000
,
0100
1001
0110
2002
,
3003
2000
0000
3001
,
0000
0001
1000
2200
,
3300
1000
0010
1000
,
0001
0100
0010
0220
,
0330
1000
0100
0010
,
0010
0001
0010
0200
,
0300
1000
0010
0100
,
0100
0001
0100
0020
,
0030
1000
0100
2200
,
3300
0001
0100
0202
,
0303
0001
0010
1000
,
0010
0001
0100
0220
,
0330
0020
0000
0130
,
0000
0001
0010
0022
,
0033
0001
1000
0100
,
1000
0010
0100
2002
,
3003
0002
0000
1003
,
0000
0001
0010
0022
,
0033
1000
0010
0100
,
0001
1001
0110
2002
,
3003
0200
0000
0310
,
0000
0010
0100
0202
,
0303
0100
0010
1000
,
0100
1000
0001
2002
,
3003
0200
0000
0310
,
0000
0001
0010
2002
,
3003
1000
0100
0001
,
0100
0110
1001
0220
,
0330
2000
0000
0000
,
3010
0200
0000
0302
,
0000
2003
0000
3002
,
0000
0203
0000
0310
,
1000
2002
0000
3003
,
1000
0002
0000
0203
,
0000
0310
1000
0001
,
0100
0001
0010
0100
,
1000
0002
0000
1003
,
0000
0001
0100
0020
,
0030
0010
1000
0001
,
1000
0100
0010
0022
,
0033
0002
0000
1003
,
0000
0010
0100
0002
,
0003
1000
0001
0100
,
0001
1001
0110
2002
,
3003
0020
0000
0130
,
0000
0001
0010
0200
,
0300
1000
0100
1000
,
0001
0010
0100
0220
,
0330
0200
0000
0310
,
0000
0001
1000
0020
,
0030
0100
0001
1000
,
0100
0001
0100
1000
,
0010
0100
0000
0000
;
