#VERSION:0.83;
#TITLE:Hércules;
#SUBTITLE:;
#ARTIST:Pascu y Rodri;
#TITLETRANSLIT:;
#SUBTITLETRANSLIT:;
#ARTISTTRANSLIT:;
#GENRE:;
#ORIGIN:;
#CREDIT:;
#BANNER:Hércules-bn.jpg;
#BACKGROUND:Hércules-bg.png;
#PREVIEWVID:;
#JACKET:Hércules-jacket.jpg;
#CDIMAGE:;
#DISCIMAGE:;
#LYRICSPATH:;
#CDTITLE:cdtitle_ukiarrow.png;
#MUSIC:Hércules.mp3;
#OFFSET:1.679999;
#SAMPLESTART:66.907867;
#SAMPLELENGTH:12.000000;
#SELECTABLE:YES;
#BPMS:0.000=125.000,
143.000=134.000,
158.500=125.000,
160.000=100.000,
202.000=127.000,
310.000=131.000,
327.000=100.000,
369.750=134.000;
#STOPS:;
#DELAYS:;
#WARPS:;
#TIMESIGNATURES:0.000=4=4;
#TICKCOUNTS:0.000=4;
#COMBOS:0.000=1;
#SPEEDS:0.000=1.000=0.000=0;
#SCROLLS:0.000=1.000;
#FAKES:;
#LABELS:0.000=Song Start;
#BGCHANGES:3.500=Hércules.mp4=1.000=0=0=1=====,
99999=-nosongbg-=1.000=0=0=0 // don't automatically add -songbackground-
;
#KEYSOUNDS:;
#ATTACKS:
;

//---------------dance-single - ----------------
#NOTEDATA:;
#CHARTNAME:;
#STEPSTYPE:dance-single;
#DESCRIPTION:;
#CHARTSTYLE:;
#DIFFICULTY:Hard;
#METER:14;
#RADARVALUES:0.535353,0.622440,0.374747,0.205341,0.639124,730.000000,657.000000,73.000000,40.000000,60.000000,0.000000,0.000000,0.000000,0.000000,0.535353,0.622440,0.374747,0.205341,0.639124,730.000000,657.000000,73.000000,40.000000,60.000000,0.000000,0.000000,0.000000,0.000000;
#CREDIT:;
#NOTES:
// measure 0
0000
0000
0000
0000
,  // measure 1
0000
0000
0000
0000
,  // measure 2
0000
0000
0000
0000
,  // measure 3
0000
0000
0000
0000
,  // measure 4
0000
0000
0000
0000
,  // measure 5
0000
0000
1000
0100
1000
0100
1000
0001
,  // measure 6
1000
0000
0001
0000
1000
0000
0000
0000
0000
0000
0000
0000
0001
0000
0000
0101
,  // measure 7
0000
0000
1010
0000
0000
0000
1000
0000
0100
0000
0010
0000
0001
0000
0000
0011
,  // measure 8
0000
0000
1100
0000
0000
0000
1000
0000
0010
0000
0100
0000
0001
0000
0000
0101
,  // measure 9
0000
0000
1100
0000
0000
0000
0001
0000
0010
0000
1000
0000
1010
0000
0000
0011
,  // measure 10
0000
0000
1010
0000
0000
1000
0001
0000
1000
0000
0000
0000
0001
0000
0000
0100
,  // measure 11
0000
0000
0001
0000
1000
0000
0100
0000
0010
0000
0000
0000
0001
0000
0000
0010
,  // measure 12
0000
0001
1000
0010
0100
0000
0010
1000
,  // measure 13
0010
0000
0100
0000
0001
0000
0100
0001
0000
1000
0002
0000
0000
0000
0000
0000
,  // measure 14
1003
0000
0100
1000
0100
0000
0010
0100
0000
0001
0200
0000
0000
0000
0300
0000
,  // measure 15
0000
0000
0000
0000
1100
0000
0000
1001
0000
0000
1010
0000
0000
0110
0000
0000
,  // measure 16
1001
0000
0000
0000
0101
0000
0000
1001
0000
0000
0011
0000
0000
0000
0010
0001
,  // measure 17
0010
0000
0100
0000
1000
0000
0000
1010
0000
0000
0011
0000
0000
0000
1000
0000
,  // measure 18
0100
0000
0001
0000
1001
0000
0000
0110
0000
0000
1001
0000
0000
0001
1000
0000
,  // measure 19
0100
1000
0100
0000
0020
0000
0000
0001
0000
0000
0031
0000
1000
0000
0100
0000
,  // measure 20
0010
0000
0000
0000
0002
0000
0000
0100
0000
0000
0103
0000
0010
0000
1000
0000
,  // measure 21
0100
0000
0000
0000
1000
0000
0001
0000
0010
0000
0100
0000
0010
0000
0001
1000
,  // measure 22
0000
1000
0020
0000
0000
0000
0130
0001
0100
0000
0020
0000
0000
0000
0130
0010
,  // measure 23
0100
0010
1000
0001
1000
0000
0001
0000
0010
0000
0100
0000
1000
0000
0010
1000
,  // measure 24
0000
1000
0001
0000
0010
0000
0100
0000
1000
0000
0001
0000
0010
0000
0100
1000
,  // measure 25
0000
1000
0001
0000
1000
0000
0100
0000
0010
0000
0001
0000
1000
0000
0100
1000
,  // measure 26
0000
1000
0001
0000
0100
0000
0010
0000
0100
0010
0100
0010
0100
0000
0010
0100
,  // measure 27
0000
0000
0000
0010
0000
0000
0100
0000
0000
0000
0000
0000
0000
0000
0000
0000
0000
0000
0000
0000
0000
0000
0000
0000
0000
0000
0000
0000
0001
0000
0000
0000
1000
0000
0000
0000
0002
0000
0000
0000
0000
0000
0000
0000
0000
0000
0000
0000
,  // measure 28
2003
0000
0000
3200
0000
0000
0300
0010
0100
0020
0000
0000
,  // measure 29
0032
0000
1003
0010
0001
0010
0020
0000
,  // measure 30
0000
0000
0000
0030
0000
0000
0000
0010
1000
0200
0000
0000
,  // measure 31
0000
2300
3002
0103
,  // measure 32
0010
0000
0000
1000
0000
0000
1000
0001
0100
0001
0000
0000
,  // measure 33
0010
0100
1100
0011
,  // measure 34
0001
1000
0100
1000
0000
0000
0110
0000
0000
1001
0000
0000
,  // measure 35
0001
0000
0000
0000
1000
0000
0000
0000
0001
0000
0000
0000
1000
0000
0000
0000
0000
0000
0000
0000
0000
0000
0000
0000
0000
0000
0000
0010
0000
0000
0010
0000
0000
0000
0000
0000
0100
0000
0000
0000
0000
0000
0001
0000
0000
0000
0000
0000
,  // measure 36
1000
0000
0010
0000
0100
0000
0010
0100
0000
0100
0010
0000
1000
0000
0001
0000
,  // measure 37
0010
0000
0100
0000
1000
0000
0001
1000
0000
1000
0001
0000
1000
0000
0010
0000
,  // measure 38
0100
0000
0001
0000
0100
0000
0010
0100
0000
0100
0020
0000
0000
0000
0000
0000
,  // measure 39
0000
0000
0000
0000
0030
0000
0000
0000
0000
0000
0000
0000
0000
0000
0000
0001
,  // measure 40
1000
0000
1000
0001
0000
0010
0000
0100
0000
1000
0000
0001
0000
0001
1000
0001
,  // measure 41
1000
0000
0010
0100
0000
0001
0000
1000
0000
0010
0000
0200
0000
0000
0300
0001
,  // measure 42
0100
0000
0100
0010
0000
1000
0000
0100
0000
0001
0000
0010
0100
0000
0000
1000
,  // measure 43
0001
0000
0001
0100
0000
1000
0000
0010
0000
0001
0000
1000
0000
0001
1000
0001
,  // measure 44
1000
0000
0010
0000
0100
0001
0000
0101
0000
0101
0000
2020
0000
0000
3030
0000
,  // measure 45
1000
0000
0100
1000
0000
0001
0000
1000
0000
0010
0000
0100
0000
0001
0100
0010
,  // measure 46
1000
0000
0001
0010
0000
0200
0000
0300
1100
0000
0100
0010
0000
0100
0010
0000
,  // measure 47
0001
0000
0010
0001
0000
0010
0000
0110
0000
0220
0000
0330
1000
0000
0100
0000
,  // measure 48
1000
0010
0000
1000
0000
0010
0000
0100
0000
0110
0000
0202
0000
0000
0303
0001
,  // measure 49
1000
0000
1000
0001
0000
0100
0000
0110
0000
0110
0000
2002
0000
0000
0000
0000
,  // measure 50
0000
0000
0000
0000
0000
0000
3003
0000
1000
0000
0000
0100
0010
0000
0001
0000
,  // measure 51
1000
0100
0000
0000
0010
0000
0000
0000
0001
0000
0000
0010
0100
0000
1000
0000
,  // measure 52
0001
0010
0000
0000
0100
0000
0000
0000
1000
0000
0000
0010
0100
0000
0001
0000
,  // measure 53
1000
0010
0000
0000
0100
0000
0000
0000
0001
0000
0000
0100
0010
0000
1000
0000
,  // measure 54
0001
0100
0000
0010
0000
1000
0010
0000
1000
0000
0000
1000
0001
0000
0000
0000
,  // measure 55
0001
0000
0010
0001
0000
1000
0001
0000
0100
0001
0000
1000
0001
0000
0000
0000
,  // measure 56
1000
0000
0010
1000
0000
0001
1000
0000
0100
1000
0000
0001
1000
0000
0000
0000
,  // measure 57
0001
0000
0100
0001
0000
1000
0001
0000
0010
0001
0000
0100
0001
0000
0000
0000
,  // measure 58
1000
0000
0100
1000
0000
0001
1000
0000
0010
1000
0000
0001
1000
0000
0010
0000
,  // measure 59
0100
0000
0000
0010
0010
0000
0000
0000
1001
0000
0000
0001
0100
0000
0001
0000
,  // measure 60
0001
0010
0001
0000
1001
0000
0000
0000
0110
0000
0000
0010
1000
0000
0010
0000
,  // measure 61
0010
1000
0010
0000
1010
0000
0000
0000
1100
0000
0000
1000
0100
0000
1000
0000
,  // measure 62
1000
0100
1000
0000
1100
0000
0000
0000
0101
0000
0000
0001
0100
0000
0001
0000
,  // measure 63
0110
0000
0000
1001
0000
0000
0101
0000
1000
0100
0000
0010
0001
0000
1000
0001
,  // measure 64
0010
0100
0000
0010
0100
0000
1000
0001
0100
0010
0100
0000
0110
0000
0000
0000
,  // measure 65
0001
0100
0000
0001
0100
0000
0010
1000
0100
0010
0100
0000
0110
0000
0000
0000
,  // measure 66
0100
1000
0000
0100
1000
0000
0001
0010
0100
0010
0001
0000
0011
0000
0000
0000
,  // measure 67
1000
0010
0000
1000
0010
0000
0100
0001
0010
0000
0001
0100
0000
0100
0020
0000
,  // measure 68
0000
0000
1030
0000
1000
0010
1000
0010
,  // measure 69
0100
0000
0001
1000
0100
1000
0010
0000
0110
0000
0000
0101
0000
0000
1001
0000
,  // measure 70
0000
0000
1000
0000
0001
0000
0010
0100
0010
0000
0000
0011
0000
0000
0101
0000
,  // measure 71
0000
0100
0001
0000
1000
0000
0010
1000
0001
0000
0000
0110
0000
0000
2001
0000
,  // measure 72
0000
0000
0100
0000
3100
0000
0010
0000
0110
0000
0000
1001
0000
0000
0110
0000
,  // measure 73
0000
1000
0100
0000
0001
0010
0000
0001
1000
0000
0000
0010
0000
0000
0100
0000
,  // measure 74
0101
0000
0000
0000
1010
0000
0000
0000
0001
0000
0000
0010
0000
0000
0100
0000
,  // measure 75
1000
0000
0001
0000
1001
0000
0000
0000
1000
0100
1000
0000
0100
0010
0100
0000
,  // measure 76
0010
0000
0100
0010
0000
0001
2000
0000
0000
3001
0100
0010
0100
0000
0110
0000
,  // measure 77
0000
0010
1000
0010
0100
0010
0100
0010
1000
0000
0100
0000
0010
0001
1000
0000
,  // measure 78
0001
0000
0010
0100
0000
1000
0001
0000
0100
0000
0010
0000
1000
0001
0100
0000
,  // measure 79
0001
0000
1000
0010
0000
0100
0010
0000
1000
0000
0100
0000
0010
0001
1000
0000
,  // measure 80
0001
0000
0010
0100
0000
1000
0002
0000
0000
0000
0000
0000
0000
0000
0000
0000
,  // measure 81
0000
0000
0000
0003
0000
0000
0000
0000
,  // measure 82
0000
0000
0000
0000
0000
0000
0000
0000
0000
0000
0000
1000
0001
0000
0001
1000
,  // measure 83
0000
0001
0000
1000
0000
0001
0000
1001
0000
0000
1000
0001
1000
0000
1000
0001
,  // measure 84
0000
1000
0000
0001
0000
1000
0000
0001
0000
0100
0100
0000
0010
0000
1000
0010
,  // measure 85
0000
0100
0000
0010
0000
0001
0000
0020
0000
0000
0030
0100
1000
0000
0100
0010
,  // measure 86
0000
0100
0000
0101
0000
0110
0000
1001
0000
0000
1000
0001
0010
0100
0010
0001
,  // measure 87
0000
1000
0000
1010
0000
1001
0000
0202
0000
0000
0000
0000
0303
0000
0000
0000
,  // measure 88
0000
MMMM
MMMM
MMMM
,  // measure 89
MMMM
MMMM
MMMM
MMMM
,  // measure 90
MMMM
MMMM
MMMM
MMMM
,  // measure 91
MMMM
MMMM
MMMM
MMMM
,  // measure 92
0000
2002
0000
3003
0001
0010
1000
0100
,  // measure 93
0001
0000
0010
0001
0000
1000
0001
0000
1000
0000
0010
0000
0001
0000
0100
0000
,  // measure 94
1000
0000
0010
1000
0000
0001
1000
0000
0001
0000
0010
0000
1000
0000
0100
0000
,  // measure 95
0001
0000
0100
0001
0000
1000
0001
0000
0010
0100
0010
0100
1000
0100
1000
0100
,  // measure 96
2000
0000
3010
0002
0000
0103
2000
0000
0000
3001
1000
0100
0220
0000
0000
0000
,  // measure 97
0330
0000
0000
0000
;

//---------------dance-single - ----------------
#NOTEDATA:;
#CHARTNAME:;
#STEPSTYPE:dance-single;
#DESCRIPTION:;
#CHARTSTYLE:;
#DIFFICULTY:Medium;
#METER:9;
#RADARVALUES:0.363013,0.398361,0.138605,0.261810,0.174540,495.000000,468.000000,27.000000,51.000000,60.000000,0.000000,0.000000,0.000000,0.000000,0.363013,0.398361,0.138605,0.261810,0.174540,495.000000,468.000000,27.000000,51.000000,60.000000,0.000000,0.000000,0.000000,0.000000;
#CREDIT:;
#NOTES:
0000
0000
0000
0000
,
0000
0000
0000
0000
,
0000
0000
0000
0000
,
0000
0000
0000
0000
,
0000
0000
0000
0000
,
0000
0000
1000
0001
1000
0001
1000
0001
,
1000
0000
0001
0000
0000
0000
0000
0000
0000
0000
0000
0000
0001
0000
0000
0010
,
0000
0000
0100
0000
0000
0000
1000
0000
1100
0000
0000
0000
0001
0000
0000
0010
,
0000
0000
0100
0000
0000
0000
1000
0000
0001
0000
0100
0000
0010
0000
0000
0100
,
0000
0000
0001
0000
0000
0000
0100
0000
1010
0000
1000
0000
0010
0000
0000
0100
,
0000
0000
0001
0000
0000
0000
0001
0000
1000
0000
0000
0000
0001
0000
0000
0100
,
0000
0000
0001
0000
2000
0000
0000
0000
3010
0000
0000
0000
1000
0000
0000
0100
,
0000
1000
0002
0000
0013
0000
0001
0010
,
0100
0000
1000
0000
0001
0000
0000
1000
0000
0000
0002
0000
0000
0000
0000
0000
,
0003
0000
0000
0000
0010
0000
0000
0100
0000
0000
0220
0000
0000
0000
0330
0000
,
0000
0000
0000
0000
1000
0000
0000
0001
0000
0000
1000
0000
0000
0010
0000
0000
,
1010
0000
0000
0000
0100
0000
0000
0001
0000
0000
0011
0000
0000
0000
0001
0000
,
1000
0000
0001
0000
0100
0000
0000
0010
0000
0000
0100
0000
0000
0000
0001
0000
,
1001
0000
0000
0000
1000
0000
0000
0001
0000
0000
1000
0000
0000
0000
0001
0000
,
0100
0000
0010
0000
1000
0000
0000
1000
0000
0000
0100
0000
0010
0000
0000
0000
,
0011
0000
0000
0000
0001
0000
0000
0001
0000
0000
0100
0000
0010
0000
0000
0000
,
1010
0000
0000
0000
1000
0000
0100
0000
1000
0000
0100
0000
0010
0000
0000
0010
,
0000
0002
0000
0103
0001
0200
0000
0310
,
1000
0000
0000
0000
0001
0000
0010
0000
0100
0000
0010
0000
0001
0000
0000
0001
,
0000
0000
2000
0000
0000
0000
3100
0000
0010
0000
0100
0000
1000
0000
0000
1000
,
0000
0000
0002
0000
0000
0000
0103
0000
0010
0000
0100
0000
0001
0000
0000
0010
,
0000
0000
0200
0000
0000
0000
1300
0000
0100
0000
0010
0000
0001
0000
0000
1000
,
0000
2002
0000
3003
0000
0000
2000
0000
,
3200
0320
0030
0002
,
0203
0320
2030
3020
,
0000
0030
0000
0200
,
0000
0001
0301
1000
,
0010
0100
0001
0101
,
0001
0010
0100
1100
,
1000
0010
0100
0110
,
0001
0000
1000
0000
0000
0000
0100
0001
,
0100
0000
0001
0000
1000
0000
0000
1000
0000
0000
2000
0000
0000
0000
3001
0000
,
0010
0000
0100
0000
0010
0000
0000
0010
0000
0000
0020
0000
0000
0000
0031
0000
,
0100
0000
0010
0000
0100
0000
0000
0100
0000
0000
0200
0000
0000
0000
0000
0000
,
0000
0000
0000
0300
,
1000
0000
1000
0000
0001
0010
0100
1000
,
0001
0000
0001
0000
0001
1000
0010
0100
,
0010
0000
0100
0000
0001
1000
0100
0010
,
0001
0000
0001
0000
0010
0001
1000
0010
,
0100
0000
0001
0000
1000
0000
0000
0010
0000
0010
0000
0020
0000
0000
0030
0000
,
1000
0100
0010
0001
0010
0100
1000
0000
,
0001
0010
0100
1000
0100
0010
0001
0000
,
0010
0000
0010
0000
0100
0000
0000
0010
0000
0010
0000
0000
0100
0000
0100
0000
,
1000
0000
0001
0000
1000
0000
0000
0010
0000
0010
0000
0020
0000
0000
0030
0000
,
0100
0000
0001
0000
1000
0000
0000
0001
0000
0001
0000
2002
0000
0000
0000
0000
,
0000
0000
0000
3003
2000
0000
3100
0000
,
0100
0010
0001
0000
0002
0000
0103
0000
,
0100
0010
1000
0000
0002
0000
0013
0000
,
0010
0100
1000
0000
2000
0000
3010
0000
,
0010
0100
0001
0000
1000
0100
0010
0000
,
0001
0010
0001
1000
0001
0100
0001
0000
,
1000
0010
1000
0001
1000
0100
1000
0000
,
0001
0100
0001
1000
0001
0010
0001
0000
,
1000
0000
0100
0000
1000
0000
0001
0000
0010
0000
0000
0010
0000
0000
0010
0000
,
0100
0000
0110
0000
0100
1000
0010
0100
,
0001
0010
0100
0000
0100
0010
0001
0100
,
0010
1000
0100
0000
0010
0001
1000
0100
,
0010
0001
1000
0000
0010
1000
0001
0100
,
0010
0000
0000
0010
0000
0000
1000
0000
0001
0000
0000
0000
1000
0000
0000
0000
,
0010
0100
0001
1000
0001
0100
0010
0000
,
0100
0010
1000
0001
1000
0010
0100
0000
,
0001
1000
0100
0010
0100
1000
0001
0000
,
1000
0000
0001
0000
0100
0000
0010
0000
0100
0000
0000
0100
0000
0000
0200
0000
,
0000
0301
2000
3010
,
0100
0000
0001
0000
1000
0000
0010
0000
0100
0000
0000
0100
0000
0000
0001
0000
,
0000
0000
1000
0000
0001
0000
0000
0000
0011
0000
0000
0011
0000
0000
0011
0000
,
0000
0000
0001
0000
1000
0000
0000
0000
0001
0000
0000
0100
0000
0000
0020
0000
,
0000
0000
0100
0000
0130
0000
0000
0000
0110
0000
0000
1001
0000
0000
1001
0000
,
0000
0000
1000
0000
0001
0000
0000
0000
1000
0000
0000
0010
0000
0000
0100
0000
,
0001
0000
0000
0000
0101
0000
0000
0000
0001
0000
0000
0010
0000
0000
0100
0000
,
1000
0000
1100
0000
1000
0100
0010
0001
,
1000
0000
0000
0010
0000
0000
2000
0000
0000
0000
3001
0000
0100
0000
0110
0000
,
0000
0100
0010
0000
1000
0100
0010
0001
,
0010
0000
0000
0100
0000
0000
2000
0000
0000
0000
3001
0000
1000
0000
0100
0000
,
0010
0000
0000
0001
0000
0000
2000
0000
0000
0000
3010
0000
0100
0000
0001
0000
,
0010
0000
0000
0100
0000
0000
2000
0000
0000
0000
0000
0000
0000
0000
0000
0000
,
0000
0000
0000
3000
0000
0000
0000
0000
,
0000
0000
0000
0000
0000
0000
1000
1000
,
0001
0000
0001
1000
0000
0001
0000
2000
0000
0000
3000
0000
0001
0000
0001
0000
,
1000
0000
1000
0001
0000
1000
0000
0002
0000
0000
0003
0000
1000
0000
0100
0000
,
0010
0000
0001
1000
0000
0100
0000
0020
0000
0000
0030
0000
0001
0000
0100
0000
,
0010
0000
1000
0001
0000
0100
0000
0020
0000
0000
0030
0000
1000
0000
0001
1000
,
0000
0001
0000
0010
0000
0100
0000
2200
0000
0000
0000
0000
3300
0000
0000
0000
,
0000
MMMM
MMMM
MMMM
,
MMMM
MMMM
MMMM
MMMM
,
MMMM
MMMM
MMMM
MMMM
,
MMMM
MMMM
MMMM
MMMM
,
0000
0000
0000
0000
0001
0010
0100
1000
,
0001
0000
0000
0001
0000
0000
2000
0000
0000
0000
3010
0000
0100
0000
0001
0000
,
1000
0000
0000
1000
0000
0000
0002
0000
0000
0000
0013
0000
0100
0000
1000
0000
,
0001
0000
0000
0001
0000
0000
0100
0000
0010
0000
1000
0000
0001
0000
0100
0000
,
0010
0000
0000
0110
0000
0000
2002
0000
0000
0000
3003
0000
0220
0000
0000
0000
,
0330
0000
0000
0000
;

//---------------dance-single - ----------------
#NOTEDATA:;
#CHARTNAME:;
#STEPSTYPE:dance-single;
#DESCRIPTION:;
#CHARTSTYLE:;
#DIFFICULTY:Easy;
#METER:6;
#RADARVALUES:0.209741,0.273168,0.087270,0.107804,0.007700,286.000000,269.000000,17.000000,21.000000,60.000000,0.000000,0.000000,0.000000,0.000000,0.209741,0.273168,0.087270,0.107804,0.007700,286.000000,269.000000,17.000000,21.000000,60.000000,0.000000,0.000000,0.000000,0.000000;
#CREDIT:;
#NOTES:
0000
0000
0000
0000
,
0000
0000
0000
0000
,
0000
0000
0000
0000
,
0000
0000
0000
0000
,
0000
0000
0000
0000
,
0000
1000
1000
1000
,
1000
0000
0000
0001
,
0000
0010
0000
0000
0010
0000
0100
0000
,
0000
0100
0000
0000
0000
0000
0010
0000
,
0000
1000
0000
0000
1000
0000
0100
0000
,
0000
0100
0000
0000
0000
0000
1000
0000
,
0100
1000
0000
1000
,
0001
0010
0000
0001
,
1000
0000
1000
0000
0000
2002
0000
0000
,
0000
3003
0000
0000
,
0000
1000
0010
1000
,
1000
0001
0100
0001
,
0000
0010
0001
0010
,
0010
0100
1000
0100
,
0000
1000
1000
1001
,
0000
0001
0001
1001
,
0000
1000
0100
0010
,
0001
0000
1000
0000
0000
1000
0000
0000
,
0000
0001
0010
0100
,
1000
0001
0010
0100
,
1000
0001
0010
0001
,
1000
0002
0000
0000
,
0000
0003
0000
1000
,
1000
1000
0000
0010
,
0010
0010
0000
0100
,
0000
0000
0000
0001
,
0000
1000
0000
1000
,
0100
1000
0100
0100
,
0010
0100
0010
0010
,
0001
0010
0001
0001
,
1000
0001
0000
1000
,
0010
0100
0000
0001
,
0010
0100
0000
0100
,
1000
0000
0001
0000
0000
0020
0000
0000
,
0000
0000
0000
0030
,
1000
1000
0110
0000
,
0001
0001
1000
1001
,
1000
0100
0001
0000
,
0001
0010
1000
0000
,
1000
0100
0020
0030
,
0001
0100
0010
0100
,
0001
0010
0100
1000
,
0010
0010
1000
1000
,
0001
0001
0100
0100
,
0110
0000
0000
0000
0110
0000
0000
0000
1000
0000
0000
0002
0000
0000
0000
0000
,
0000
0000
0000
0003
1000
0000
1000
0000
,
1000
0000
0100
0100
,
0100
0000
0010
0010
,
0010
0000
0001
0001
,
0001
0000
1001
0000
,
0001
0001
0001
0001
,
0010
0010
0010
0010
,
0100
0100
0100
0100
,
1000
1000
1000
1000
,
1001
0000
1000
0100
,
0001
0100
1000
0100
,
0001
0100
1000
0010
,
0001
0010
1000
0010
,
0001
0010
0110
0000
,
0002
0103
0002
0103
,
0020
0130
0020
0130
,
2000
3100
2000
3100
,
0200
0000
1300
0000
0100
0000
0000
2002
,
0000
0000
3003
0000
,
0000
0000
0000
0000
1000
0000
0000
0100
,
0000
0000
1000
0000
0001
0000
0000
0010
,
0000
0000
0001
0000
0100
0000
0000
0010
,
0000
0000
0100
0000
0001
0000
0000
1000
,
0000
1001
1000
0100
,
0010
0001
0001
0100
,
0010
1000
0001
1000
,
0110
0000
0000
2002
0000
0000
0000
3003
,
0000
0000
1000
0001
,
1000
0001
1000
0010
,
1000
0100
1000
0010
,
0100
0000
0000
2002
0000
0000
0000
0000
,
0000
0000
0000
3003
0000
0000
0000
0000
,
0000
0000
0000
1000
,
1000
0000
0001
0100
0001
0000
1000
0000
,
1000
0001
0001
1000
,
1000
0010
0100
0001
,
0001
0010
0100
1000
,
0001
0000
0000
1000
0000
0000
0000
1001
0000
0000
0000
0000
0000
0000
0000
0000
,
0000
MMMM
MMMM
MMMM
,
MMMM
MMMM
MMMM
MMMM
,
MMMM
MMMM
MMMM
MMMM
,
MMMM
MMMM
MMMM
MMMM
,
0000
0000
0001
0010
,
0100
1000
1000
0010
,
0100
0001
0001
0010
,
0100
1000
0010
0010
,
0010
0000
0000
0220
0000
0000
0330
0000
;

//---------------dance-single - ----------------
#NOTEDATA:;
#CHARTNAME:;
#STEPSTYPE:dance-single;
#DESCRIPTION:;
#CHARTSTYLE:;
#DIFFICULTY:Beginner;
#METER:2;
#RADARVALUES:0.100470,0.173834,0.035935,0.087270,0.000000,137.000000,130.000000,7.000000,17.000000,60.000000,0.000000,0.000000,0.000000,0.000000,0.100470,0.173834,0.035935,0.087270,0.000000,137.000000,130.000000,7.000000,17.000000,60.000000,0.000000,0.000000,0.000000,0.000000;
#CREDIT:;
#NOTES:
0000
0000
0000
0000
,
0000
0000
0000
0000
,
0000
0000
0000
0000
,
0000
0000
0000
0000
,
0000
0000
0000
0000
,
0000
2000
0000
0000
,
3000
0000
0000
0001
,
0000
0000
0000
0001
,
0000
0000
0000
1000
,
0000
0000
0000
1000
,
0000
0000
0000
0010
,
0000
0010
0000
0100
,
0000
0100
0000
0001
,
0000
0002
0000
0003
,
0000
0000
0000
0000
,
0000
1000
0000
0000
,
0000
1000
0000
0000
,
0000
0001
0000
0000
,
0000
0001
0000
0000
,
0000
0010
0000
0010
,
0000
0100
0000
0100
,
0000
1000
0000
0000
,
0000
1001
0000
0000
,
0000
0001
0000
1000
,
0000
0001
0000
1000
,
0000
0001
0000
1000
,
0000
0002
0000
0000
,
0000
0003
0000
0000
,
0000
0000
0000
0000
,
0000
0000
0000
0000
,
0000
0000
0000
0000
,
0000
0000
0000
1000
,
0000
0000
0000
0010
,
0000
0000
0000
0100
,
0000
0000
0000
0001
,
0000
0000
0000
1000
,
0000
0100
0000
1000
,
0000
0100
0000
0010
,
0000
0001
0000
2000
,
0000
3000
0000
0000
,
2000
0000
3000
0000
,
0002
0000
0003
0000
,
1000
0000
1000
0000
,
0001
0000
0001
0000
,
0010
0000
0010
0000
,
0001
0000
1000
0000
,
0001
0000
0010
0000
,
0100
0000
0100
0000
,
1000
0000
1000
0000
,
0010
0000
0020
0000
,
0030
0000
1000
0000
,
0000
0000
1000
0000
,
0000
0000
0001
0000
,
0000
0000
0001
0000
,
0000
0000
1001
0000
,
0001
0000
0010
0000
,
0100
0000
1000
0000
,
1000
0000
0100
0000
,
0010
0000
0001
0000
,
1001
0000
2000
0000
,
3000
0000
0002
0000
,
0003
0000
2000
0000
,
3000
0000
0002
0000
,
0003
0000
1000
0000
,
0010
0000
0010
0000
,
0010
0000
0010
0000
,
0100
0000
0100
0000
,
0100
0000
0100
0000
,
2002
0000
3003
0000
,
0000
0000
1000
0000
,
0010
0000
0001
0000
,
0010
0000
1000
0000
,
0010
0000
0001
0000
,
0010
0000
2000
0000
,
3000
0000
0002
0000
,
0003
0000
1000
0000
,
0001
0000
1001
0000
,
0000
0000
0010
0000
,
0010
0000
0100
0000
,
0100
0000
0001
0000
,
1000
0000
2002
0000
,
3003
0000
0000
0000
,
0000
0000
0000
1000
,
1000
1000
0000
0001
,
0001
0001
0000
1000
,
0000
0010
0000
0100
,
0000
0001
0000
0010
,
0000
0100
0000
0000
,
0000
MMMM
MMMM
MMMM
,
MMMM
MMMM
MMMM
MMMM
,
MMMM
MMMM
MMMM
MMMM
,
MMMM
MMMM
MMMM
MMMM
,
0000
0000
0001
0001
,
0001
0000
0010
0010
,
0010
0000
0100
0100
,
0100
0000
1000
0000
,
1000
0000
0001
1001
;
