#VERSION:0.83;
#TITLE:Gilgamesh;
#SUBTITLE:;
#ARTIST:Pascu y Rodri;
#TITLETRANSLIT:;
#SUBTITLETRANSLIT:;
#ARTISTTRANSLIT:;
#GENRE:;
#ORIGIN:;
#CREDIT:;
#BANNER:Gilgamesh-bn.jpg;
#BACKGROUND:Gilgamesh-bg.jpg;
#PREVIEWVID:;
#JACKET:Gilgamesh-jacket.jpg;
#CDIMAGE:;
#DISCIMAGE:;
#LYRICSPATH:;
#CDTITLE:cdtitle_ukiarrow.png;
#MUSIC:Gilgamesh.mp3;
#OFFSET:0.120000;
#SAMPLESTART:99.348053;
#SAMPLELENGTH:12.000000;
#SELECTABLE:YES;
#BPMS:0.000=126.000;
#STOPS:;
#DELAYS:;
#WARPS:;
#TIMESIGNATURES:0.000=4=4;
#TICKCOUNTS:0.000=4;
#COMBOS:0.000=1;
#SPEEDS:0.000=1.000=0.000=0;
#SCROLLS:0.000=1.000;
#FAKES:;
#LABELS:0.000=Song Start;
#BGCHANGES:0.250=Gilgamesh.mp4=1.000=0=0=1=====,
99999=-nosongbg-=1.000=0=0=0 // don't automatically add -songbackground-
;
#KEYSOUNDS:;
#ATTACKS:
;

//---------------dance-single - ----------------
#NOTEDATA:;
#CHARTNAME:;
#STEPSTYPE:dance-single;
#DESCRIPTION:;
#CHARTSTYLE:;
#DIFFICULTY:Hard;
#METER:11;
#RADARVALUES:0.467322,0.450792,0.303262,0.507094,0.131745,658.000000,597.000000,61.000000,102.000000,0.000000,0.000000,0.000000,0.000000,0.000000,0.467322,0.450792,0.303262,0.507094,0.131745,658.000000,597.000000,61.000000,102.000000,0.000000,0.000000,0.000000,0.000000,0.000000;
#CREDIT:;
#OFFSET:0.120000;
#BPMS:0.000000=125.999992
;
#STOPS:111.000000=0.238098
,111.500000=0.238094
,142.000000=0.238091
,142.500000=0.238091
,237.000000=0.238091
,237.500000=0.238091
,268.000000=0.238098
,268.500000=0.238098
,347.000000=0.238098
,347.500000=0.238098
,378.000000=0.238098
,378.500000=0.238098
;
#DELAYS:;
#WARPS:;
#TIMESIGNATURES:0.000000=4=4
;
#TICKCOUNTS:0.000000=4
;
#COMBOS:0.000000=1
;
#SPEEDS:0.000000=1.000000=0.000000=0
;
#SCROLLS:0.000000=1.000000
,29.000000=1.500000
,33.000000=1.000000
,45.000000=1.500000
,49.000000=1.000000
,61.000000=1.500000
,65.000000=1.000000
,111.000000=2.000000
,112.000000=1.000000
,142.000000=2.000000
,143.000000=1.000000
,155.000000=1.500000
,159.000000=1.000000
,171.000000=1.500000
,175.000000=1.000000
,237.000000=2.000000
,238.000000=1.000000
,268.000000=2.000000
,269.000000=1.500000
,285.000000=1.000000
,297.000000=1.500000
,301.000000=1.000000
,347.000000=2.000000
,348.000000=1.000000
,378.000000=2.000000
,379.000000=1.000000
;
#FAKES:;
#LABELS:0.000000=Song Start
;
#NOTES:
// measure 0
0000
0000
0000
0000
,  // measure 1
0000
0000
0000
0000
,  // measure 2
0000
0000
0000
0000
,  // measure 3
0000
0000
0000
0000
,  // measure 4
0000
0000
0000
1000
0100
0100
1000
0001
,  // measure 5
0010
0010
0000
0001
0100
0002
0000
0000
,  // measure 6
2003
0000
3000
0001
0010
0001
1000
0100
,  // measure 7
0100
1000
2100
0000
3010
0000
2100
0000
,  // measure 8
3002
0000
0003
1000
0100
0100
1000
0001
,  // measure 9
0010
0010
0000
0001
0100
0002
0000
0000
,  // measure 10
2003
0000
3000
0001
0010
0001
1000
0100
,  // measure 11
0100
1000
2010
0000
3100
0000
2010
0000
,  // measure 12
3001
0000
0000
0000
0002
0000
0000
0000
0023
0000
0000
0230
0000
0000
0300
0000
,  // measure 13
1000
0000
0100
0000
0010
0000
0001
0000
0010
0100
0000
2000
0000
0000
3000
0000
,  // measure 14
0001
0000
0100
0000
0010
0000
1000
0000
0010
0000
0100
0002
0000
0000
1003
0000
,  // measure 15
0001
0100
0102
0000
0013
0000
0102
0000
,  // measure 16
1003
0000
0000
0000
0002
0000
0000
0000
0023
0000
0000
0230
0000
0000
0300
0000
,  // measure 17
1000
0000
0100
0000
1000
0000
0001
0000
0010
0100
0000
2000
0000
0000
3000
0000
,  // measure 18
0001
0000
0001
0000
1000
0000
0000
0100
0000
0000
0010
0000
0001
0000
0000
0100
,  // measure 19
0000
0010
1000
1000
0001
0000
1000
1000
,  // measure 20
0001
0000
2100
0000
3010
2000
0000
3001
,  // measure 21
0010
0000
0100
0000
1000
0000
0100
0000
0010
0000
0001
1000
0000
0000
0001
0000
,  // measure 22
0001
0000
0102
0000
0013
0002
0000
1003
,  // measure 23
0100
0000
0010
0000
0001
0000
0010
0000
0100
1000
0000
0001
0000
0000
1000
0000
,  // measure 24
1000
0000
2100
0000
3010
2000
0000
3001
,  // measure 25
0100
0010
0000
1000
0100
0010
0001
1000
,  // measure 26
1000
0001
0201
0000
0010
0000
1000
0000
,  // measure 27
0310
0000
0100
0000
0001
0000
0001
0000
1000
0001
0000
0000
0110
0000
1001
0000
,  // measure 28
0102
0000
0013
0002
0000
1003
0010
0100
,  // measure 29
0001
0000
0100
0000
0010
1000
0000
0100
0000
0000
0010
0000
0010
0000
0000
0000
,  // measure 30
0012
0000
0103
0002
0000
1003
0010
0100
,  // measure 31
0001
0000
0100
0000
0010
0000
1000
0001
0000
0000
1000
0000
1000
0000
0000
0000
,  // measure 32
2010
0000
3100
2000
0000
3001
0010
0100
,  // measure 33
0000
1000
0010
0100
0001
0010
0010
0100
,  // measure 34
0210
0000
0001
0000
0010
0000
1300
0100
,  // measure 35
0010
0000
0010
0000
0100
0010
0000
0000
0110
0000
1001
0000
1000
0000
0100
0000
,  // measure 36
0100
1000
0001
0010
0010
0001
0000
0100
,  // measure 37
0001
0020
0000
0000
0200
0000
0330
1000
,  // measure 38
0100
1000
0001
0010
0010
0001
0102
0000
,  // measure 39
0013
0000
0102
1000
2003
0000
3000
1000
,  // measure 40
0100
0100
1000
0001
0010
0010
0000
0001
,  // measure 41
0100
0002
0000
0000
0103
0100
0000
0001
,  // measure 42
0010
0001
1000
0100
0100
1000
2100
0000
,  // measure 43
3010
2010
3001
0002
,  // measure 44
0023
0000
0000
0230
0000
0000
0300
0000
1000
0000
0001
0000
0100
0000
0001
0000
,  // measure 45
1000
0000
0100
0020
0000
0000
0030
0000
0001
0000
0001
0000
1000
0000
0100
0000
,  // measure 46
0010
0000
0001
1000
0000
0000
0001
0000
0010
0000
0100
0000
1100
0000
0000
0000
,  // measure 47
1010
0101
0011
0002
,  // measure 48
0023
0000
0000
0230
0000
0000
0300
0000
1000
0000
0001
0000
0010
0000
0001
0000
,  // measure 49
1000
0000
0010
0200
0000
0000
0300
0000
0001
0000
0100
0000
0010
0000
0000
1000
,  // measure 50
0000
0000
0100
0000
0010
0000
0000
0001
0000
0000
0100
0000
0010
0000
0100
0000
,  // measure 51
0100
0000
0100
0010
0010
0000
2010
0000
,  // measure 52
3100
0020
0000
0031
0010
0100
1000
0100
,  // measure 53
0010
0001
0000
1000
0000
0000
0001
0000
0001
0000
0000
0000
0012
0000
0000
0000
,  // measure 54
0103
0020
0000
1030
0100
0010
0001
0010
,  // measure 55
0100
0000
1000
0001
0000
0000
1000
0000
1000
0000
0000
0000
2100
0000
0000
0000
,  // measure 56
3010
0200
0000
0301
0100
0010
0000
1000
,  // measure 57
0010
0100
0001
1000
1000
0100
0201
0000
,  // measure 58
1000
0000
0001
0000
1300
0010
0100
0100
,  // measure 59
0010
0100
0000
0000
0110
0000
1001
0000
0102
0000
0000
0000
0013
0000
0200
0000
,  // measure 60
0000
0000
1300
0000
0100
0000
0010
0000
0001
0000
0010
0000
0100
1000
0000
0001
,  // measure 61
0000
0100
0100
0000
2010
0000
3100
0020
,  // measure 62
0000
0000
0031
0000
0010
0000
0100
0000
1000
0000
0100
0000
0010
0001
0000
0100
,  // measure 63
0000
0010
0010
0000
0102
0000
0013
0200
,  // measure 64
0000
1300
0010
0100
0000
0001
0100
0010
,  // measure 65
1000
0001
0001
0010
1020
0000
0001
0000
,  // measure 66
1000
0000
0000
0000
0031
0000
1000
0000
0010
0000
0010
0000
0100
0010
0000
0000
,  // measure 67
0110
1001
1000
0100
0010
0000
0001
0010
,  // measure 68
0100
0000
0100
1000
0000
0000
0200
0000
0000
0000
0310
0000
0200
0000
0000
0000
,  // measure 69
2300
0000
3001
1000
1000
0001
0100
0010
,  // measure 70
0100
0000
0100
0001
0000
0000
0101
0000
0000
0000
2010
0000
0000
0000
0000
0000
,  // measure 71
3001
0000
0000
0000
0002
0000
0000
0000
0023
0000
0000
0230
0000
0000
0300
0000
,  // measure 72
1000
0000
0100
0000
0010
0000
0001
0000
0100
0000
0010
2000
0000
0000
3000
0000
,  // measure 73
0001
0000
0010
0000
0100
0000
1000
0000
0100
0000
0010
0001
0000
0000
1000
0000
,  // measure 74
0010
0100
0101
0000
0011
0000
1100
0000
,  // measure 75
1010
0000
0000
0000
0002
0000
0000
0000
0023
0000
0000
0230
0000
0000
0300
0000
,  // measure 76
1000
0000
0010
0000
0100
0000
0001
0000
0100
0010
0000
2000
0000
0000
3000
0000
,  // measure 77
0001
0000
0010
0000
0100
0000
0000
1000
0000
0000
0010
0000
0100
0000
0000
0001
,  // measure 78
0000
0010
0200
1000
1300
0000
0020
0001
,  // measure 79
0031
0000
1020
0000
0130
0002
0000
0013
,  // measure 80
0100
0000
1000
0000
0100
0000
0010
0000
0001
0000
1000
0010
0000
0000
0100
0000
,  // measure 81
0100
0000
0201
0000
0310
2000
0000
3001
,  // measure 82
0010
0000
0100
0000
1000
0000
0010
0000
0100
0000
0001
1000
0000
0000
0010
0000
,  // measure 83
0010
0000
0201
0000
0310
2000
0000
3001
,  // measure 84
0010
0010
0000
0100
0010
0010
0001
0010
,  // measure 85
0010
0100
1200
0000
0001
0000
1000
0000
,  // measure 86
0301
0000
0100
0000
0010
0000
0010
0000
0100
0010
0000
0000
0110
0000
1001
0000
,  // measure 87
0201
0000
0310
2000
0000
3100
0010
0001
,  // measure 88
0010
0000
0100
0000
1000
0001
0000
0100
0000
0000
0010
0000
0010
0000
0000
0000
,  // measure 89
1020
0000
0130
0002
0000
1003
0100
0010
,  // measure 90
0001
0000
0100
0000
0010
0000
1000
0001
0000
0000
0100
0000
0100
0000
0000
0000
,  // measure 91
1020
0000
0130
0002
0000
1003
1000
0100
,  // measure 92
0000
0010
0100
1000
0100
0010
0010
0001
,  // measure 93
0021
0000
1000
0000
0001
0000
1030
0010
,  // measure 94
0100
0000
0100
0000
0010
0100
0000
0000
0110
0000
1001
0000
1020
0000
0000
0000
,  // measure 95
0130
0002
0000
0013
0100
1000
0100
0010
,  // measure 96
0001
1000
0000
0020
0000
0000
0100
0000
0130
0000
0000
0000
0201
0000
0000
0000
,  // measure 97
0310
2000
0000
3001
0010
0100
1000
0010
,  // measure 98
0100
0000
0001
2000
0000
0000
0010
0000
3010
0000
0000
0000
0201
0000
0000
0000
,  // measure 99
0310
2000
0000
3001
0010
0100
0000
0100
,  // measure 100
0010
0001
0010
0110
0220
0000
0330
0000
;

//---------------dance-single - ----------------
#NOTEDATA:;
#CHARTNAME:;
#STEPSTYPE:dance-single;
#DESCRIPTION:;
#CHARTSTYLE:;
#DIFFICULTY:Medium;
#METER:7;
#RADARVALUES:0.346586,0.357576,0.218747,0.372864,0.017400,488.000000,444.000000,44.000000,75.000000,0.000000,0.000000,0.000000,0.000000,0.000000,0.346586,0.357576,0.218747,0.372864,0.017400,488.000000,444.000000,44.000000,75.000000,0.000000,0.000000,0.000000,0.000000,0.000000;
#CREDIT:;
#NOTES:
0000
0000
0000
0000
,
0000
0000
0000
0000
,
0000
0000
0000
0000
,
0000
0000
0000
0000
,
0000
1000
0100
0010
,
0001
0000
0010
0000
0001
0002
0000
0000
,
2003
3001
0010
0100
,
1000
1100
1001
1100
,
1010
1000
0100
0010
,
0001
0000
1000
0000
0001
0002
0000
0000
,
2003
3010
0100
0001
,
1000
1010
1100
1001
,
1001
0000
0000
0000
0001
0000
0000
0000
0010
0000
0000
0100
0000
0000
0000
0000
,
1000
0000
0100
0010
0001
0000
1000
0000
,
0001
0100
0010
0000
1000
0000
0010
0000
,
0100
0101
1001
0101
,
0011
0000
0000
0000
0010
0000
0000
0000
0100
0000
0000
1000
0000
0000
0000
0000
,
0001
0000
0010
0000
0100
1000
0001
0000
,
1000
0200
0310
0002
,
1003
0000
0001
0001
1000
0000
0001
0001
,
1000
0000
2000
0000
3100
0020
0000
0030
,
0001
0000
0010
0000
0100
0000
1000
0001
,
0001
0000
0002
0000
0103
0020
0000
0000
,
1030
0000
0100
0000
0010
0000
0001
1000
,
1000
0000
0200
0000
0310
0002
0000
1003
,
0000
0100
0000
0010
0000
0001
0000
1000
,
1000
0201
0001
0010
,
0310
0000
0100
0001
0001
0000
0110
0000
,
1001
0000
0200
0000
0310
2000
0000
0000
,
3001
0000
0010
0000
0100
0000
1000
0010
,
0010
0000
2000
0000
3010
0200
0000
0000
,
0310
0000
0100
0000
0001
0000
1000
0001
,
0001
0000
2000
0000
3100
0020
0000
0031
,
0000
0100
0000
0010
0000
1000
0000
0100
,
0100
0210
0010
1000
,
1300
0000
0100
0100
0010
0000
0110
0000
,
1001
0001
0010
0100
,
1000
0000
1000
0000
0001
0002
0000
0000
,
2003
3001
0100
0010
,
1000
0000
1010
0000
1001
0000
0001
0001
,
0001
1000
0100
0010
,
0001
0000
1000
0000
0001
0002
0000
0000
,
2003
3010
1000
0001
,
0100
0101
1001
1010
,
1001
0000
0000
0000
0001
0000
0000
0000
0010
0000
0000
0100
0000
0000
0000
0000
,
1000
0000
0010
0100
0010
0000
1000
0000
,
0001
0010
0100
0000
0010
0000
0001
0000
,
0100
0101
1001
1010
,
1001
0000
0000
0000
1000
0000
0000
0000
0010
0000
0000
0100
0000
0000
0000
0000
,
0001
0000
0010
0000
0100
1000
0001
0000
,
1000
0020
0130
0002
,
1003
0000
0010
0010
0100
0000
0010
0010
,
0100
0000
0020
0000
1030
0002
0000
0000
,
0013
0000
0001
0000
0100
0000
0010
1000
,
1000
0000
0002
0000
0103
0020
0000
0000
,
1030
0000
0100
0000
0010
0000
0001
1000
,
1000
0000
0002
0000
1003
0020
0000
0130
,
0000
0001
0000
1000
0000
0010
0000
0100
,
0100
0201
0001
0010
,
0310
0000
0100
0001
0100
0000
0110
0000
,
1001
0000
0002
0000
0013
0200
0000
0000
,
1300
0000
0001
0000
0010
0000
0100
1000
,
1000
0000
0002
0000
0103
0020
0000
0000
,
1030
0000
0001
0000
0100
0000
0010
1000
,
1000
0000
0020
0000
0130
0002
0000
1003
,
0000
0001
0000
1000
0000
0100
0000
0010
,
0010
0021
0001
0100
,
0130
0000
1000
0001
1000
0000
0110
0000
,
1001
0000
1000
1000
1000
0000
0001
0010
,
0200
0000
0310
0002
0000
1003
0200
0000
,
2300
0000
3001
0100
0100
0000
0010
0000
,
0100
0000
0000
0001
0000
0000
2000
0000
0000
0000
3002
0000
0000
0000
0000
0000
,
1003
0000
0000
0000
0002
0000
0000
0000
0023
0000
0000
0230
0000
0000
0300
0000
,
1000
0100
0010
0001
,
0010
0100
0010
0000
0100
0000
1000
0000
,
0010
0101
0110
1010
,
0110
0000
0000
0000
0002
0000
0000
0000
0023
0000
0000
0230
0000
0000
0300
0000
,
0010
0100
1000
0001
,
0010
0100
0010
0000
0001
0000
1000
0000
,
0100
0000
0020
0001
0031
0000
2000
0100
,
3100
0000
2000
0000
3010
0200
0000
0000
,
0301
0000
0010
0000
0100
0000
1000
0100
,
0100
0000
2000
0000
3010
0200
0000
0000
,
0301
0000
1000
0000
0100
0000
0010
0001
,
0001
0000
2000
0000
3001
0020
0000
0130
,
0000
1000
0000
0001
0000
0010
0000
0100
,
0100
1200
1000
0010
,
0310
0000
0100
1000
0100
0000
0110
0000
,
1001
0000
0002
0000
0103
0020
0000
0000
,
1030
0000
0001
0000
0010
0000
0100
1000
,
1000
0000
2000
0000
3100
0020
0000
0031
,
1000
0000
0010
0000
0100
0000
0001
0100
,
0100
0000
0002
0000
0013
0200
0000
1300
,
0000
0100
0000
0010
0000
0001
0000
0010
,
0010
0021
0001
0100
,
0130
0000
0010
0001
1000
0000
0110
0000
,
1001
0000
2000
0000
3001
0200
0000
0310
,
0100
0000
0001
0000
0010
0000
0100
1000
,
1000
0000
0002
0000
1003
0020
0000
0130
,
0001
0000
0010
0000
0100
0000
1000
0010
,
0010
0000
2000
0000
3001
0200
0000
0301
,
0000
0010
0000
0100
1000
0100
0000
0010
,
0001
0010
0200
0000
0000
0000
0300
0000
;

//---------------dance-single - ----------------
#NOTEDATA:;
#CHARTNAME:;
#STEPSTYPE:dance-single;
#DESCRIPTION:;
#CHARTSTYLE:;
#DIFFICULTY:Easy;
#METER:3;
#RADARVALUES:0.244314,0.306494,0.328120,0.238633,0.000000,344.000000,278.000000,66.000000,48.000000,0.000000,0.000000,0.000000,0.000000,0.000000,0.244314,0.306494,0.328120,0.238633,0.000000,344.000000,278.000000,66.000000,48.000000,0.000000,0.000000,0.000000,0.000000,0.000000;
#CREDIT:;
#NOTES:
0000
0000
0000
0000
,
0000
0000
0000
0000
,
0000
0000
0000
0000
,
0000
0000
0000
0000
,
0000
0000
1000
1000
,
1000
0000
0010
0020
,
0030
0000
0001
0001
,
0001
0200
0300
0020
,
0030
0000
1000
1000
,
1000
0000
0010
0020
,
0030
0000
0001
0001
,
0001
2000
3000
0002
,
0003
0110
0220
0330
,
0000
1000
0100
0100
,
0000
0010
0001
0001
,
0000
0200
0300
0020
,
0030
0110
0220
0330
,
0000
0001
0001
0001
,
0000
0200
0300
0020
,
0030
2000
0000
0000
,
3000
0110
0110
0000
,
1000
0001
0001
1000
,
0000
0110
0110
0000
,
1000
0001
0001
1000
,
0000
0110
0110
0000
,
0010
0010
0100
0100
,
0010
0200
0000
0000
,
0300
0001
1000
0001
,
1001
0110
0110
0000
,
0010
0100
0100
0010
,
0000
0110
0110
0000
,
0001
1000
1000
0001
,
0000
0110
0110
0000
,
0100
0010
0010
0100
,
0010
0200
0000
0000
,
0300
0100
0100
0110
,
0110
0001
0001
0001
,
0000
0010
0020
0030
,
0100
0000
1000
1000
,
1000
0002
0003
2000
,
3000
0010
0010
0010
,
0000
0100
0200
0300
,
0001
0000
0001
0001
,
0001
2000
3000
0002
,
0003
0110
0220
0330
,
0010
0100
0100
0010
,
0000
1000
1000
0001
,
0001
2000
3000
0002
,
0003
0110
0220
0330
,
0100
0010
0010
0100
,
0000
0002
0003
2000
,
3000
0020
0000
0000
,
0030
0110
0110
0000
,
1000
0001
0001
2000
,
3000
0110
0110
0000
,
0010
0100
0100
0020
,
0030
0110
0110
0000
,
1000
0001
1000
0001
,
0001
2000
0000
0000
,
3000
0001
0001
1000
,
1001
0110
0110
0000
,
0010
0010
1000
1000
,
0000
0110
0110
0000
,
0100
0100
0001
0001
,
0000
0110
0110
0000
,
0010
0010
0100
0100
,
0010
0200
0000
0000
,
0300
0001
1000
1001
,
1001
2000
3000
0001
,
0100
0001
0000
1000
,
1000
1001
1001
0001
,
0000
1000
0000
0002
,
0003
0110
0220
0330
,
1000
0010
0010
0010
,
0000
0100
0100
0001
,
0000
2000
3000
0002
,
0003
0110
0220
0330
,
0010
0100
0100
0100
,
0000
0001
0001
1000
,
1000
0002
0000
0000
,
0003
0110
0110
0000
,
0001
0001
0010
0010
,
0000
0110
0110
0000
,
0100
0100
1000
1000
,
0000
0110
0110
0000
,
0100
0100
0010
0100
,
0010
0200
0000
0000
,
0300
1000
1000
0110
,
1001
0110
0110
0000
,
0010
0100
0100
0010
,
0000
0110
0110
0000
,
1000
0001
0001
1000
,
0000
0110
0110
0000
,
1000
0001
0001
1000
,
0001
2000
0000
0000
,
3000
0010
0010
0110
,
1001
0110
0110
0000
,
0100
0100
0001
1000
,
0000
0110
0110
0000
,
0010
0010
1000
0001
,
0000
0110
0110
0000
,
1000
1000
0001
0001
,
0100
0020
0000
0030
;

//---------------dance-single - ----------------
#NOTEDATA:;
#CHARTNAME:;
#STEPSTYPE:dance-single;
#DESCRIPTION:;
#CHARTSTYLE:;
#DIFFICULTY:Beginner;
#METER:2;
#RADARVALUES:0.144174,0.178788,0.029829,0.159088,0.000000,203.000000,197.000000,6.000000,32.000000,0.000000,0.000000,0.000000,0.000000,0.000000,0.144174,0.178788,0.029829,0.159088,0.000000,203.000000,197.000000,6.000000,32.000000,0.000000,0.000000,0.000000,0.000000,0.000000;
#CREDIT:;
#NOTES:
0000
0000
0000
0000
,
0000
0000
0000
0000
,
0000
0000
0000
0000
,
0000
0000
0000
0000
,
0000
1000
0000
1000
,
0000
0010
0000
0010
,
0000
0100
0000
0100
,
0000
0001
0000
1001
,
0000
0001
0000
0001
,
0000
0010
0000
0010
,
0000
0100
0000
0100
,
0000
1000
0000
1001
,
0000
0001
0001
0001
,
0000
1000
0000
0100
,
0000
0010
0000
0001
,
0000
1000
0000
1001
,
0000
1000
1000
1000
,
0000
0010
0000
0010
,
0000
0100
0000
0001
,
0000
0002
0000
0003
,
0000
1000
2000
3000
,
0000
0001
0000
1000
,
0000
0010
0020
0030
,
0000
0100
0000
0010
,
0000
0100
0200
0300
,
0000
0010
0000
0100
,
0000
0002
0000
0003
,
0000
0002
0003
0001
,
0001
0001
0000
0001
,
0000
0010
0000
0010
,
0000
0100
0000
0100
,
0000
1000
0000
1000
,
0000
0010
0000
0010
,
0000
0100
0000
0100
,
0000
0002
0000
0003
,
0000
0100
0000
0001
,
0001
0001
0000
0010
,
0000
0001
0000
0001
,
0000
1000
0000
0100
,
0000
2000
3000
2000
,
3000
0010
0000
0100
,
0000
0010
0000
0010
,
0000
0100
0000
0001
,
0000
1000
0000
1001
,
0000
0001
0002
0003
,
0000
0001
0000
0010
,
0000
0100
0000
1000
,
0000
0001
0000
1001
,
0000
0010
0020
0030
,
0000
0100
0000
1000
,
0000
0002
0003
0002
,
0003
0002
0000
0003
,
0000
0100
0200
0300
,
0000
0010
0000
1000
,
0000
0100
0200
0300
,
0000
0010
0000
0001
,
0000
0100
0200
0300
,
0000
0010
0000
1000
,
0000
0002
0000
0003
,
0000
0001
0000
0001
,
0001
0001
0000
0010
,
0000
0100
0000
1000
,
0000
1000
0000
0010
,
0000
0100
0000
0001
,
0000
0010
0000
0100
,
0000
1000
0000
0001
,
0000
0200
0000
0300
,
0000
0010
0000
1000
,
1000
1000
0000
0001
,
0001
0001
0000
1000
,
0000
0001
0000
1000
,
1000
1000
0000
0001
,
0000
0010
0020
0030
,
0000
0100
0000
0100
,
0000
1000
0000
1000
,
0000
0001
0000
1001
,
0000
0001
0002
0003
,
0000
0100
0000
0100
,
0000
0010
0000
0010
,
0000
2000
0000
3000
,
0000
0001
0002
0003
,
0000
0010
0000
0100
,
0000
1000
2000
3000
,
0000
0010
0000
0100
,
0000
0001
0002
0003
,
0000
0010
0000
0100
,
0000
0200
0000
0300
,
0000
1000
0000
1000
,
1000
2000
3000
0000
,
0000
0010
0000
0100
,
0000
0001
0002
0003
,
0000
0010
0000
0100
,
0000
1000
2000
3000
,
0000
0001
0000
1000
,
0000
0020
0000
0030
,
0000
0100
0000
0100
,
0100
0200
0300
0100
,
0000
0001
0000
0001
,
0000
1000
0000
1000
,
0000
0010
0000
0010
,
0000
1000
0000
1000
,
0000
0001
0000
0001
,
0000
0020
0000
0030
;
