#VERSION:0.83;
#TITLE:Freyja;
#SUBTITLE:;
#ARTIST:Pascu y Rodri;
#TITLETRANSLIT:;
#SUBTITLETRANSLIT:;
#ARTISTTRANSLIT:;
#GENRE:;
#ORIGIN:;
#CREDIT:;
#BANNER:Freyja-bn.jpg;
#BACKGROUND:Freyja-bg.png;
#PREVIEWVID:;
#JACKET:Freyja-jacket.jpg;
#CDIMAGE:;
#DISCIMAGE:;
#LYRICSPATH:;
#CDTITLE:cdtitle_ukiarrow.png;
#MUSIC:Freyja.mp3;
#OFFSET:0.380000;
#SAMPLESTART:46.847893;
#SAMPLELENGTH:12.000000;
#SELECTABLE:YES;
#BPMS:0.000=123.000;
#STOPS:;
#DELAYS:;
#WARPS:;
#TIMESIGNATURES:0.000=4=4;
#TICKCOUNTS:0.000=4;
#COMBOS:0.000=1;
#SPEEDS:0.000=1.000=0.000=0;
#SCROLLS:0.000=1.000;
#FAKES:;
#LABELS:0.000=Song Start;
#BGCHANGES:0.750=Freyja.mp4=1.000=0=0=1=====,
99999=-nosongbg-=1.000=0=0=0 // don't automatically add -songbackground-
;
#KEYSOUNDS:;
#ATTACKS:
;

//---------------dance-single - ----------------
#NOTEDATA:;
#CHARTNAME:;
#STEPSTYPE:dance-single;
#DESCRIPTION:;
#CHARTSTYLE:;
#DIFFICULTY:Hard;
#METER:12;
#RADARVALUES:0.375587,0.473538,0.250391,0.233319,0.031299,462.000000,418.000000,44.000000,41.000000,0.000000,0.000000,0.000000,0.000000,0.000000,0.375587,0.473538,0.250391,0.233319,0.031299,462.000000,418.000000,44.000000,41.000000,0.000000,0.000000,0.000000,0.000000,0.000000;
#CREDIT:;
#NOTES:
// measure 0
0000
0000
0000
0000
,  // measure 1
0000
0000
0000
0000
,  // measure 2
0000
0000
0000
0000
,  // measure 3
0000
0000
0000
0000
,  // measure 4
0000
0000
0000
0000
,  // measure 5
0000
0000
0000
0000
,  // measure 6
0000
0000
0000
0000
,  // measure 7
0000
0000
0000
0000
,  // measure 8
0000
0000
1000
0100
1000
0001
1000
0010
,  // measure 9
0000
0010
2000
0000
3001
0000
0220
0000
,  // measure 10
0330
0000
0001
0100
0001
1000
0001
0010
,  // measure 11
0000
0010
0001
1000
0001
0100
0001
0001
,  // measure 12
1001
0000
1000
0100
0010
0100
0001
0100
,  // measure 13
0000
0100
0002
0000
1003
0000
0220
0000
,  // measure 14
0330
0000
0001
0010
0100
0010
1000
0010
,  // measure 15
0000
0010
1000
0010
0100
0010
0001
1000
,  // measure 16
1000
1000
2001
0000
3100
1200
0000
0000
,  // measure 17
0310
0000
0001
0010
0100
0000
1000
1000
,  // measure 18
0001
0000
0001
0010
0001
1000
0001
0100
,  // measure 19
0010
0000
0010
0001
0010
0100
0010
1000
,  // measure 20
0001
0000
1002
0000
0103
0201
0000
0000
,  // measure 21
0310
0000
0010
0001
0010
0100
0010
1000
,  // measure 22
0001
0000
1000
0100
0010
0001
0001
0100
,  // measure 23
0010
0000
1000
0000
0001
0000
0000
1000
0000
0000
0001
0000
2002
0000
0000
0000
,  // measure 24
3003
0000
2000
0000
0100
0000
0001
0001
,  // measure 25
3001
2002
0000
0000
3003
0000
0001
0100
,  // measure 26
0010
0000
1000
0010
0000
1000
0000
1000
,  // measure 27
0001
0000
0010
0010
0001
1000
0001
0001
,  // measure 28
0100
0010
1020
0100
,  // measure 29
1030
0010
0100
0000
0010
0000
1010
0000
,  // measure 30
0101
0000
0001
0000
1000
0100
0000
0010
,  // measure 31
1001
0000
0001
0001
1000
0000
0110
0000
,  // measure 32
1001
0000
0002
0000
0100
0000
1000
1000
,  // measure 33
1003
2002
0000
0000
3003
0000
1000
0100
,  // measure 34
0010
0000
0001
0010
0000
0001
0000
0001
,  // measure 35
1000
0000
0010
0010
0100
0001
0010
0010
,  // measure 36
0100
1000
0010
0000
1020
0000
0100
0000
,  // measure 37
1030
0010
0100
0000
0010
0000
0101
0000
,  // measure 38
1010
0000
1000
0000
0001
0100
0000
0010
,  // measure 39
1001
0000
1000
0100
0110
0000
0010
0001
,  // measure 40
1001
0000
1000
0100
1000
0001
0010
0001
,  // measure 41
1000
0000
0001
0100
0001
1000
0010
1000
,  // measure 42
1000
0000
1000
0100
1000
0001
1000
0010
,  // measure 43
0000
0010
2000
0000
3001
0000
0220
0000
,  // measure 44
0330
0000
0001
0100
0001
1000
0001
0200
,  // measure 45
0000
0300
0001
0001
0100
0010
1000
1000
,  // measure 46
1001
0000
1000
0100
0010
0100
0001
0100
,  // measure 47
0000
0100
2000
0000
3010
0000
1000
1000
,  // measure 48
0001
0000
0001
0010
0100
0010
1000
0010
,  // measure 49
0000
0100
0010
0001
1000
0010
0100
0001
,  // measure 50
0001
0001
1002
0000
0103
0201
0000
0000
,  // measure 51
0310
0000
0000
0000
0000
0000
1000
0000
0000
0010
0000
0000
0001
0000
0000
0000
0000
0000
1000
0000
0000
0100
0001
0100
,  // measure 52
0001
0000
0001
0010
0001
1000
0001
0100
,  // measure 53
0010
0000
0010
0001
0010
0100
0010
1000
,  // measure 54
1000
1000
1002
0000
0103
0201
0000
0000
,  // measure 55
0310
0000
0010
0001
0010
0100
0010
1000
,  // measure 56
0001
0000
1000
0100
0010
0001
0001
0100
,  // measure 57
0010
0000
1000
0000
0100
0000
0000
0100
0000
0000
1100
0000
2002
0000
0000
0000
,  // measure 58
3003
0000
2000
0000
0100
0000
0001
0001
,  // measure 59
3001
2002
0000
0000
3003
0000
0001
0001
,  // measure 60
0100
0000
0100
0010
0000
1000
0000
0010
,  // measure 61
1000
0001
0010
0010
0001
1000
0001
0001
,  // measure 62
0100
0000
0010
0100
0010
0000
0000
0000
1020
0000
0000
0000
0100
0000
0000
0000
,  // measure 63
1030
0010
0100
0000
0010
0000
1010
0000
,  // measure 64
0101
0000
0001
0000
1000
0100
0000
0010
,  // measure 65
1001
0000
0001
0001
1000
0000
0010
1000
,  // measure 66
1001
0000
0001
1000
0002
0000
0000
0000
0100
0000
0000
0000
1000
0000
1000
0000
,  // measure 67
1003
2002
0000
0000
3003
0000
1000
0100
,  // measure 68
0010
0000
0001
0010
0000
0100
0000
1000
,  // measure 69
0010
0000
0100
0100
0010
1000
0100
0100
,  // measure 70
0010
0000
0000
0001
1000
0001
1000
0000
0000
0000
0000
0000
1020
0000
0000
0000
0000
0000
0100
0000
0000
0000
0000
0000
,  // measure 71
1030
0010
0100
0000
0010
0000
0101
0000
,  // measure 72
1010
0000
1000
0001
0000
0100
0000
0010
,  // measure 73
1000
0000
0000
0000
1001
0000
0100
0000
0100
0000
0110
0000
0010
0000
0001
1000
,  // measure 74
0001
1000
0001
1000
0010
0000
0100
0000
0001
0000
1000
0000
0010
0000
1000
0000
,  // measure 75
0001
0000
0001
1000
0010
1000
0001
0100
,  // measure 76
0001
0000
1000
0100
0010
0001
1000
0001
,  // measure 77
0100
0000
0010
0010
1000
0100
1000
1000
,  // measure 78
0001
0010
0110
0000
2002
0000
0000
0000
,  // measure 79
0000
3003
0000
0000
;

//---------------dance-single - ----------------
#NOTEDATA:;
#CHARTNAME:;
#STEPSTYPE:dance-single;
#DESCRIPTION:;
#CHARTSTYLE:;
#DIFFICULTY:Medium;
#METER:8;
#RADARVALUES:0.267463,0.294992,0.091051,0.483710,0.005691,329.000000,313.000000,16.000000,85.000000,0.000000,0.000000,0.000000,0.000000,0.000000,0.267463,0.294992,0.091051,0.483710,0.005691,329.000000,313.000000,16.000000,85.000000,0.000000,0.000000,0.000000,0.000000,0.000000;
#CREDIT:;
#NOTES:
// measure 0
0000
0000
0000
0000
,  // measure 1
0000
0000
0000
0000
,  // measure 2
0000
0000
0000
0000
,  // measure 3
0000
0000
0000
0000
,  // measure 4
0000
0000
0000
0000
,  // measure 5
0000
0000
0000
0000
,  // measure 6
0000
0000
0000
0000
,  // measure 7
0000
0000
0000
0000
,  // measure 8
0000
0000
0000
1000
0100
0010
0001
0001
,  // measure 9
0000
0001
2000
0000
3020
0000
0230
0000
,  // measure 10
0300
0000
0000
0001
0100
0001
1000
0001
,  // measure 11
0000
0001
0010
0001
1000
0001
0200
0000
,  // measure 12
0300
0000
0000
0100
1000
0100
0010
0100
,  // measure 13
0000
0100
0002
0000
2003
0000
3200
0000
,  // measure 14
0300
0000
0000
0100
1000
0001
1000
0010
,  // measure 15
0000
0010
0100
0010
1000
0020
0000
0030
,  // measure 16
0000
0000
2010
0000
0000
3200
0000
0000
,  // measure 17
0310
0002
0023
0230
,  // measure 18
2300
0000
3001
0010
0002
0000
2003
0000
,  // measure 19
3000
0000
0010
1000
0010
0200
0000
0000
,  // measure 20
0301
0000
1002
0000
0000
0203
0000
0000
,  // measure 21
0310
0000
1000
0010
1000
0002
0000
1003
,  // measure 22
0001
2000
3200
0320
,  // measure 23
0032
0000
0000
0000
1003
0000
0000
0001
0000
0000
1000
0000
0002
0000
0000
0000
,  // measure 24
0003
2001
0001
0001
,  // measure 25
0001
0002
3003
0001
,  // measure 26
0100
0000
0010
1000
0000
2000
0000
0000
,  // measure 27
3001
0000
0010
0100
0010
0000
0001
1000
,  // measure 28
0001
0010
0021
0001
,  // measure 29
0001
0200
0330
0110
,  // measure 30
1001
0000
0001
0000
1000
0020
0000
0000
,  // measure 31
0130
0000
0001
0010
0100
0000
1000
0001
,  // measure 32
1000
0002
1000
1000
,  // measure 33
1000
2000
3003
1000
,  // measure 34
0010
0000
0100
0001
0000
0200
0000
0000
,  // measure 35
0310
0000
1000
0010
1000
0000
0010
0100
,  // measure 36
0001
1000
1020
1000
,  // measure 37
1000
0200
0330
0100
,  // measure 38
0001
0000
2000
0000
0010
0020
0000
0000
,  // measure 39
3030
2000
3200
0320
,  // measure 40
0032
0000
1003
0100
1000
0000
0001
0010
,  // measure 41
0001
0000
0001
0100
0001
0000
1000
0010
,  // measure 42
1000
0000
0000
1000
0100
0010
0001
0001
,  // measure 43
0000
0001
2000
0000
3020
0000
0230
0000
,  // measure 44
0300
0000
0000
0001
0100
0001
1000
0002
,  // measure 45
0000
0003
0010
0001
1000
0020
0000
0000
,  // measure 46
0130
0000
0000
0100
0010
0100
0010
1000
,  // measure 47
0000
1000
0002
0000
0023
0000
0230
0000
,  // measure 48
0300
0000
0000
0100
1000
0001
1000
0010
,  // measure 49
0000
0010
0100
0010
1000
0020
0000
0000
,  // measure 50
0030
0000
2010
0000
0000
3200
0000
0000
,  // measure 51
0310
0002
0023
0230
,  // measure 52
2300
0000
3001
0010
0002
0000
2003
0000
,  // measure 53
3001
0000
0010
0100
0020
0000
0130
1000
,  // measure 54
0001
0000
1002
0000
0000
0203
0000
0000
,  // measure 55
0310
0000
1000
0010
1000
0020
0000
0000
,  // measure 56
0130
0020
2030
3002
,  // measure 57
0203
0000
0000
0000
0301
0000
0000
1000
0000
0000
0001
0000
2000
0000
0000
0000
,  // measure 58
3000
2001
0001
0001
,  // measure 59
0001
0020
3030
1000
,  // measure 60
0010
0000
0100
0001
0000
2000
0000
0000
,  // measure 61
3001
0000
0010
0100
0010
0000
0001
1000
,  // measure 62
0001
0010
0021
0001
,  // measure 63
0001
0200
0330
0110
,  // measure 64
1001
0000
0001
0000
1000
0020
0000
0000
,  // measure 65
0130
0000
0010
1000
0010
0000
0100
0001
,  // measure 66
0100
0102
0100
0100
,  // measure 67
0100
2000
3003
1000
,  // measure 68
0010
0000
0100
0001
0000
2000
0000
0000
,  // measure 69
3100
0000
0010
0100
0010
0000
0001
1000
,  // measure 70
0001
1000
1020
1000
,  // measure 71
1000
0200
0330
0100
,  // measure 72
0001
0000
1000
0010
0000
2000
0000
0000
,  // measure 73
3001
0000
1000
0100
0010
0000
0100
0010
,  // measure 74
0001
0201
0001
0001
,  // measure 75
0001
0020
0330
0010
,  // measure 76
1000
0000
0001
1000
0001
2000
0000
3100
,  // measure 77
0000
0000
0010
0001
0010
0001
1000
0000
,  // measure 78
0010
1000
0002
0000
0100
0000
0100
0000
,  // measure 79
0100
0200
0000
0303
;

//---------------dance-single - ----------------
#NOTEDATA:;
#CHARTNAME:;
#STEPSTYPE:dance-single;
#DESCRIPTION:;
#CHARTSTYLE:;
#DIFFICULTY:Easy;
#METER:6;
#RADARVALUES:0.239010,0.297909,0.102433,0.256082,0.000000,294.000000,276.000000,18.000000,45.000000,0.000000,0.000000,0.000000,0.000000,0.000000,0.239010,0.297909,0.102433,0.256082,0.000000,294.000000,276.000000,18.000000,45.000000,0.000000,0.000000,0.000000,0.000000,0.000000;
#CREDIT:;
#NOTES:
// measure 0
0000
0000
0000
0000
,  // measure 1
0000
0000
0000
0000
,  // measure 2
0000
0000
0000
0000
,  // measure 3
0000
0000
0000
0000
,  // measure 4
0000
0000
0000
0000
,  // measure 5
0000
0000
0000
0000
,  // measure 6
0000
0000
0000
0000
,  // measure 7
0000
0000
0000
0000
,  // measure 8
0000
1000
0100
1000
,  // measure 9
0100
0010
0001
0100
,  // measure 10
0000
0001
0100
0001
,  // measure 11
0100
0001
1000
0001
,  // measure 12
0000
1000
0100
1000
,  // measure 13
0100
0010
0001
0100
,  // measure 14
0000
0001
0100
0001
,  // measure 15
0100
0001
0001
1000
,  // measure 16
0000
0000
2001
0000
0000
0002
0000
0000
,  // measure 17
3003
1000
1000
0001
,  // measure 18
0001
1000
0100
1000
,  // measure 19
0100
0010
0001
0100
,  // measure 20
0000
0000
1002
0000
0000
2000
0000
0000
,  // measure 21
3003
0001
0001
1000
,  // measure 22
1000
0001
0010
0100
,  // measure 23
1000
0002
0000
1003
,  // measure 24
0000
2000
0100
0100
,  // measure 25
0100
0200
3300
1000
,  // measure 26
1000
0001
0010
0001
,  // measure 27
0010
0100
1000
0020
,  // measure 28
0030
2000
0010
0010
,  // measure 29
0010
0020
3030
1000
,  // measure 30
1000
0001
0010
0001
,  // measure 31
0000
0001
0100
0010
,  // measure 32
0110
0200
0001
0001
,  // measure 33
0001
0002
0303
0001
,  // measure 34
0001
1000
0100
1000
,  // measure 35
0100
0010
0001
0200
,  // measure 36
0300
0002
0010
0010
,  // measure 37
0010
0020
0033
0001
,  // measure 38
0001
1000
0100
1000
,  // measure 39
0000
1000
0100
0010
,  // measure 40
0110
0100
1000
0100
,  // measure 41
1000
0010
0010
0010
,  // measure 42
0010
1000
0100
1000
,  // measure 43
0100
0010
0001
0200
,  // measure 44
0300
0001
0100
0001
,  // measure 45
0100
0010
1000
0200
,  // measure 46
0300
1000
0010
1000
,  // measure 47
0010
0100
0001
0020
,  // measure 48
0030
0001
0010
0001
,  // measure 49
0010
0100
1000
0010
,  // measure 50
0010
0000
1002
0000
0000
1003
0000
0000
,  // measure 51
0000
1000
0100
0010
,  // measure 52
0001
1000
1000
0010
,  // measure 53
0100
0001
0001
0010
,  // measure 54
0010
0000
0120
0000
0000
0130
0000
0000
,  // measure 55
0000
1000
1000
0001
,  // measure 56
0001
1000
0010
0100
,  // measure 57
0001
2000
0000
3001
,  // measure 58
0000
2001
0001
0001
,  // measure 59
0001
0002
3003
0001
,  // measure 60
0001
1000
0010
1000
,  // measure 61
0010
0100
0001
0020
,  // measure 62
0030
1002
1000
1000
,  // measure 63
1000
2000
3003
0001
,  // measure 64
0001
1000
0010
1000
,  // measure 65
0010
0100
0001
1000
,  // measure 66
1000
1002
1000
1000
,  // measure 67
1000
2000
3003
0001
,  // measure 68
0001
1000
0100
0010
,  // measure 69
0001
1000
1000
0001
,  // measure 70
0002
0003
1002
1000
,  // measure 71
1000
2000
3003
1000
,  // measure 72
1000
0001
0010
0001
,  // measure 73
0010
0200
1300
0200
,  // measure 74
1300
1020
1000
1000
,  // measure 75
1000
2000
3030
1000
,  // measure 76
1000
0001
0010
0100
,  // measure 77
1000
1000
0100
0010
,  // measure 78
0001
1002
1000
1000
,  // measure 79
1000
2000
3003
0010
,  // measure 80
0010
0100
0001
1000
,  // measure 81
0010
0210
0310
2001
,  // measure 82
3001
2001
0001
0001
,  // measure 83
0001
0002
3003
0001
,  // measure 84
0001
1000
0100
0010
,  // measure 85
0001
0012
0013
2100
,  // measure 86
3100
2002
0000
0000
,  // measure 87
0000
3003
0000
0000
;

//---------------dance-single - ----------------
#NOTEDATA:;
#CHARTNAME:;
#STEPSTYPE:dance-single;
#DESCRIPTION:;
#CHARTSTYLE:;
#DIFFICULTY:Beginner;
#METER:4;
#RADARVALUES:0.170721,0.202958,0.000000,0.028454,0.000000,210.000000,210.000000,0.000000,5.000000,0.000000,0.000000,0.000000,0.000000,0.000000,0.170721,0.202958,0.000000,0.028454,0.000000,210.000000,210.000000,0.000000,5.000000,0.000000,0.000000,0.000000,0.000000,0.000000;
#CREDIT:;
#NOTES:
// measure 0
0000
0000
0000
0000
,  // measure 1
0000
0000
0000
0000
,  // measure 2
0000
0000
0000
0000
,  // measure 3
0000
0000
0000
0000
,  // measure 4
0000
0000
0000
0000
,  // measure 5
0000
0000
0000
0000
,  // measure 6
0000
0000
0000
0000
,  // measure 7
0000
0000
0000
0000
,  // measure 8
0000
1000
0100
1000
,  // measure 9
0000
0001
0100
0001
,  // measure 10
0000
0001
0100
0001
,  // measure 11
0000
1000
0100
1000
,  // measure 12
0000
1000
0010
1000
,  // measure 13
0000
0001
0010
0001
,  // measure 14
0000
0001
0100
0001
,  // measure 15
0000
1000
0010
1000
,  // measure 16
0000
0000
0001
0000
0000
0001
0000
0000
,  // measure 17
0000
1000
0001
1000
,  // measure 18
0000
1000
0100
1000
,  // measure 19
0000
0001
0100
0001
,  // measure 20
0000
0000
1000
0000
0000
1000
0000
0000
,  // measure 21
0000
0001
0001
0001
,  // measure 22
0000
1000
1000
1000
,  // measure 23
1000
2000
0000
3000
,  // measure 24
0000
0001
0001
0001
,  // measure 25
0001
0001
0000
1000
,  // measure 26
0000
0001
0010
0001
,  // measure 27
0000
0001
0100
0001
,  // measure 28
0000
1000
1000
1000
,  // measure 29
1000
1000
0000
0001
,  // measure 30
0000
1000
0010
1000
,  // measure 31
0000
1000
0100
1000
,  // measure 32
0000
0010
0010
0010
,  // measure 33
0010
0010
0000
0100
,  // measure 34
0000
0001
0100
0001
,  // measure 35
0000
1000
0100
1000
,  // measure 36
0000
0100
0100
0100
,  // measure 37
0100
0100
0000
0010
,  // measure 38
0000
0001
0010
0001
,  // measure 39
0000
1000
1000
1000
,  // measure 40
1000
0100
1000
0100
,  // measure 41
0000
0010
0001
0010
,  // measure 42
0000
1000
0010
1000
,  // measure 43
0000
0010
1000
0010
,  // measure 44
0000
0100
0001
0100
,  // measure 45
0000
0001
0100
0001
,  // measure 46
0000
1000
0100
1000
,  // measure 47
0000
0100
1000
0100
,  // measure 48
0000
0010
0001
0010
,  // measure 49
0000
0001
0010
0001
,  // measure 50
0000
0000
1000
0000
0000
1000
0000
0000
,  // measure 51
0000
0001
0001
0001
,  // measure 52
0000
1000
0100
1000
,  // measure 53
0000
0001
0100
0001
,  // measure 54
0000
0000
1000
0000
0000
1000
0000
0000
,  // measure 55
0000
0001
0010
0001
,  // measure 56
0000
0001
0001
0001
,  // measure 57
0001
0002
0000
0003
,  // measure 58
0000
1000
1000
1000
,  // measure 59
1000
1000
0000
0001
,  // measure 60
0000
1000
1000
1000
,  // measure 61
0000
0001
0010
0001
,  // measure 62
0000
0100
0100
0100
,  // measure 63
0100
0100
0000
0010
,  // measure 64
0000
0100
0001
0100
,  // measure 65
0000
0010
1000
0010
,  // measure 66
0000
0010
0010
0010
,  // measure 67
0010
0010
0000
0100
,  // measure 68
0000
0001
0010
0001
,  // measure 69
0000
1000
0010
2000
,  // measure 70
3000
0000
0001
0001
,  // measure 71
0001
0001
0000
1000
,  // measure 72
0000
0010
0010
0010
,  // measure 73
0000
0100
0100
0100
,  // measure 74
0100
1000
1000
1000
,  // measure 75
1000
2000
3000
1000
,  // measure 76
0000
0001
0010
0001
,  // measure 77
0000
0001
0100
0001
,  // measure 78
0000
0001
0001
0001
,  // measure 79
0001
0000
0000
0000
0000
0000
0000
0000
0000
0000
0000
0000
0000
0000
0000
0000
0000
0000
0000
0000
0000
0000
0000
0000
0000
0000
0000
0000
0000
0000
0000
0000
0000
0000
0000
0000
0000
0000
0000
0000
0000
0000
0000
0000
0000
0000
0000
0000
0002
0003
0000
0000
0000
0000
0000
0000
0000
0000
0000
0000
0000
0000
0000
0000
0000
0000
0000
0000
0000
0000
0000
0000
0000
0000
0000
0000
0000
0000
0000
0000
0000
0000
0000
0000
0000
0000
0000
0000
0000
0000
0000
0000
0000
0000
0000
0000
0000
0000
0000
0000
0000
0000
0000
0000
0000
0000
0000
0000
0000
0000
0000
0000
0000
0000
0000
0000
0000
0000
0000
0000
0000
0000
0000
0000
0000
0000
0000
0000
0000
0000
0000
0000
0000
0000
0000
0000
0000
0000
0000
0000
0000
0000
0000
0000
0000
0000
0000
0000
0000
0000
0000
0000
0000
0000
0000
0000
0000
0000
0000
0000
0000
0000
0000
0000
0000
0000
0000
0000
0000
0000
0000
0000
0000
0000
0000
0000
0000
0000
0000
0000
0000
0000
0000
0000
0000
0000
0000
0000
0000
0000
0000
0000
;
