#VERSION:0.83;
#TITLE:El Origen de Goku;
#SUBTITLE:;
#ARTIST:Pascu y Rodri;
#TITLETRANSLIT:;
#SUBTITLETRANSLIT:;
#ARTISTTRANSLIT:;
#GENRE:;
#ORIGIN:;
#CREDIT:;
#BANNER:El Origen de Goku-bn.jpg;
#BACKGROUND:El Origen de Goku-bg.png;
#PREVIEWVID:;
#JACKET:El Origen de Goku-jacket.jpg;
#CDIMAGE:;
#DISCIMAGE:;
#LYRICSPATH:;
#CDTITLE:cdtitle_ukiarrow.png;
#MUSIC:El Origen de Goku.mp3;
#OFFSET:0.980000;
#SAMPLESTART:144.048126;
#SAMPLELENGTH:12.000000;
#SELECTABLE:YES;
#BPMS:0.000=152.000;
#STOPS:;
#DELAYS:;
#WARPS:;
#TIMESIGNATURES:0.000=4=4;
#TICKCOUNTS:0.000=4;
#COMBOS:0.000=1;
#SPEEDS:0.000=1.000=0.000=0;
#SCROLLS:0.000=1.000;
#FAKES:;
#LABELS:0.000=Song Start;
#BGCHANGES:2.500=El Origen de Goku.mp4=1.000=0=0=1=====,
99999=-nosongbg-=1.000=0=0=0 // don't automatically add -songbackground-
;
#KEYSOUNDS:;
#ATTACKS:
;

//---------------dance-single - ----------------
#NOTEDATA:;
#CHARTNAME:;
#STEPSTYPE:dance-single;
#DESCRIPTION:;
#CHARTSTYLE:;
#DIFFICULTY:Hard;
#METER:14;
#RADARVALUES:0.637040,0.731679,0.474391,0.262310,0.226033,799.000000,714.000000,85.000000,47.000000,0.000000,0.000000,0.000000,0.000000,0.000000,0.637040,0.731679,0.474391,0.262310,0.226033,799.000000,714.000000,85.000000,47.000000,0.000000,0.000000,0.000000,0.000000,0.000000;
#CREDIT:;
#NOTES:
// measure 0
0000
0000
0000
0000
,  // measure 1
0000
0000
0000
0000
,  // measure 2
0000
0000
0000
0000
,  // measure 3
0000
0000
0000
0000
,  // measure 4
0000
0000
0000
0000
0000
0000
0000
0100
,  // measure 5
0010
1000
0010
0000
0010
1000
0000
0200
,  // measure 6
0010
0000
0310
0001
1000
0000
0100
0100
,  // measure 7
1000
0000
0010
0100
0010
1000
0000
0001
,  // measure 8
0100
0000
0010
1000
0100
0010
0001
0000
,  // measure 9
0011
0000
0010
0001
0010
0100
0000
1000
,  // measure 10
0001
0000
0000
0000
0100
0000
0010
0000
1000
0000
0100
0000
0000
0000
0010
0001
,  // measure 11
1000
0001
0010
0001
1000
0000
0000
0000
1000
0010
0000
1000
0000
0000
0001
0000
,  // measure 12
0010
0000
0100
0000
1000
0000
0000
0100
0000
0000
0010
0000
0000
0000
0001
0000
,  // measure 13
1000
0001
1000
0000
0001
0000
0000
0000
0001
0100
0000
0001
0000
0000
0100
0000
,  // measure 14
0010
0000
1000
0000
0001
0000
0000
0100
0000
0000
0010
0000
0000
0000
1000
0000
,  // measure 15
0001
0000
0000
0000
1001
0000
0000
0000
1000
0000
0010
1000
0000
0000
0001
0000
,  // measure 16
0010
0000
0100
0000
1000
0000
0000
0100
0000
0000
0010
0000
0000
0000
0001
0000
,  // measure 17
1000
0000
0100
0000
0010
0000
0000
0100
0000
0000
1000
0000
0000
0000
0001
0000
,  // measure 18
0010
0000
0100
0000
0010
0000
0000
0011
0000
0000
1100
0000
0000
1000
0100
0000
,  // measure 19
0010
0000
0001
0000
0011
0000
0000
1001
0000
0000
0201
0000
0000
0000
0000
0000
,  // measure 20
0301
0000
0100
0000
0101
0000
0000
0000
0110
0000
0000
0000
1010
0000
0000
1000
,  // measure 21
0001
0010
0100
1000
0100
1000
0010
1000
,  // measure 22
0010
0000
0100
0000
0001
0000
0000
0010
0000
0000
0001
0000
0000
0000
1000
0000
,  // measure 23
0010
1000
0010
0000
1010
0000
0000
1001
0000
0000
1200
0000
0000
0000
0000
0000
,  // measure 24
1300
0000
0100
0000
0011
0000
0000
0000
0110
0000
0000
0000
1100
0000
0000
1000
,  // measure 25
0001
0000
0100
0000
0010
0000
0000
0010
0000
0000
1000
0000
0100
0000
0000
0010
,  // measure 26
0000
0001
0100
0010
0100
0001
0010
0100
,  // measure 27
1000
0000
0010
0000
1010
0000
0000
1010
0000
0000
0100
0000
0202
0000
0000
0000
,  // measure 28
0303
0000
0001
1000
0001
0100
0000
0010
,  // measure 29
0100
0000
0001
0010
0100
1000
0010
0010
,  // measure 30
0110
0000
0100
0001
1000
0001
0000
0010
,  // measure 31
0100
0000
0000
0000
1000
0000
0100
0000
0010
0000
0011
0000
0000
0000
0001
0100
,  // measure 32
0001
1000
0010
0100
0001
1000
0010
0010
,  // measure 33
0100
0000
0001
1000
0001
0010
0100
0100
,  // measure 34
1100
0000
0010
0001
1000
0001
0000
0100
,  // measure 35
0110
0000
0010
0100
0001
0010
0100
0000
,  // measure 36
1001
0000
1000
0010
0100
0110
0000
0010
,  // measure 37
1000
0000
0000
0000
0001
0000
0010
0000
0100
0000
1000
0000
0000
0000
0001
0010
,  // measure 38
0001
0010
0001
0000
2000
0000
0000
0000
3001
0000
0100
0001
0000
0000
1000
0000
,  // measure 39
0100
0000
0010
0000
0001
0000
0000
0010
0000
0000
0100
0000
0000
0000
1000
0001
,  // measure 40
1000
0100
1000
0001
1000
0000
0000
0000
1000
0000
0010
1000
0000
0000
0010
0000
,  // measure 41
0100
0000
0001
0000
1000
0000
0000
0010
0000
0000
0100
0000
0000
0000
0001
0000
,  // measure 42
1000
0000
0000
0000
1001
0000
0000
0000
0001
0000
0100
0001
0000
0000
1000
0000
,  // measure 43
0100
0000
0010
0000
0001
0000
0000
0010
0000
0000
0100
0000
0000
0000
1000
0000
,  // measure 44
0001
0000
0010
0000
0100
0000
0000
0010
0000
0000
0001
0000
0000
0000
1000
0000
,  // measure 45
0100
0000
0000
0000
0010
0000
0000
0010
0000
0000
0001
0000
0010
0000
0100
0000
,  // measure 46
0010
0000
0010
0000
1100
0000
0000
0000
0001
0000
0010
0001
0000
0000
1000
0000
,  // measure 47
0100
0000
0010
0000
0011
0000
0000
1001
0000
0000
0201
0000
0000
0000
0000
0000
,  // measure 48
0301
0000
0010
0000
0100
0000
1000
0000
0100
0000
1000
0001
0000
0000
0100
0000
,  // measure 49
0010
0000
0100
0000
0001
0000
0000
0010
0000
0000
0100
0000
0000
0000
1000
0000
,  // measure 50
0001
0000
0000
0000
1001
0000
0000
0000
1000
0000
0100
0010
0000
0000
0001
0000
,  // measure 51
1000
0000
0010
0000
0100
0000
0000
0100
0000
0000
0002
0000
0000
0000
0000
0000
,  // measure 52
1003
0100
1000
1000
0001
0010
0001
0001
,  // measure 53
0010
0000
0100
0000
1100
0000
0000
1001
0000
0000
1010
0000
0000
0000
1000
0001
,  // measure 54
1000
0001
1000
0000
0001
0000
0010
0100
0000
0100
2000
0000
0000
0000
0000
0000
,  // measure 55
3001
0000
1000
0000
0100
0000
0010
0000
0110
0000
0000
0000
0001
0000
0000
1000
,  // measure 56
0001
0001
1000
0010
1000
0010
0100
0001
,  // measure 57
0010
0000
0100
0000
1100
0000
0000
0001
0000
0000
0010
0000
0000
0000
0100
0000
,  // measure 58
1000
0001
1000
0000
1001
0000
0000
0101
0000
0000
1020
0000
0000
0000
0000
0000
,  // measure 59
1030
0000
0100
0000
0010
0000
0001
0000
1001
0000
0000
0000
0001
0000
0000
0010
,  // measure 60
0100
0000
1000
0000
0010
0000
0100
0010
0000
0100
0001
0000
0010
0000
0100
0010
,  // measure 61
0000
0100
1000
0000
0010
0000
1000
0000
0001
0000
0100
0000
0001
0000
0010
0100
,  // measure 62
0010
0100
0010
0000
0110
0000
0000
0110
0000
0000
1100
0000
2002
0000
0000
0000
,  // measure 63
3003
0000
1000
0010
0100
0010
1000
0100
,  // measure 64
0010
0000
0001
0001
1001
0000
0100
0100
,  // measure 65
0110
0000
0000
0000
0010
0000
1000
0000
0001
0000
0010
0100
0010
0000
0100
0000
,  // measure 66
0010
0100
1000
0010
0100
0101
0000
0100
,  // measure 67
0001
1000
0001
0010
0100
0010
0001
1000
,  // measure 68
1001
0000
0010
0100
0001
0001
0010
0100
,  // measure 69
1100
0000
1000
0001
0100
0010
0000
0100
,  // measure 70
0001
0000
0100
0010
1000
0100
0010
0000
,  // measure 71
0110
0000
1000
0100
1000
0010
0000
1000
,  // measure 72
0001
0100
0001
0010
0100
1100
0000
1000
,  // measure 73
0001
0000
0200
0000
0001
0001
0000
0010
,  // measure 74
0000
1000
0000
1300
0200
0010
0000
0001
,  // measure 75
0300
0202
0000
0303
1000
2000
0000
3020
,  // measure 76
0000
0230
0000
1000
0000
0010
0000
0301
,  // measure 77
0000
0202
0000
0303
0001
0002
0000
0203
,  // measure 78
0000
0320
0000
2030
0000
3020
0000
0100
,  // measure 79
0000
2000
0000
3030
0100
0200
0000
0302
,  // measure 80
0000
0023
0000
0032
0000
2003
0000
3020
,  // measure 81
0000
0130
0001
1000
0001
1000
0010
0100
,  // measure 82
0010
0000
0010
0000
1000
0000
0100
0000
0010
0000
0001
0000
1000
0000
0001
0100
,  // measure 83
0001
0000
0000
0000
0101
0000
0000
0101
0000
0000
2002
0000
0000
0000
3003
0000
,  // measure 84
1010
0000
0000
0000
0100
0000
0001
0000
1001
0000
0000
0000
0100
0000
1000
0001
,  // measure 85
1000
0000
0010
0000
0100
0000
0000
0100
0000
0000
0001
0000
0000
0000
0010
0000
,  // measure 86
0100
0000
0010
0000
0001
0000
0000
0100
0000
0000
0110
0000
0000
0000
0010
0000
,  // measure 87
1000
0010
1000
0000
1010
0000
0000
1001
0000
0000
2100
0000
0000
0000
0000
0000
,  // measure 88
3100
0000
0010
0000
0001
0000
1000
0000
1001
0000
0000
0000
0100
0000
0000
0010
,  // measure 89
0100
0000
1000
0000
0001
0000
0100
0010
0000
0100
0001
0000
1000
0000
0100
0010
,  // measure 90
0000
0100
1000
0000
0001
0000
0010
0000
0100
0000
1000
0000
0001
0000
0010
0100
,  // measure 91
0010
0100
0010
0000
0110
0000
0000
1100
0000
0000
0011
0000
0220
0000
0000
0000
,  // measure 92
0330
0000
1000
0100
0010
0001
1000
0001
,  // measure 93
0100
0010
1000
0001
1001
0000
0100
0010
,  // measure 94
0110
0000
0000
0000
0001
0000
1000
0000
0001
0000
0100
0010
0100
0000
0001
0000
,  // measure 95
0010
0100
1000
0001
0100
0101
0000
0010
,  // measure 96
1000
0001
0100
0010
0100
0001
0010
0100
,  // measure 97
1000
0000
0001
0001
0101
0000
1000
1000
,  // measure 98
1100
0000
0010
0100
0001
2001
0000
3100
,  // measure 99
1000
0000
0001
0010
0100
1000
0010
0000
,  // measure 100
0101
0000
0001
0100
0010
1010
0000
0100
,  // measure 101
0001
0000
1000
0001
0100
1020
0000
0100
,  // measure 102
0130
0001
1000
0100
0010
0001
0010
0010
,  // measure 103
0110
0000
1000
0001
0100
0001
1000
0100
,  // measure 104
0010
0000
0000
0000
0001
0000
0100
0000
0010
0000
1000
0010
1000
0000
0010
0000
,  // measure 105
0100
0000
0001
1000
0001
0011
0000
0100
,  // measure 106
1000
0000
0001
1000
0100
1000
0010
0100
,  // measure 107
0100
0000
0001
0010
0011
0000
1000
0100
,  // measure 108
1100
0000
0100
1000
0001
1001
0000
1000
,  // measure 109
0010
0000
0100
0001
0010
0100
1000
1001
,  // measure 110
1001
0000
0010
0100
0010
2000
0000
3002
,  // measure 111
0000
0000
0103
0000
0010
0000
1000
0001
1000
0000
0100
0000
1000
0001
1000
0000
,  // measure 112
0010
1000
1002
0000
0100
0203
0000
0301
,  // measure 113
0010
0100
2000
0000
3100
2002
0000
0000
,  // measure 114
3003
0000
0000
0000
;

//---------------dance-single - ----------------
#NOTEDATA:;
#CHARTNAME:;
#STEPSTYPE:dance-single;
#DESCRIPTION:;
#CHARTSTYLE:;
#DIFFICULTY:Medium;
#METER:11;
#RADARVALUES:0.523824,0.477182,0.178594,0.167432,0.117203,657.000000,625.000000,32.000000,30.000000,0.000000,0.000000,0.000000,0.000000,0.000000,0.523824,0.477182,0.178594,0.167432,0.117203,657.000000,625.000000,32.000000,30.000000,0.000000,0.000000,0.000000,0.000000,0.000000;
#CREDIT:;
#NOTES:
0000
0000
0000
0000
,
0000
0000
0000
0000
,
0000
0000
0000
0000
,
0000
0000
0000
0000
,
0000
0000
0000
0000
0000
0000
0000
0001
,
0010
0001
1000
0000
0001
1000
0000
0200
,
0000
0000
0310
0001
1000
0000
0100
0100
,
1000
0000
0010
0100
0010
1000
0000
0002
,
0000
0000
0103
0001
0100
0010
1000
0000
,
1001
0000
0100
0010
0100
0001
0000
2000
,
0000
0000
3001
0010
0100
1000
0000
1000
,
0100
0000
0010
0000
0001
0000
0000
0000
0001
0000
0000
0100
0000
0000
0100
0000
,
0010
0000
1000
0000
0001
0000
0000
0001
0000
0000
0200
0000
0000
0000
0000
0000
,
0310
0000
1000
0000
0010
0000
0000
0000
1000
0000
0000
0100
0000
0000
0100
0000
,
0010
0000
0001
0000
1000
0000
0000
0010
0000
0000
1000
0000
0000
0000
0001
0000
,
0010
0000
0000
0000
0110
0000
0000
0000
0001
0000
0000
1000
0000
0000
1000
0000
,
0001
0000
0100
0000
0010
0000
0000
1000
0000
0000
0200
0000
0000
0000
0300
0000
,
0010
0000
0010
0000
0001
0000
0000
0010
0000
0000
0100
0000
0000
0000
1000
0000
,
0100
0000
1000
0000
0010
0000
0000
0010
0000
0000
0100
0000
0000
0000
0001
0000
,
1000
0000
0100
0000
0010
0000
0000
0010
0000
0000
0012
0000
0000
0000
0000
0000
,
1003
0001
0100
0000
0110
0000
0001
0000
,
1001
0000
0000
0000
1000
0000
0000
0100
0000
0000
0100
0000
0000
0000
0010
0000
,
0001
0000
0010
0000
0001
0000
0000
0001
0000
0000
1000
0000
0000
0000
0010
0000
,
0100
0000
0000
0000
0010
0000
0000
0010
0000
0000
2010
0000
0000
0000
0000
0000
,
3001
0100
0010
0000
0110
0000
1000
0000
,
1001
0000
0000
0000
0001
0000
0000
0010
0000
0000
0010
0000
0100
0000
0000
1000
,
0000
1000
0001
0010
0001
0010
0100
1000
,
0100
0000
1000
0000
0010
0000
0000
0010
0000
0000
0100
0000
0020
0000
0000
0000
,
0030
0000
1000
0100
0010
0001
0010
0001
,
1000
0000
0001
0100
0010
0000
0100
0100
,
0001
0000
1000
0100
0010
0100
1000
0001
,
0100
0000
0020
0000
1030
0001
0000
0010
,
0010
0000
0001
0100
0010
1000
0010
1000
,
0001
0000
1000
0100
0010
0000
0001
0001
,
1000
0000
0001
0010
0100
1000
0000
1000
,
0001
0000
1000
0100
0010
0001
1000
0000
,
1001
0000
0001
0100
0010
1000
0000
1000
,
0001
0000
0010
0001
1000
0020
0000
0100
,
0200
0000
0000
0000
0330
0000
0000
0000
0001
0000
0000
0100
0000
0000
0010
0000
,
1000
0000
0001
0000
0010
0000
0000
0100
0000
0000
1000
0000
0001
0000
0100
0000
,
0001
0000
0100
0000
0001
0000
0000
0000
1000
0000
0000
0100
0000
0000
0010
0000
,
0001
0000
0010
0000
0001
0000
0000
1000
0000
0000
0010
0000
0000
0000
0100
0000
,
0001
0000
0000
0000
0101
0000
0000
0000
1000
0000
0000
0010
0000
0000
0100
0000
,
0001
0000
1000
0000
0001
0000
0000
0001
0000
0000
0200
0000
0000
0000
0000
0000
,
0310
0000
1000
0000
0001
0000
0000
1000
0000
0000
0100
0000
0000
0000
0010
0000
,
0001
0000
0000
0000
1000
0000
0000
0001
0000
0000
0100
0000
0001
0000
1000
0000
,
0010
0000
1000
0000
1100
0000
0010
0001
,
1000
0000
0001
0000
0010
0000
0000
0001
0000
0000
0100
0000
0010
0000
0000
0000
,
0110
0000
0000
0000
1000
0000
0000
0000
0001
0000
0000
0010
0000
0000
0100
0000
,
1000
0000
0100
0000
0010
0000
0000
0010
0000
0000
0001
0000
0000
0000
0100
0000
,
0020
0000
0000
0000
1030
0000
0000
0000
0010
0000
0000
0100
0000
0000
0001
0000
,
1000
0000
0001
0000
0100
0000
0000
0010
0000
0000
1000
0000
0002
0000
0000
0000
,
0013
0000
0110
0000
0100
1000
0000
0001
,
0100
0000
0000
0000
0010
0000
0000
0010
0000
0000
0010
0000
0000
0000
0100
0000
,
0100
0000
0000
0000
0001
0000
0000
0001
0000
0000
0012
0000
0000
0000
0000
0000
,
1003
0001
0100
0000
0110
0000
0001
0000
,
1001
0000
1000
0100
0000
0010
0000
0001
,
1000
0000
0001
0000
0010
0000
0000
0010
0000
0000
0100
0000
0000
0000
0100
0000
,
1000
0000
0000
0000
0010
0000
0000
0010
0000
0000
2010
0000
0000
0000
0000
0000
,
3001
0100
0010
0000
0110
0000
1000
0000
,
1001
0000
0000
0000
0001
0000
0000
0010
0000
0000
0010
0000
0100
0000
0000
1000
,
0000
1000
0001
0100
0001
0100
0010
1000
,
0010
0000
1000
0000
0001
0000
0000
1000
0000
0000
0001
0000
2000
0000
0000
0000
,
3000
0000
1000
0100
0010
0001
0010
0001
,
1000
0000
0001
0100
0010
0000
0100
0100
,
0001
0000
1000
0100
0010
0100
1000
0001
,
0100
0000
0020
0000
1030
0001
0000
0010
,
0010
0000
0001
0100
0010
1000
0010
1000
,
0001
0000
1000
0100
0010
0000
0001
0001
,
1000
0000
0001
0010
0100
1000
0000
1000
,
0001
0000
1000
0100
0010
0001
1000
0000
,
1001
0000
0001
0100
0010
1000
0000
1000
,
0001
0000
0010
0001
1000
0020
0000
0130
,
0010
1000
0001
1001
,
1000
0100
1000
0100
1000
0000
0001
0010
,
0001
1000
0010
0110
,
0100
0001
0100
0001
0100
0000
0010
1000
,
0010
1000
0001
1001
,
0001
0010
0001
0010
0001
0000
1000
0100
,
1000
0100
0010
0110
,
0100
1000
0100
1000
0100
0000
0010
0001
,
1000
0000
0020
0000
0130
0000
0001
1000
,
0100
0000
0010
0100
1000
0001
0100
0010
,
0100
0000
0000
0000
0001
0000
0000
0010
0000
0000
0021
0000
0000
0000
0000
0000
,
0031
1000
0100
0000
0110
0000
1000
0000
,
1001
0000
0000
0000
0001
0000
0000
0100
0000
0000
0010
0000
0000
0000
0010
0000
,
1000
0000
0001
0000
0010
0000
0000
0100
0000
0000
1000
0000
0000
0000
1000
0000
,
0001
0000
0000
0000
0100
0000
0000
0010
0000
0000
1020
0000
0000
0000
0000
0000
,
1030
0100
0010
0000
0110
0000
0001
0000
,
1001
0000
0000
0000
1000
0000
0000
0010
0000
0000
0100
0000
0001
0000
0000
0010
,
0000
0100
1000
0001
0100
0001
1000
0100
,
0010
0000
0001
0000
1000
0000
0000
1000
0000
0000
0010
0000
0200
0000
0000
0000
,
0300
0000
0010
1000
0100
0010
0100
0010
,
0001
0000
1000
0100
0010
0000
0001
0010
,
0001
0000
1000
0010
0100
0001
0010
0001
,
0100
0000
0020
0000
1030
0001
0000
0010
,
0100
0000
1000
0010
0100
0001
0100
0001
,
0010
0000
0100
1000
0010
0000
1000
0001
,
0100
0000
0001
0010
0100
1000
0000
1000
,
0001
0000
1000
0100
0010
0001
1000
0000
,
1001
0000
0001
0100
0010
1000
0000
1000
,
0001
0000
0010
0001
1000
0020
0000
0100
,
0130
0010
1000
0100
0010
0001
0010
0001
,
1000
0000
0001
0100
0010
0000
0100
0001
,
0010
0000
0100
1000
0010
0100
0010
1000
,
0100
0000
0020
0000
0031
1000
0000
0100
,
0100
0000
0010
0001
0100
0010
0100
0010
,
1000
0000
0001
0010
0100
0000
1000
0100
,
0010
0000
0001
0010
0100
1000
0000
1000
,
0001
0000
1000
0100
0010
0001
1000
0001
,
0001
0000
0001
0100
0010
1000
0000
0001
,
0000
0010
0001
0100
0001
1000
0100
1000
,
0010
0100
0020
0000
0030
0100
0000
0100
,
0001
1000
0200
0000
0300
0220
0000
0000
,
0330
0000
0000
0000
;

//---------------dance-single - ----------------
#NOTEDATA:;
#CHARTNAME:;
#STEPSTYPE:dance-single;
#DESCRIPTION:;
#CHARTSTYLE:;
#DIFFICULTY:Easy;
#METER:8;
#RADARVALUES:0.402635,0.412197,0.206500,0.167432,0.044649,505.000000,468.000000,37.000000,30.000000,0.000000,0.000000,0.000000,0.000000,0.000000,0.402635,0.412197,0.206500,0.167432,0.044649,505.000000,468.000000,37.000000,30.000000,0.000000,0.000000,0.000000,0.000000,0.000000;
#CREDIT:;
#NOTES:
0000
0000
0000
0000
,
0000
0000
0000
0000
,
0000
0000
0000
0000
,
0000
0000
0000
0000
,
0000
0000
0000
0000
,
0000
0000
0001
0000
0100
0000
0010
0100
,
0010
1000
0001
1001
,
0000
0000
1000
0100
0000
0100
0000
0020
,
0000
0031
1000
1001
,
0000
0000
0001
0100
0000
0100
0000
0020
,
0000
0000
1030
0000
0002
2000
0000
0000
,
3003
0000
0001
0000
0001
0000
1000
0010
,
1000
0000
0001
0000
0001
0000
1000
0100
,
1000
0000
0010
0000
0010
0000
0100
0001
,
0100
0000
0010
0000
0010
0000
1000
0001
,
1000
0000
0100
0000
0100
0000
0010
0100
,
0010
0000
0100
0000
0100
0000
0010
0001
,
0010
0001
0010
0100
,
1000
0000
0000
0000
0001
0000
0000
0001
0000
0000
0002
0000
0000
0000
0000
0000
,
0003
0000
0000
0000
1000
0000
0000
1000
0000
0000
2000
0000
0000
0000
0000
0000
,
3000
0100
0010
0001
,
1001
0000
0000
0000
1000
0000
0000
1000
0000
0000
2000
0000
0000
0000
0000
0000
,
3010
0000
0000
0000
0001
0000
0000
0001
0000
0000
0002
0000
0000
0000
0000
0000
,
0003
0000
0000
0000
0100
0000
0000
0100
0000
0000
0200
0000
0000
0000
0000
0000
,
0310
1000
0001
1000
,
1000
0001
0011
1000
,
1010
0000
0001
0100
0001
0000
1000
0100
,
1000
0000
0000
0000
0001
0000
0000
0001
0000
0000
0001
0000
0200
0000
0000
0000
,
0300
0001
0010
0100
,
0110
0000
1000
0100
1000
0000
0001
0100
,
0001
1000
0010
0100
,
0110
0000
1000
0000
1000
0020
0000
0000
,
0130
0001
0100
0010
,
0110
0000
1000
0100
1000
0000
0001
0100
,
0001
1000
0100
0010
,
0110
0000
0001
0100
0001
0000
1000
0000
,
1000
0001
1000
0100
,
0110
0000
0010
0100
0000
0200
0000
0000
,
0310
0000
0100
0000
0100
0000
0010
0001
,
0010
0000
0001
0000
0001
0000
1000
0010
,
1000
0000
0100
0000
0100
0000
0010
0001
,
0010
0000
0001
0000
0001
0000
0100
0010
,
0100
0000
0010
0000
0010
0000
1000
0001
,
1000
0000
0100
0000
0100
0000
0010
0001
,
0010
0100
1000
0001
,
0010
0000
0000
0000
0001
0000
0000
1000
0000
0000
0001
0000
2000
0000
0000
0000
,
3000
0000
0001
0000
0001
0000
1000
0010
,
1000
0000
0001
0000
0001
0000
1000
0100
,
1000
0000
0010
0000
0010
0000
0100
0001
,
0100
0000
0010
0000
0010
0000
1000
0001
,
1000
0000
0100
0000
0100
0000
0010
0100
,
0010
0000
0100
0000
0100
0000
0010
0001
,
0010
0000
0001
0000
1000
0000
0010
0100
,
0010
2000
0000
0002
,
3003
0000
0000
0000
1000
0000
0000
1000
0000
0000
2000
0000
0000
0000
0000
0000
,
3100
0010
0001
1000
,
1001
0000
0000
0000
1000
0000
0000
1000
0000
0000
2000
0000
0000
0000
0000
0000
,
3010
0100
0001
1000
,
1001
0000
0000
0000
0100
0000
0000
0100
0000
0000
0200
0000
0000
0000
0000
0000
,
0310
0001
1000
0001
,
1000
0001
0101
1000
,
1100
0000
0001
0100
0001
0000
1000
0100
,
1000
0000
0000
0000
0100
0000
0000
0010
0000
0000
0100
0000
0020
0000
0000
0000
,
0030
0001
0010
0100
,
0110
0000
1000
0100
1000
0000
0001
0100
,
0001
1000
0010
0100
,
0110
0000
0001
0000
0001
0200
0000
0000
,
0310
1000
0100
1000
,
1100
0000
0001
0010
0001
0000
0010
0001
,
0010
0001
0100
0010
,
0110
0000
1000
0010
1000
0000
0001
0000
,
1001
1000
0100
0010
,
0110
0000
0100
0000
0100
2000
0000
0000
,
3001
1000
1000
1000
,
0000
0001
0100
0001
,
0000
1000
0010
0010
,
0000
0100
0001
0100
,
0000
0010
0010
0010
,
0000
1000
0100
1000
,
0000
0001
0001
0100
,
0000
0010
1000
0001
,
0010
0100
1000
0001
,
0100
0000
0010
0100
0010
0000
0100
0010
,
0100
0000
0000
0000
0001
0000
0000
0001
0000
0000
0002
0000
0000
0000
0000
0000
,
1003
0100
0110
0010
,
0110
0000
0000
0000
0001
0000
0000
0001
0000
0000
0002
0000
0000
0000
0000
0000
,
0013
0000
0000
0000
0100
0000
0000
0100
0000
0000
0200
0000
0000
0000
0000
0000
,
1300
0000
0000
0000
0010
0000
0000
0010
0000
0000
0020
0000
0000
0000
0000
0000
,
0130
0001
1000
0001
,
0001
1000
1010
0001
,
0011
0000
1000
0001
1000
0000
0001
1000
,
0001
0000
0000
0000
1000
0000
0000
0001
0000
0000
1000
0000
0002
0000
0000
0000
,
0003
0001
0010
0100
,
0110
0000
1000
0100
1000
0000
0001
0100
,
0001
1000
0010
0100
,
0110
0000
0010
0000
0010
2000
0000
0000
,
3001
1000
0100
1000
,
1100
0000
0001
0100
0001
0000
0100
0001
,
0100
0010
1000
0100
,
0110
0000
0001
0010
0001
0000
1000
0000
,
1001
0001
0010
0100
,
0110
0000
0100
0000
0100
2000
0000
0000
,
3001
1000
0010
1000
,
1010
0000
0001
0100
0001
0000
0001
0100
,
0001
0100
0001
0100
,
0110
0000
0010
0000
0010
2000
0000
0000
,
3001
1000
0100
1000
,
1100
0000
0001
0010
0001
0000
0010
0001
,
0010
0001
1000
0100
,
0110
0000
0010
0100
0010
0000
0001
0000
,
1001
1000
0010
0100
,
0110
0000
0100
0001
0100
0000
0001
0100
,
0001
0000
0020
0000
0000
0130
0000
0000
,
1000
0000
0001
0000
0000
1001
0000
0000
;

//---------------dance-single - ----------------
#NOTEDATA:;
#CHARTNAME:;
#STEPSTYPE:dance-single;
#DESCRIPTION:;
#CHARTSTYLE:;
#DIFFICULTY:Beginner;
#METER:2;
#RADARVALUES:0.199324,0.254497,0.027905,0.100459,0.000000,250.000000,245.000000,5.000000,18.000000,0.000000,0.000000,0.000000,0.000000,0.000000,0.199324,0.254497,0.027905,0.100459,0.000000,250.000000,245.000000,5.000000,18.000000,0.000000,0.000000,0.000000,0.000000,0.000000;
#CREDIT:;
#NOTES:
0000
0000
0000
0000
,
0000
0000
0000
0000
,
0000
0000
0000
0000
,
0000
0000
0000
0000
,
0000
0000
0000
0000
,
0000
1000
0000
0010
,
0000
0100
0100
0100
,
0000
0001
0000
0010
,
0000
0100
0100
0100
,
0000
1000
0000
0010
,
0000
0000
0100
0000
0000
0100
0000
0000
,
0000
0001
0000
0010
,
0000
0001
0000
0001
,
0000
1000
0000
0100
,
0000
1000
1000
1000
,
0000
0010
0000
1000
,
0000
0010
0010
0010
,
0000
0100
0000
0001
,
0000
0100
0100
0100
,
0000
0000
0010
0000
0000
0010
0000
0000
,
0000
0010
0000
0010
,
0000
0000
0100
0000
0000
0100
0000
0000
,
0000
0000
0100
0000
0000
0100
0000
0000
,
0000
0000
0001
0000
0000
0001
0000
0000
,
0000
0001
0001
0001
,
0000
1000
0000
0001
,
0000
2002
0000
0000
,
0000
3003
0000
0000
,
0000
1000
0000
0010
,
0000
0100
0100
0100
,
0000
0001
0000
0010
,
0000
0100
0100
0100
,
0000
1000
0000
0010
,
0000
0100
0100
0100
,
0000
0001
0000
0010
,
0000
0100
0100
0100
,
0000
0010
0000
0001
,
0000
0000
0100
0000
0000
0100
0000
0000
,
0000
0010
0000
1000
,
0000
0001
0001
0001
,
0000
1000
0000
0010
,
0000
0100
0100
0100
,
0000
0010
0000
0100
,
0000
0001
0001
0001
,
0000
1000
0000
0001
,
0000
0010
0010
0010
,
0000
1000
1000
1000
,
0000
0100
0000
0010
,
0000
0001
0001
0001
,
0000
0010
0000
0100
,
0000
0010
0010
0010
,
0000
0001
0000
0100
,
0000
0010
0010
0010
,
0000
1000
1000
1000
,
0000
0000
0001
0000
0000
0001
0000
0000
,
0000
1000
0000
0010
,
0000
0100
0100
0100
,
0000
0000
0001
0000
0000
0001
0000
0000
,
0000
1000
1000
1000
,
0000
0100
0000
0010
,
0000
0001
0000
1000
,
0000
2002
0000
0000
,
0000
3003
0000
0000
,
0000
1000
1000
1000
,
0000
0010
0010
0010
,
0000
0100
0000
0001
,
0000
0010
0010
0010
,
0000
0001
0000
0100
,
0000
0010
0010
0010
,
0000
1000
0000
0001
,
0000
1000
1000
1000
,
0000
0100
0000
0010
,
0000
0001
0001
0001
,
0001
0002
0000
0003
,
0000
0020
0000
0030
,
0000
0200
0000
0300
,
0000
2000
0000
3000
,
0000
2000
0000
3000
,
0000
0020
0000
0030
,
0000
0200
0000
0300
,
0000
0002
0000
0003
,
0000
1000
1000
1000
,
0000
0001
0001
2002
,
3003
0000
1000
0000
0000
1000
0000
0000
,
0000
0001
0001
0001
,
0000
0000
0100
0000
0000
0100
0000
0000
,
0000
0000
0010
0000
0000
0010
0000
0000
,
0000
0000
1000
0000
0000
1000
0000
0000
,
0000
0001
0001
0001
,
0000
1000
0000
0001
,
0000
2002
0000
0000
,
0000
3003
0000
0000
,
0000
1000
1000
1000
,
0000
0001
0001
0001
,
0000
0100
0100
0100
,
0000
0000
0010
0000
0000
0010
0000
0000
,
0000
0100
0100
0100
,
0000
0010
0010
0010
,
0000
0000
1000
0000
0000
1000
0000
0000
,
0000
0001
0001
0001
,
0000
0000
0100
0000
0000
0100
0000
0000
,
0000
0000
0010
0000
0000
0010
0000
0000
,
0000
1000
1000
1000
,
0000
0001
0001
0001
,
0000
0000
0100
0000
0000
0100
0000
0000
,
0000
0000
0010
0000
0000
0010
0000
0000
,
0000
0010
0010
0010
,
0000
1000
1000
1000
,
0000
0000
0001
0000
0000
0001
0000
0000
,
0000
0010
0010
0010
,
0000
0000
0100
0000
0000
0100
0000
0000
,
0000
1000
1000
1000
,
1000
1000
0000
0000
,
0000
0000
0001
0000
0000
2002
0000
0000
,
3003
0000
0000
0000
;
